#TITLE:Sky of the Ocean;
#SUBTITLE:;
#ARTIST:memme;
#TITLETRANSLIT:;
#SUBTITLETRANSLIT:;
#ARTISTTRANSLIT:;
#GENRE:Dubthnic;
#CREDIT:Telperion;
#BANNER:[Male Vocalists] - Sky of the Ocean.png;
#BACKGROUND:[Male Vocalists] - Sky of the Ocean-bg.png;
#LYRICSPATH:;
#CDTITLE:cdtitle.png;
#MUSIC:[Male Vocalists] - Sky of the Ocean.ogg;
#OFFSET:-1.048;
#SAMPLESTART:37.033001;
#SAMPLELENGTH:21.913000;
#SELECTABLE:YES;
#DISPLAYBPM:76.667;
#BPMS:0.000000=76.667
;
#STOPS:
;
#BGCHANGES:;
#KEYSOUNDS:;
#ATTACKS:;

//---------------dance-double - Telperion----------------
#NOTES:
     dance-double:
     Telperion:
     Hard:
     8:
     0.454880,0.495779,0.153622,0.195518,0.750651,406.000000,22.000000,28.000000,0.000000,0.000000,0.000000,0.454880,0.495779,0.153622,0.195518,0.750651,406.000000,22.000000,28.000000,0.000000,0.000000,0.000000:
00000000
00000000
00000000
00000000
,
00201000
00000000
00000000
00310000
00010000
00000000
10000000
10000000
00010000
01000000
00000000
01000000
,
00021000
00000000
00000000
00000000
00000000
00000000
00030010
00000000
00000000
00000000
00000000
00000000
00001010
00000000
00000000
00001000
00000000
00000000
00001100
00000000
00000200
00000000
00000000
00000000
,
00000300
00000000
00000000
00000000
00000000
00000000
00010000
00001000
00010000
00000100
00000000
00000010
,
00000001
00000010
00001000
00010000
00000000
00000000
00000010
00001000
00000010
00000100
00000000
00001000
,
00010000
01000000
00100000
00010000
00000000
10000000
00200000
00000000
00000000
02300000
00000000
00000000
,
03020000
00000000
00000000
10030000
00100000
00010000
00001000
00000000
00000000
01000000
00010000
01000000
,
00001000
00010000
01000000
10000000
00000000
00000000
00100000
10000000
01000000
00100000
00000000
00010000
,
10000000
00100000
00010000
00001000
00000000
00000000
00100000
00001000
00010000
00000100
00000000
00000010
,
00000001
00000010
00000100
00001000
00000000
00000000
00000002
00000000
00000000
00000103
00001000
00010000
,
00200000
00000000
00300000
00010000
00001000
00000100
00000020
00000000
00000000
00001030
00000001
00000010
,
00001000
00000000
00010000
00000000
01000000
00000000
11000000
00000000
10000000
00000000
01000000
00000000
00100000
00000000
00000000
00000000
00100000
00000000
00010000
00000000
00000000
00000000
10000000
01000000
,
00100000
00000000
01000000
00000000
10000000
00000000
00010000
00000000
01000000
00000000
00001000
00010000
00001000
00000000
00000000
00000000
00010000
00000000
00000100
00000000
00000000
00000000
00000100
00000000
,
00000010
00000000
00000000
00000001
00001000
00000010
00000100
00000000
00000100
00000001
00000000
00000100
,
00001000
00000000
00001000
00010000
01000000
10000000
00100000
00000000
10000000
01000000
00100000
00010000
,
10000000
00000000
00000000
01000000
00010000
00000000
00001000
00000000
00011000
00000000
00000000
00000000
00000010
00000000
00000000
00000000
00000010
00000000
00001000
00000000
00000000
00000000
00000001
00000000
,
00000100
00000000
00001000
00000000
00010000
00000000
00100000
00000000
00000000
00000000
00010000
00001000
00010000
00000000
00001000
00000000
00100000
00000000
01000000
00000000
00000000
00000000
10000000
00000000
,
00100000
00000000
00000000
00000000
01000000
00000000
00010000
00000000
00000000
00000000
01000000
00000000
10000000
00000000
00000000
01000000
00100000
01000000
00010000
00000000
00000000
01000000
00010000
01000000
,
00001000
00000000
00000000
00001000
01000000
00001000
00010000
00000000
00000100
00000000
01000000
00000000
00001000
00000000
00100000
00000000
01000000
00000000
10000000
00000000
01000000
00000000
00010000
00000000
,
00001000
00000000
00000000
00000000
00000100
00000000
00000001
00000000
00000000
00000000
00000001
00000100
00000010
00000000
00000001
00000000
00000010
00000000
00001000
00000000
00000001
00000000
00000010
00000100
,
00000020
00000000
00000000
00002030
00000000
00003000
00010000
00000010
00000100
00000001
00000100
00001000
,
00010000
00000000
01000000
00000000
00100000
00000000
00010000
00000000
00000000
00000000
10000000
01000000
00100000
00000000
00000000
00001000
00100000
00001000
00010000
00000000
00000000
00010000
00000010
00010000
,
00001000
00000000
00000000
00001000
00010000
00001000
00100000
00000000
00101000
00000000
00000000
00000000
00001000
00000000
00010000
00000000
01000000
00000000
10000000
00000000
01000000
00000000
00100000
00000000
,
00010000
00000000
00000000
00000000
00010000
00000000
01000000
00000000
00000000
00000000
00010000
01000000
00100000
00000000
00010000
00000000
00100000
00000000
10000000
00000000
00010000
00000000
00100000
01000000
,
00200000
00000000
00000000
00302000
00000000
00003000
00010000
00001000
00000010
00000001
00000100
00000010
,
00001000
00000000
00000010
00000000
00000001
00000000
00000010
00000000
00000000
00000000
00000000
00000000
00001001
00000000
00000000
00001000
00000100
00000000
00010000
00000000
00000000
00000010
00010000
00000000
,
00002000
00000000
00000000
00013000
00010000
00000000
02001000
00000000
00000000
03100000
00100000
00000000
,
10100000
10000000
00010000
01000000
00000000
01000000
00021000
00000000
00000000
00030100
00000000
00000000
,
00000110
00000000
00000000
00001100
00000000
00000000
00001001
00000000
00000002
00000000
00000000
00000000
00000103
00000000
00000001
00000100
00000010
00000000
00010000
00001000
00010000
00001000
00100000
00000000
,
01000000
00000000
00000000
10000000
01000000
00000000
00010000
00000000
00001000
00000000
00000100
00000000
00000001
00000000
00000010
00000100
00001000
00000000
00000100
00000010
00000100
00000010
00000001
00000000
,
00001000
00000000
00000000
00000001
00000100
00000000
00001000
00000000
00010000
00000000
01000000
00000000
00100000
01000000
10000000
00000000
00010000
00000000
01000000
00100000
01000000
00100000
10000000
00000000
,
00010000
00000000
00000000
10000000
00100000
00000000
00010000
00000000
00001000
00000000
00000100
00000000
00000001
00000000
00001000
00000100
00001000
00000000
00000001
00000100
00000010
00000100
00000001
00000000
,
00001000
00000001
00000000
00000001
00000100
00000000
00002000
00000000
00000000
00000000
00000000
00000000
00013000
00000000
01000000
00000000
00100000
00000000
00010000
10000000
00010000
10000000
00010000
00000000
,
01000000
00000000
00100000
00000000
,
10000000
00000000
00020000
00000000
,
01030000
10000000
01000000
00010000
00100000
00000000
01000000
10000000
01000000
00010000
00000000
00010000
,
00001000
00000000
00000000
00001000
00100000
00001000
00010000
00000000
00000000
00010000
00000010
00010000
00001000
00000000
00000000
00001000
00010000
00001000
00100000
00000000
00101000
00000000
00001000
00000000
,
00010000
00000000
00001000
00000000
00000100
00000000
00000001
00000000
00000100
00000000
00000010
00000000
00001000
00000000
00000000
00000000
00001000
00000000
00000100
00000000
00000000
00000000
00001000
00000100
,
00000010
00000000
00001000
00000000
00000010
00000000
00000001
00000000
00001000
00000000
00000010
00000100
00000020
00000000
00000000
00000000
00000000
00000000
00020030
00000000
00000000
00000000
00030000
00000000
,
00001000
00010000
00100000
10000000
01000000
00100000
00010000
00100000
10000000
00100000
00000000
00000000
,
10010000
00000000
00000000
00010000
01000000
00000000
00002000
00000000
00000000
00000000
00103000
00001000
00020000
00000000
00000000
00000000
00000000
00000000
00031000
00000000
00001000
00000000
00000000
00000000
,
00010200
00000000
00000000
00000310
00000010
00000000
00000011
00000001
00001000
00000100
00000000
00000100
,
00012000
00000000
00000000
00000000
00000000
00000000
01003000
00000000
00000000
00000000
00000000
00000000
01100000
00000000
00000000
01010000
00000000
00000000
10010000
00000000
20000000
00000000
00000000
00000000
,
30000000
00000000
00000000
00000000
00000000
00000000
02000000
00000000
00000000
00000000
00200000
00000000
,
00000000
00000000
00000000
03300000
00000000
00000000
00000000
00000000
;

//---------------dance-double - Telperion----------------
#NOTES:
     dance-double:
     Telperion:
     Medium:
     6:
     0.288290,0.278876,0.055862,0.125690,0.296769,263.000000,8.000000,18.000000,0.000000,0.000000,0.000000,0.288290,0.278876,0.055862,0.125690,0.296769,263.000000,8.000000,18.000000,0.000000,0.000000,0.000000:
// measure 0
00000000
00000000
00000000
00000000
,  // measure 1
00010000
00000000
00000000
00000100
00000000
00000000
00001000
00000000
00000000
00000001
00000000
00000010
,  // measure 2
00001000
00000000
00000000
00000000
00000000
00000000
00010000
00000000
00000000
00000000
00000000
00000000
00100000
00000000
00000000
10000000
00000000
00000000
00100000
00000000
00010000
00000000
00001000
00000000
,  // measure 3
00000000
00000000
02000000
00010000
,  // measure 4
03100000
10000000
00100000
01000000
00000000
00000000
00002000
00000000
00000000
00013000
00000000
00000000
,  // measure 5
01000000
00001000
00010000
00000100
00000000
00000000
00000020
00000000
00000000
00000230
00000000
00000000
,  // measure 6
00010300
00000000
00000000
00000100
00000000
00001000
00000002
00000000
00000000
00000100
00000000
00000000
,  // measure 7
00001003
00000001
00001000
00000100
00000000
00000000
00010200
00000000
00000000
00001000
00000000
00000000
,  // measure 8
00000310
00000100
00001000
00000001
00000000
00000000
00002000
00000000
00000000
00000100
00000000
00000000
,  // measure 9
00003001
00001000
00000001
00000100
00000000
00000100
00002000
00000000
00000000
00013000
00001000
00010000
,  // measure 10
02000000
00000000
00000000
03010000
01000000
10000000
00200000
00000000
00000000
00310000
00100000
10000000
,  // measure 11
00020000
00000000
00000000
00030000
00000000
00000000
00110000
00000000
10000000
01000000
00000000
00010000
,  // measure 12
00001000
00000000
00001000
00000100
00000000
00000001
00000010
00000000
00000010
00000100
00000000
00000100
,  // measure 13
00010000
00000000
00010000
00001000
00000000
00000000
00010010
00000000
00000000
00000100
00000000
00000001
,  // measure 14
00000100
00000000
00000100
00001000
00000000
00001000
00010000
00000000
00000000
01000000
00000000
00000000
,  // measure 15
10000000
00000000
00000000
01000000
00000000
00000000
00010000
00000000
00001000
00000000
00000000
00000000
00101000
00000000
00000000
00000000
00100000
00000000
01000000
00000000
00000000
00000000
10000000
00000000
,  // measure 16
01000000
00100000
00001000
00010000
00000000
00000000
00010010
00000000
00000010
00000100
00000000
00000001
,  // measure 17
00000100
00000000
00000000
00000000
00000100
00000000
00001000
00000000
00000000
00000000
00000100
00000000
00000001
00000000
00000000
00000010
00000000
00000000
00000100
00000000
00000000
00010000
00000000
00000000
,  // measure 18
00100000
00000000
00000000
10000000
00000000
00000000
01000000
00000000
10000000
00000000
01000000
00000000
00100000
00000000
00000000
00000000
00000000
00000000
00010000
00000000
00000000
00000000
10000000
00000000
,  // measure 19
01000000
00000000
01000000
00010000
00000000
00000000
00001000
00000000
00000000
00000100
00000000
00000100
,  // measure 20
00000002
00000000
00000000
00000013
00000000
00000000
00001000
00000000
00000000
00000001
00000000
00000010
,  // measure 21
00001000
00000000
00000000
00000000
00001000
00000000
00010000
00000000
00000000
00000000
00000000
00000000
01000000
00000000
00000000
00100000
00000000
00000000
00001000
00000000
00000000
00000100
00000000
00000000
,  // measure 22
00000001
00000000
00000000
00001000
00000000
00000000
00000010
00000000
00000010
00000000
00000000
00000000
00001000
00000000
00000000
00000000
00000000
00000000
00000001
00000000
00000000
00000000
00000100
00000000
,  // measure 23
00001000
00000000
00001000
00010000
00000000
00000000
01000000
00000000
00000000
00100000
00000000
01000000
,  // measure 24
00020000
01030000
10000000
00200000
,  // measure 25
00010000
00000000
10300000
00000000
10010000
00010000
01000000
00001000
,  // measure 26
00010000
00000000
00000000
00000100
00000000
00000000
00010000
00000000
00010000
00000000
00000000
00000000
00001000
00000000
00000000
00000000
00000000
00000000
01000000
00000000
00000000
00000000
00000000
00000000
,  // measure 27
00010000
00000000
00000000
10000000
00000000
00100000
00010000
00000000
00000000
00001000
00000000
00000000
,  // measure 28
00000010
00000000
00000000
00000001
00000000
00000000
00000010
00000000
00001000
00000000
00010000
00000000
00000000
00000000
00000100
00000000
01000000
00000000
00001000
00000000
00010000
00000000
01000000
00000000
,  // measure 29
00100000
00000000
00100000
00010000
00000000
10000000
01000000
00000000
01000000
00010000
00000000
00001000
,  // measure 30
00000100
00000000
00000100
00000001
00000000
00000001
00000010
00000000
00000010
00001000
00000000
00010000
,  // measure 31
00100000
00000000
00100000
10000000
00000000
10000000
01000000
00000000
01000000
00010000
00000000
00001000
,  // measure 32
00000100
00000000
00000000
00000000
00000100
00000000
00000002
00000000
00000000
00000000
00000000
00000003
00001001
00000000
00000000
00000001
00000000
00000000
00000010
00000000
00000100
00000000
00010000
00000000
,  // measure 33
00001000
00000000
00000000
00000000
,  // measure 34
01000000
00000000
00020000
00000000
,  // measure 35
10030000
00100000
00010000
00001000
,  // measure 36
00000100
00000000
00000000
00000010
00000000
00000000
00010000
00000000
00000000
01000000
00000000
00000000
10000000
00000000
00000000
00010000
00000000
00000000
00100000
00000000
00100000
00000000
00000000
00000000
,  // measure 37
00010000
00000000
00000000
10000000
00000000
01000000
00010000
00000000
00010000
00001000
00000000
00000000
,  // measure 38
00000100
00000000
00000000
00000010
00000000
00000100
00002000
00000000
00000000
00003100
00000000
00000000
,  // measure 39
00000001
00000000
00000000
00000010
00000000
00000000
00000010
00001000
00000010
00000001
00000000
00000000
,  // measure 40
00001001
00000000
00000000
00001000
00000000
00000000
00000010
00000000
00000000
00000000
00010000
00000000
00001000
00000000
00000000
00000000
00000000
00000000
00010000
00000000
00010000
00000000
00000000
00000000
,  // measure 41
00000100
00000000
00000000
01000000
00000000
00000000
00010000
00000000
00000000
00100000
00000000
01000000
,  // measure 42
10000000
00000000
00000000
00000000
00000000
00000000
00010000
00000000
00000000
00000000
00000000
00000000
01000000
00000000
00000000
10000000
00000000
00000000
01000000
00000000
00100000
00000000
00010000
00000000
,  // measure 43
00000000
00000000
00002000
00000000
,  // measure 44
00000000
00000000
00000000
00003000
00000000
00000000
00000000
00000000
;

//---------------dance-double - Telperion----------------
#NOTES:
     dance-double:
     Telperion:
     Easy:
     3:
     0.162600,0.154931,0.000000,0.055862,0.031423,155.000000,0.000000,8.000000,0.000000,0.000000,0.000000,0.162600,0.154931,0.000000,0.055862,0.031423,155.000000,0.000000,8.000000,0.000000,0.000000,0.000000:
00000000
00000000
00000000
00000000
,
00001000
01000000
00010000
00100000
,
00001000
00000000
00000000
00010000
00000000
00000000
00000100
00000000
00000000
00000010
00000010
00000000
,
00000000
00000000
00000001
00000100
,
00000010
00001000
00000001
00000100
,
00001000
00000000
00010000
01000000
,
00100000
00010000
10000000
01000000
,
00010000
00000000
00001000
00000100
,
00000010
00001000
00000001
00000010
,
00001000
00000000
00010000
01000000
,
10000000
00100000
10000000
01000000
,
00200000
00300000
00010000
10000000
,
00100000
01000000
10000000
01000000
,
00010000
00000000
00100000
00001000
,
00010000
00000100
00001000
00000010
,
00000100
00000000
00000000
00000100
00000000
00000000
00000001
00000000
00000001
00000000
00000000
00000000
00000010
00000000
00000000
00000000
00000000
00000000
00000001
00000000
00000000
00000000
00000000
00000000
,
00000100
00001000
00010000
01000000
,
10000000
00100000
00020000
00000000
,
00030000
00000000
00001000
00100000
,
01000000
10000000
01000000
00010000
,
00001000
00000000
00010000
00000010
,
00000100
00000001
00000100
00001000
,
00010000
00000000
00000000
00001000
00001000
00000000
00010000
00000000
00000000
00000100
00000000
00000000
,
00000010
00000001
00000010
00001000
,
00010000
00000000
00001000
01000000
,
00100000
10000000
00100000
00010000
,
00001000
00000000
00000000
00010000
00010000
00000000
00001000
00000000
00000000
00100000
00000000
00000000
,
00010000
01000000
00001000
00010000
,
00000010
00000000
00000000
00000100
00000100
00000000
00000000
00000000
00000000
00000000
00000000
00000000
,
00000001
00000000
00000000
00000100
00000000
00000000
00001000
00000000
00000000
00010000
00000000
00010000
,
01000000
10000000
00200000
01000000
,
10300000
00000000
00000000
00100000
00000000
00000000
00010000
00000000
00000000
00001000
00000000
00001000
,
00000100
00000000
00000002
00000000
00001003
00000001
00001000
00000000
,
00000100
00000000
00000000
00000000
,
00000000
00000000
00000000
00000000
,
00010000
00000000
00001000
00000000
,
01000000
00100000
00020000
00030000
,
00001000
01000000
00100000
10000000
,
00100000
00010000
00002000
00003000
,
00010000
00000100
00000010
00000001
,
00000010
00000000
00000000
00001000
00000000
00000000
00020000
00000000
00000000
00031000
00001000
00000000
,
00010000
00000010
00001000
00000100
,
00010000
00000000
00000000
00001000
00000000
00000000
01000000
00000000
00000000
00100000
00100000
00000000
,
00000000
00000000
20000000
00000000
,
00000000
00000000
00000000
30000000
00000000
00000000
00000000
00000000
;

//---------------dance-single - Telperion----------------
#NOTES:
     dance-single:
     Telperion:
     Hard:
     8:
     0.474830,0.449300,0.314226,0.146639,0.778582,410.000000,45.000000,21.000000,0.000000,0.000000,0.000000,0.474830,0.449300,0.314226,0.146639,0.778582,410.000000,45.000000,21.000000,0.000000,0.000000,0.000000:
0000
0000
0000
0000
,
1001
0000
0000
0001
0000
1000
0100
0000
0010
0000
0000
0000
0011
0000
0010
0000
0100
1000
0001
0000
0000
0000
1000
0000
,
1010
0000
0000
0000
0010
0100
0001
0000
0000
0000
1000
0000
0101
0000
0000
0110
0000
0000
1010
0000
0001
0000
0010
0000
,
0000
0000
0000
0000
0000
0000
0110
1000
0001
0100
0000
0010
,
0001
0010
1000
0100
0000
0000
0010
0100
1000
0001
0000
1000
,
0010
0001
0010
1000
0000
0001
0020
0000
0000
0230
0000
0000
,
0002
0000
0003
1300
0100
0010
0002
0000
0003
1000
0001
0100
,
0020
0000
0000
0030
0000
0000
0110
0001
1000
0100
0000
0010
,
1000
0010
0001
0100
0000
0000
0010
0100
0010
1000
0000
0100
,
0010
1000
0010
0001
0000
1000
0020
0000
0000
0230
0000
0010
,
0302
0000
0003
1000
0001
1000
0200
0000
0300
0001
0100
1000
,
0020
0000
0000
0000
0000
0000
0000
0000
0000
0000
0030
0000
0101
0000
1000
0000
0001
0000
0010
0000
0000
0000
0100
0010
,
0001
0000
0010
0000
0100
0000
1000
0000
0000
0000
0001
0100
1000
0000
0100
0000
0001
0000
1000
0000
0000
0000
0100
0000
,
1000
0000
0100
0000
0010
0000
0001
0000
1000
0000
0010
0000
0001
0000
0010
0000
0100
0000
0001
0000
0000
0000
1000
0001
,
0100
0010
0100
0001
1000
0100
0010
0000
0001
0010
0100
1000
,
1001
0000
0000
0100
0000
0000
1001
0000
0001
0000
0000
0000
0011
0000
1000
0000
0001
0000
0100
0000
0000
0000
0100
0000
,
0010
1000
0001
0100
0000
0010
1010
0001
1000
0100
0000
0010
,
1000
0000
0010
0000
0001
0000
1000
0000
0000
0000
0010
0000
0110
0000
0000
0100
0001
0100
0010
0000
0000
1000
0100
0010
,
0001
0000
0000
0010
0100
1000
0001
0000
1010
0000
0101
0000
1001
0000
1000
0000
0100
0000
0010
0000
0100
0000
1000
0000
,
0001
0000
0000
0000
0100
0000
0100
0000
0000
0000
0001
0100
0010
0000
0001
0000
0010
0000
1000
0000
0001
0000
1000
0100
,
0020
0000
0000
0000
0000
0000
0230
0000
0000
0300
0000
0000
1100
0000
0001
0000
0100
0000
0010
0000
1000
0000
0001
0000
,
0010
0000
0100
0000
0010
0000
0001
0000
0000
0000
1000
0000
1010
0000
0000
0001
0100
0001
0010
0000
0000
0100
1000
0100
,
0010
0000
0000
0001
1000
0001
0100
0000
0100
0000
0000
0000
0101
0000
1000
0000
0010
0000
1000
0000
0100
0000
0010
0000
,
0001
0000
0000
0000
1000
0000
1000
0000
0000
0000
0001
0100
0010
0000
0001
0000
0010
0000
1000
0000
0001
0000
0010
0100
,
2000
0000
0000
3200
0000
0300
1001
1000
0010
0100
0001
0010
,
1000
0000
0001
0000
0100
0000
1000
0000
0000
0000
0001
0000
0001
0000
0000
1000
0100
0000
0010
0000
0000
0001
0100
0000
,
0010
0000
0000
1000
0001
1000
0100
0000
0100
0000
0000
0000
1001
0000
0000
1000
0000
0001
0100
0000
0010
0000
0000
0000
,
1010
0000
0010
0000
0100
0001
1000
0000
0000
0000
0001
0000
0011
0000
0000
0000
0010
0100
1000
0000
0000
0000
0001
0000
,
1100
0000
0000
0110
0000
0000
0011
0000
1000
0000
0000
0000
0010
0000
0110
0000
0101
0000
1000
0001
1000
0000
1000
0000
,
0100
0000
0000
0000
0010
0000
0011
0000
0010
0000
0100
0000
1000
0000
0001
1000
0001
0000
0101
0000
0000
0000
0100
0000
,
0010
0000
0000
0000
1000
0000
1100
0000
0001
0000
0100
0000
0001
0010
0100
0000
1000
0000
1001
0000
0000
0000
0001
0000
,
0100
0000
0000
0000
0010
0000
1010
0000
0010
0000
0100
0000
0001
0000
1000
0001
1000
0000
1100
0000
0000
0000
0100
0000
,
0010
0000
0000
0000
0100
0000
2002
0000
0000
0000
3000
0000
0103
0000
0010
1000
0010
0000
0100
0001
0010
0001
0010
0000
,
0100
0000
1000
0000
,
0100
0000
0000
0000
0000
0000
0020
0000
0000
0000
0000
0030
,
0001
0000
0000
1000
0000
1000
0010
0000
0000
0100
0000
0000
,
0011
0000
0000
1000
0100
1000
0010
0000
0000
0100
0001
0100
0010
0000
0000
1000
0001
1000
0100
0000
0100
0000
0000
0000
,
1001
0000
0001
0000
0100
0000
0010
0000
0001
0000
0010
0000
1000
0000
0000
0000
0001
0000
0001
0000
0000
0000
1000
0100
,
0010
0000
1000
0000
0010
0000
0001
0000
1000
0000
0010
0100
0020
0000
0000
0000
0000
0000
0230
0000
0000
0000
0300
0000
,
1010
0001
0010
0100
1000
0010
0001
1000
0100
0001
0000
1000
,
1000
0000
0000
0001
0010
0000
0100
0000
0000
1000
0010
0000
0100
0000
0000
0001
1000
0001
0100
0000
0100
0000
0000
0000
,
1001
0000
0000
0001
0000
1000
0100
0000
0010
0000
0000
0000
0011
0000
0010
0000
0100
1000
0001
0000
0000
0000
1000
0000
,
1010
0000
0000
0000
0010
0100
0001
0000
0000
0000
1000
0000
0101
0000
0000
0110
0000
0000
1010
0000
0001
0000
0100
0000
,
0000
0000
0000
0000
0000
0000
0020
0000
0000
0000
0200
0000
,
0000
0000
0000
0330
0000
0000
0000
0000
;

//---------------dance-single - Telperion----------------
#NOTES:
     dance-single:
     Telperion:
     Medium:
     6:
     0.335174,0.309862,0.188536,0.230432,0.373580,276.000000,27.000000,33.000000,0.000000,0.000000,0.000000,0.335174,0.309862,0.188536,0.230432,0.373580,276.000000,27.000000,33.000000,0.000000,0.000000,0.000000:
0000
0000
0000
0000
,
2100
0000
0000
0001
0000
0000
3010
1000
0010
0100
0000
0100
,
0002
0000
0000
0000
0000
0000
1000
0000
0000
0000
0000
0000
0013
0000
0000
0100
0000
0000
1000
0000
0100
0000
0001
0000
,
0000
0000
0000
0000
0000
0000
1000
0000
1000
0010
0000
0000
,
0001
0010
1000
0100
0000
0000
0010
0000
0010
0100
0000
0000
,
1000
0100
1000
0001
0000
0000
0020
0000
0000
0230
0000
0000
,
0302
0000
0003
0100
0000
0100
1000
0000
0000
0001
1000
0001
,
0200
0000
0000
0300
0000
0000
0001
0000
0001
0010
0000
0010
,
1000
0010
0001
0100
0000
0000
0010
0000
0010
0100
0000
0100
,
0001
1000
0001
0010
0000
0000
2000
0000
0000
3010
0000
0010
,
0002
0000
0000
0103
0000
0100
2000
0000
0000
3100
0010
0100
,
0002
0000
0000
1003
0100
0010
0012
0000
0000
1003
0000
1000
,
0010
0000
0010
0100
0000
0100
1000
0000
0100
0001
0000
0001
,
0010
0000
0010
0100
0000
0100
2100
0000
0000
3001
0000
0001
,
0100
0000
0100
0010
0000
0010
1000
0000
0001
1000
0100
0010
,
0001
0000
0000
0010
0000
0000
0100
0000
0100
0000
0000
0000
1002
0000
0000
0000
0000
0000
0103
0000
0000
0000
0100
0000
,
0010
0000
0010
1000
0000
1000
2001
0000
0000
3100
0000
0100
,
0010
0000
0000
0000
0100
0000
1000
0000
0000
0000
0001
0000
0110
0000
0000
1000
0000
0000
0011
0000
0000
0001
0000
0000
,
1010
0000
0000
1000
0000
0000
0001
0000
0010
0000
0010
0000
0210
0000
0000
0000
0000
0000
1300
0000
0000
0000
1000
0000
,
0010
0000
1000
0001
0000
0001
0010
1000
0010
0001
0000
1000
,
0020
0000
0000
0130
0000
0000
0210
0000
0000
0301
0000
0010
,
0100
0000
0000
0000
0100
0000
1000
0000
0000
0000
1000
0000
0001
0000
0000
0001
0000
0000
0101
0000
0000
1000
0000
0000
,
1100
0000
0000
0001
0000
0000
0010
0000
0010
0000
0000
0000
0110
0000
1000
0000
0001
0000
0100
0000
0000
0000
0100
0000
,
0010
0000
0100
0001
0000
0000
1000
0001
0010
0100
0000
0100
,
0002
0000
0000
0203
0000
0300
1100
0001
1000
0010
0000
0010
,
0001
0000
0010
1000
0000
0000
0100
0000
0100
0010
0000
0010
,
0001
0000
0000
1000
0000
0000
0010
0000
0010
0000
0000
0000
0102
0000
0000
0000
0000
0000
1000
0000
0000
0000
0000
0000
,
0013
0001
0010
0100
0000
0100
2000
0000
0000
0001
0000
0000
,
3010
0000
0000
0100
0000
0000
0001
0000
0100
0000
1000
0000
0000
0000
0100
0000
0001
0000
0010
0000
0100
0000
1000
0000
,
0001
0000
0000
2100
0000
0000
3001
0000
0000
0101
0000
0001
,
1000
0000
0000
1200
0000
0000
0310
0100
1000
0001
0000
0001
,
0100
0000
0000
0102
0000
0000
1003
0000
0000
1100
0000
1000
,
0001
0000
0000
0000
0000
0000
0220
0000
0000
0000
0000
0330
1001
0000
0000
1000
0000
0000
0001
0000
0010
0000
0100
0000
,
1000
0000
0000
0000
,
0000
0000
0000
0000
,
0001
0000
0100
0000
,
0010
1000
0001
0000
,
0210
0000
0000
0301
0000
0001
0010
0000
0001
1000
0000
1000
,
0010
0001
0010
1000
0000
0001
0020
0000
0000
0130
0000
0000
,
0210
0000
0000
1300
0000
0010
0100
0000
0100
0001
0000
0001
,
1000
0000
0000
1000
0000
0000
1010
0000
0000
0000
0001
0000
0011
0000
0000
1000
0000
0000
0010
0000
0010
0000
0000
0000
,
0102
0000
0000
0010
0000
0000
1003
0001
0010
0100
0000
0100
,
2000
0000
0000
0000
0000
0000
0010
0000
0000
0000
0000
0000
3001
0000
0000
0100
0000
0000
0001
0000
0010
0000
1000
0000
,
0000
0000
0000
0000
0000
0000
0200
0000
0000
0000
0020
0000
,
0000
0000
0000
0330
0000
0000
0000
0000
;

//---------------dance-single - Telperion----------------
#NOTES:
     dance-single:
     Telperion:
     Easy:
     3:
     0.202501,0.201410,0.097759,0.202501,0.027931,160.000000,14.000000,29.000000,0.000000,0.000000,0.000000,0.202501,0.201410,0.097759,0.202501,0.027931,160.000000,14.000000,29.000000,0.000000,0.000000,0.000000:
0000
0000
0000
0000
,
1000
0000
0000
0010
0000
0000
0100
0000
0000
0001
0000
1000
,
0001
0000
0000
0000
0000
0000
0010
0000
0000
0000
0000
0000
0100
0000
0000
1000
0000
0000
0010
0000
0010
0000
0000
0000
,
0000
0000
0200
0010
,
0301
0100
2000
3200
,
0302
0003
0020
0100
,
0031
0010
0100
1000
,
0001
0000
0200
0010
,
1300
0100
0002
0203
,
0320
0030
2000
0100
,
3010
1000
0001
0010
,
0100
0000
0110
1000
,
0000
1000
0010
0100
,
0001
1000
0110
0001
,
0000
0001
1000
0100
,
0010
0010
0001
0000
0110
0000
0001
0000
,
0010
0100
0110
1000
,
0010
0100
0202
0000
,
0000
0303
1002
0100
,
0013
0001
1000
0010
,
0100
0010
2001
0100
,
3010
0000
1000
0000
0100
0100
0010
0010
,
0001
0000
0000
1000
1000
0000
0002
0000
0000
1000
0000
0000
,
0100
0013
0001
0010
,
1000
0010
2001
0100
,
3020
0031
1000
0001
,
0020
0030
0001
0010
,
0100
0000
0000
1000
0000
0001
1000
0000
0000
0010
0000
0000
,
0100
0000
0000
0001
0000
0000
0010
0000
0010
0000
0000
0000
0000
0000
0000
0000
0000
0000
0000
0000
0000
0000
0000
0000
,
2100
0001
3010
1000
,
1002
0100
0023
0130
,
0012
1000
0103
0001
,
2001
0000
3100
0000
0010
0010
0001
0000
,
1000
0000
0000
0000
,
0000
0000
0000
0000
,
0001
0000
0000
0000
,
0100
0010
1000
0001
,
2000
0001
0100
3010
,
1000
0010
0001
0010
,
1002
0100
0023
1030
,
0001
0000
0000
1000
0000
0000
0020
0000
0000
0130
0100
0000
,
0001
0000
0000
0010
0000
0000
0100
0000
0000
0010
0000
0001
,
1000
0000
0000
0000
0000
0000
0010
0000
0000
0000
0000
0000
0100
0000
0000
0001
0000
0000
0010
0000
0010
0000
0000
0000
,
0000
0000
0220
0000
,
0000
0000
0000
0330
0000
0000
0000
0000
;

//---------------dance-single - Telperion----------------
#NOTES:
     dance-single:
     Telperion:
     Beginner:
     1:
     0.079803,0.123945,0.034914,0.048880,0.000000,68.000000,5.000000,7.000000,0.000000,0.000000,0.000000,0.079803,0.123945,0.034914,0.048880,0.000000,68.000000,5.000000,7.000000,0.000000,0.000000,0.000000:
0000
0000
0000
0000
,
1000
0000
0001
0000
,
0100
0000
0010
0000
,
0000
0000
1000
0000
,
0000
0000
0001
0000
,
0000
0000
0010
0000
,
0100
0000
1000
0000
,
0000
0000
0001
0000
,
0000
0000
0100
0000
,
0000
0000
0010
0000
,
0100
0000
0001
0000
,
1000
0000
0020
0000
,
0030
0000
0100
0000
,
0001
0000
0020
0000
,
0030
0000
0100
0000
,
1000
0000
0020
0030
,
0200
0300
0002
0003
,
2000
3000
1001
0000
,
0000
0000
0001
0000
,
0000
0000
0100
0000
,
0010
0000
1000
0000
,
0000
0000
0100
0000
,
0010
0000
0001
0000
,
1000
0000
0010
0000
,
0100
0000
0001
0000
,
1000
0000
0100
0100
,
0100
0000
1000
0000
,
0001
0000
0100
0000
,
0010
0000
0000
0000
,
0110
0000
0000
0000
,
1001
0000
0000
0000
,
0110
0000
0000
0000
,
1001
0000
0100
0000
,
0010
0000
0000
0000
,
0000
0000
0000
0000
,
1000
0000
0000
0000
,
0001
0000
0010
0000
,
0001
0000
1000
0000
,
0010
0000
0100
0000
,
0001
0000
1000
0000
,
0100
0100
0100
0000
,
1000
0000
0001
0000
,
0100
0000
0010
0000
,
0000
0000
0200
0000
,
0000
0000
0000
0300
0000
0000
0000
0000
;
