#VERSION:0.81;
#TITLE:SPEEDY SPEED BOY;
#SUBTITLE:;
#ARTIST:MARKO POLO;
#TITLETRANSLIT:;
#SUBTITLETRANSLIT:;
#ARTISTTRANSLIT:;
#GENRE:;
#ORIGIN:;
#CREDIT:;
#BANNER:[Male Vocalists] - SPEEDY SPEED BOY.png;
#BACKGROUND:[Male Vocalists] - SPEEDY SPEED BOY-bg.png;
#PREVIEWVID:;
#JACKET:[Male Vocalists] - SPEEDY SPEED BOY-jacket.png;
#CDIMAGE:;
#DISCIMAGE:;
#LYRICSPATH:;
#CDTITLE:cdtitle.png;
#MUSIC:[Male Vocalists] - SPEEDY SPEED BOY.ogg;
#OFFSET:0.000;
#SAMPLESTART:37.674;
#SAMPLELENGTH:12.624;
#SELECTABLE:YES;
#BPMS:0.000=152.090,
160.000=76.045,
176.000=152.090;
#STOPS:;
#DELAYS:;
#WARPS:;
#TIMESIGNATURES:0.000=4=4;
#TICKCOUNTS:0.000=4;
#COMBOS:0.000=1;
#SPEEDS:0.000=1.000=0.000=0;
#SCROLLS:0.000=1.000;
#FAKES:;
#LABELS:0.000=Song Start;
#BGCHANGES:;
#KEYSOUNDS:;
#ATTACKS:
;

//---------------dance-single - xRGTMx-S10----------------
#NOTEDATA:;
#CHARTNAME:xRGTMx-S10;
#STEPSTYPE:dance-single;
#DESCRIPTION:xRGTMx-S10;
#CHARTSTYLE:;
#DIFFICULTY:Hard;
#METER:8;
#RADARVALUES:0.517,0.497,0.395,0.507,0.077,316.000,46.000,59.000,0.000,0.000,0.000,0.000,0.000,0.517,0.497,0.395,0.507,0.077,316.000,46.000,59.000,0.000,0.000,0.000,0.000,0.000;
#CREDIT:xRGTMx-S10;
#NOTES:
// measure 0
0000
0000
0000
0000
,  // measure 1
0000
0000
0000
0000
,  // measure 2
0000
0000
0000
0000
,  // measure 3
0000
0000
0000
0000
,  // measure 4
0001
0000
0000
0000
0010
0000
0000
0010
0000
0000
0100
0000
0000
0000
1000
0000
,  // measure 5
0001
0000
0000
0000
1000
0000
0000
0010
0000
0000
0020
0000
0000
0000
0100
0000
,  // measure 6
0130
0001
1000
0000
0100
1000
0001
0000
,  // measure 7
0100
0000
0010
0000
0010
0000
0000
1000
0000
0000
0001
1000
0001
0000
0000
0000
,  // measure 8
2100
3002
0203
1000
,  // measure 9
0302
0000
0023
0000
0230
0000
1300
0001
,  // measure 10
1000
0010
0100
0000
0001
0000
1000
0001
,  // measure 11
0000
0001
0010
0000
0100
0000
1000
0001
,  // measure 12
0102
2003
3200
0001
,  // measure 13
2300
0000
3020
0000
0230
0000
0301
1000
,  // measure 14
0001
0010
0100
0000
1000
0000
0001
1000
,  // measure 15
0000
0000
1000
0000
0010
0000
0000
0000
0100
0000
0001
1000
0001
0000
0000
0000
,  // measure 16
2100
0000
3001
0000
0102
0000
1003
0001
,  // measure 17
0000
0011
0000
2010
0000
0001
3001
0000
,  // measure 18
0102
0000
1003
0000
2100
0000
3001
1000
,  // measure 19
0000
1010
0000
0012
0000
1000
1003
0000
,  // measure 20
0010
0100
0001
0000
0010
0000
0100
1000
,  // measure 21
0000
1001
0000
0101
0000
0100
0010
1000
,  // measure 22
0000
0001
0002
0000
1000
2003
0000
3100
,  // measure 23
0100
0010
0002
0000
1000
2000
0000
3003
,  // measure 24
1001
1100
0101
1001
,  // measure 25
1000
0100
0001
0100
0000
1000
0001
0000
,  // measure 26
1001
0101
1100
1001
,  // measure 27
0001
0100
1000
0100
0000
0001
1000
0000
,  // measure 28
1001
1010
0011
0110
,  // measure 29
0100
1000
0010
0100
0000
0001
0100
0010
,  // measure 30
0000
1010
0000
1100
0000
0101
0000
1002
,  // measure 31
0000
2003
0100
3001
,  // measure 32
1000
0000
0000
0000
0010
0000
0000
0010
0000
0000
0100
0000
0000
0000
0001
0000
,  // measure 33
1000
0000
0000
0000
0001
0000
0000
0010
0000
0000
0020
0000
0000
0000
0100
0000
,  // measure 34
0130
1000
0001
0000
0100
0001
1000
0000
,  // measure 35
0100
0000
0000
0010
0000
0000
0010
0000
0001
0000
1000
0000
1000
0000
0000
0000
,  // measure 36
0001
0000
0000
0000
0100
0000
0000
0100
0000
0000
0010
0000
0000
0000
1000
0000
,  // measure 37
0001
0000
0000
0000
1000
0000
0000
0100
0000
0000
0200
0000
0000
0000
0010
0000
,  // measure 38
0310
0000
0001
0000
1000
0000
0000
0000
0010
0000
0000
1000
0001
0000
0000
0000
,  // measure 39
0010
0000
0100
0000
0100
0000
0000
1000
0000
0000
0001
1000
0001
0000
0000
0000
,  // measure 40
0201
0000
0010
1000
,  // measure 41
0302
0000
0010
1003
,  // measure 42
1200
0010
0001
1300
,  // measure 43
0000
1000
0001
0000
0001
1000
0000
1000
0010
0010
0100
0000
0100
0010
0000
0000
,  // measure 44
0020
0100
0000
0100
0000
1000
0000
2030
,  // measure 45
0000
0001
0000
0001
0000
0100
0000
3100
,  // measure 46
0020
0100
0000
0100
0000
0001
0000
0032
,  // measure 47
0000
1000
0000
1000
0000
0100
0000
0103
,  // measure 48
0001
2000
0000
3200
0000
0320
0000
0032
,  // measure 49
0000
2003
0000
3020
0000
0230
0000
0302
,  // measure 50
0000
0023
0000
2030
0000
3200
0000
0302
,  // measure 51
2003
0000
0000
0000
0000
0000
0000
3000
,  // measure 52
1001
1010
0011
1001
,  // measure 53
1000
0010
0001
0010
0000
1000
0001
0000
,  // measure 54
1001
0011
1010
1001
,  // measure 55
0001
0010
1000
0010
0000
0001
1000
0000
,  // measure 56
1001
1100
0101
0110
,  // measure 57
0010
1000
0100
0010
0000
0001
0010
0100
,  // measure 58
0000
1100
0000
1010
0000
0011
0000
1002
,  // measure 59
0000
2003
0010
3001
,  // measure 60
1000
0010
1000
0010
0100
0010
0000
0010
,  // measure 61
2000
0100
0002
3003
,  // measure 62
0001
0010
0001
0010
0100
0010
0000
0010
,  // measure 63
0002
0100
2000
3003
,  // measure 64
1000
0100
0010
0100
1000
0001
0000
0001
,  // measure 65
0200
2300
3200
0300
,  // measure 66
0001
0010
0100
0010
0001
1000
0000
1000
,  // measure 67
0020
0032
0203
0000
,  // measure 68
0300
0000
0000
0000
;

//---------------dance-single - xRGTMx-S8----------------
#NOTEDATA:;
#CHARTNAME:xRGTMx-S8;
#STEPSTYPE:dance-single;
#DESCRIPTION:xRGTMx-S8;
#CHARTSTYLE:;
#DIFFICULTY:Medium;
#METER:6;
#RADARVALUES:0.387,0.409,0.155,0.438,0.030,246.000,18.000,51.000,0.000,0.000,0.000,0.000,0.000,0.387,0.409,0.155,0.438,0.030,246.000,18.000,51.000,0.000,0.000,0.000,0.000,0.000;
#CREDIT:xRGTMx-S8;
#NOTES:
// measure 0
0000
0000
0000
0000
,  // measure 1
0000
0000
0000
0000
,  // measure 2
0000
0000
0000
0000
,  // measure 3
0000
0000
0000
0000
,  // measure 4
0001
0000
0010
0000
0100
1000
0100
0000
,  // measure 5
1000
0000
0010
0000
0100
0001
0100
0000
,  // measure 6
0001
0010
1000
0100
,  // measure 7
0001
0000
0000
0000
0002
0000
0000
2000
0000
0000
0000
0000
3003
0000
0000
0000
,  // measure 8
1100
1000
0001
0000
,  // measure 9
0100
0100
0001
1000
,  // measure 10
0100
0010
0100
0000
1000
0000
0001
0000
,  // measure 11
0100
0010
0100
0000
0001
0000
1000
0000
,  // measure 12
1010
1000
0001
0000
,  // measure 13
0010
0010
0001
1000
,  // measure 14
0010
0100
0010
0000
1000
0000
0001
0000
,  // measure 15
0010
0100
0010
0000
0002
0000
1003
0000
,  // measure 16
2000
3200
0302
0203
,  // measure 17
1300
0010
0001
0100
,  // measure 18
1000
0010
0001
0010
,  // measure 19
1000
0001
1001
1000
,  // measure 20
0002
0023
2030
3020
,  // measure 21
0031
0100
1000
0010
,  // measure 22
0000
0001
1000
0000
1000
0001
0000
0100
,  // measure 23
0010
0100
0010
0000
0010
0100
0000
0000
,  // measure 24
1001
0100
1001
0010
,  // measure 25
1000
0100
0001
0000
0010
0000
1000
0000
,  // measure 26
1001
0100
1001
0010
,  // measure 27
0001
0100
1000
0000
0010
0000
0001
0000
,  // measure 28
0110
1000
0110
0001
,  // measure 29
0010
1000
0100
0000
0001
0000
0010
2000
,  // measure 30
0000
3200
0000
0320
0000
0032
0000
0203
,  // measure 31
0000
0000
0000
0310
,  // measure 32
0110
0010
1000
0100
,  // measure 33
0010
0001
0010
0000
0100
1000
0000
1000
,  // measure 34
0002
0010
2003
0010
,  // measure 35
3001
0000
1000
0100
0000
0010
0001
0000
,  // measure 36
1000
0000
0010
0000
0100
0001
0100
0000
,  // measure 37
0001
0000
0010
0000
0100
1000
0100
0000
,  // measure 38
1000
0010
0001
0100
,  // measure 39
1000
0000
0000
0000
2000
0000
0000
0002
0000
0000
0000
0000
3003
0000
0000
0000
,  // measure 40
2000
0000
3000
0000
,  // measure 41
0002
0000
0003
0000
,  // measure 42
0220
0000
0330
0000
,  // measure 43
0000
1000
0001
0000
0001
1000
0000
0100
0010
0100
0010
0000
0010
0100
0000
0000
,  // measure 44
2000
0000
3200
0000
,  // measure 45
0320
0000
0032
0000
,  // measure 46
2003
0000
3020
0000
,  // measure 47
0230
0000
0302
0000
,  // measure 48
1003
0100
0001
0100
,  // measure 49
0010
0100
1000
0010
,  // measure 50
0001
0100
1000
0010
,  // measure 51
2002
0000
0000
3003
,  // measure 52
1001
0010
1001
0100
,  // measure 53
1000
0010
0001
0000
0100
0000
1000
0000
,  // measure 54
1001
0010
1001
0100
,  // measure 55
0001
0010
1000
0000
0010
0000
0001
0000
,  // measure 56
0110
1000
0110
0001
,  // measure 57
0100
1000
0010
0000
0001
0000
0100
2000
,  // measure 58
0000
3020
0000
0230
0000
0302
0000
0023
,  // measure 59
0000
0000
0000
0130
,  // measure 60
1000
0000
0000
0000
0100
0010
0000
0000
,  // measure 61
0001
0100
1000
0000
,  // measure 62
0001
0000
0000
0000
0100
0010
0000
0000
,  // measure 63
1000
0100
0001
0000
,  // measure 64
2000
3020
0032
0003
,  // measure 65
2000
3200
0302
0003
,  // measure 66
0020
0230
2300
3002
,  // measure 67
0203
0010
0320
0000
,  // measure 68
0030
0000
0000
0000
;

//---------------dance-single - xRGTMx-S6----------------
#NOTEDATA:;
#CHARTNAME:xRGTMx-S6;
#STEPSTYPE:dance-single;
#DESCRIPTION:xRGTMx-S6;
#CHARTSTYLE:;
#DIFFICULTY:Easy;
#METER:5;
#RADARVALUES:0.312,0.351,0.198,0.189,0.013,209.000,23.000,22.000,0.000,0.000,0.000,0.000,0.000,0.312,0.351,0.198,0.189,0.013,209.000,23.000,22.000,0.000,0.000,0.000,0.000,0.000;
#CREDIT:xRGTMx-S6;
#NOTES:
// measure 0
0000
0000
0000
0000
,  // measure 1
0000
0000
0000
0000
,  // measure 2
0000
0000
0000
0000
,  // measure 3
0000
0000
0000
0000
,  // measure 4
0001
0010
0100
0000
,  // measure 5
1000
0010
0100
0000
,  // measure 6
0001
1000
0001
0000
1000
0001
1000
0000
,  // measure 7
0100
0010
2002
3003
,  // measure 8
1000
0010
0010
0000
,  // measure 9
0001
0010
1000
0100
,  // measure 10
0010
0001
1000
0000
,  // measure 11
0001
1000
0001
0000
1000
0000
0000
0000
,  // measure 12
0001
0010
0010
0000
,  // measure 13
1000
0010
0001
0100
,  // measure 14
0010
1000
0001
0000
,  // measure 15
1000
0001
1000
0000
0001
0000
0000
0000
,  // measure 16
2000
3100
0200
0310
,  // measure 17
0020
0031
0002
1003
,  // measure 18
0002
0103
0200
0310
,  // measure 19
0020
1030
2000
3001
,  // measure 20
2000
3100
0002
0103
,  // measure 21
2000
3010
0002
0013
,  // measure 22
0000
1000
0001
0000
1000
0001
0000
0100
,  // measure 23
0000
0010
0100
0000
0010
0100
0000
0000
,  // measure 24
1001
0110
1001
0000
,  // measure 25
1000
0100
0001
0100
,  // measure 26
1001
0110
1001
0000
,  // measure 27
0001
0100
1000
0100
,  // measure 28
1001
0110
1001
0000
,  // measure 29
1000
0010
0001
0100
,  // measure 30
1000
1000
0001
0001
,  // measure 31
0210
0000
0000
0300
,  // measure 32
0100
0001
0010
0000
,  // measure 33
0100
1000
0010
0000
,  // measure 34
0100
0001
1000
1000
,  // measure 35
0100
0010
0100
0000
1001
0000
0000
0000
,  // measure 36
1000
0010
0100
0000
,  // measure 37
0001
0010
0100
0000
,  // measure 38
1000
0001
1000
0000
0001
1000
0001
0000
,  // measure 39
0100
0010
2002
3003
,  // measure 40
0100
0000
0000
0000
,  // measure 41
0010
0000
0000
0000
,  // measure 42
1000
0000
0001
0000
,  // measure 43
0000
0010
0000
0000
0010
0000
0000
0100
0000
0100
0000
0000
0100
0000
0000
0000
,  // measure 44
2000
0000
3000
0000
,  // measure 45
1000
0000
0001
0000
,  // measure 46
0002
0000
0003
0000
,  // measure 47
0001
0000
1000
0000
,  // measure 48
0010
0010
0100
0100
,  // measure 49
0001
0001
1000
1000
,  // measure 50
0001
0010
1000
0100
,  // measure 51
0002
0000
0000
0003
,  // measure 52
1001
0110
1001
0000
,  // measure 53
1000
0010
0001
0010
,  // measure 54
1001
0110
1001
0000
,  // measure 55
0001
0010
1000
0010
,  // measure 56
1001
0110
1001
0000
,  // measure 57
1000
0100
0001
0010
,  // measure 58
1000
1000
0001
0001
,  // measure 59
0120
0000
0000
0030
,  // measure 60
1000
0000
0001
0000
,  // measure 61
1000
0100
0001
0000
,  // measure 62
0001
0000
1000
0000
,  // measure 63
0001
0100
1000
0000
,  // measure 64
0001
0000
0100
0000
0010
0000
0000
0010
,  // measure 65
1000
0100
0010
0000
,  // measure 66
0001
0000
0010
0000
0100
0000
0000
0100
,  // measure 67
1000
0010
0200
0000
,  // measure 68
0300
0000
0000
0000
;
