#TITLE:Runaway Baby;
#SUBTITLE:;
#ARTIST:Bruno Mars;
#TITLETRANSLIT:;
#SUBTITLETRANSLIT:;
#ARTISTTRANSLIT:;
#GENRE:;
#CREDIT:;
#BANNER:;
#BACKGROUND:;
#LYRICSPATH:;
#CDTITLE:;
#MUSIC:Runaway Baby.ogg;
#OFFSET:-0.224;
#SAMPLESTART:99.744;
#SAMPLELENGTH:12.000;
#SELECTABLE:YES;
#BPMS:0.000=164.000
;
#STOPS:
;
#BGCHANGES:;
#KEYSOUNDS:;
#ATTACKS:;

//---------------dance-single - ----------------
#NOTES:
     dance-single:
     :
     Hard:
     8:
     0.628,0.535,0.293,0.082,0.003,589.000,43.000,12.000,0.000,0.000,0.000,0.628,0.535,0.293,0.082,0.003,589.000,43.000,12.000,0.000,0.000,0.000:
0000
0000
0000
0000
,
0000
0000
0000
0000
,
0000
0000
0000
0000
,
0000
0000
0000
0000
,
0001
0000
1000
0000
0100
0010
0100
1000
,
0000
0010
0000
0100
0001
0010
0001
0100
,
0001
0000
1000
0000
0010
0100
0010
1000
,
0000
0100
0000
0010
0001
0100
0001
1000
,
0010
1000
0100
1000
0010
0100
0001
0010
,
0100
0001
0100
1000
0010
0001
0010
1000
,
0001
0000
1000
0001
0100
0000
0010
1000
,
0001
0010
0100
1000
0010
0100
0001
1000
,
0001
0000
1001
0000
1000
0001
0010
0100
,
1000
0001
0010
0100
1000
0001
0100
0010
,
1000
1000
0001
0001
0010
0001
0100
0010
,
1000
0001
0100
0010
1000
0001
0010
0100
,
0010
0001
0010
0100
0010
0001
0100
1000
,
0100
0001
0100
1000
0100
0001
0010
0001
,
2000
3020
0230
0301
,
1000
0001
2002
3003
,
1100
0000
0011
0000
0001
0200
1000
0000
,
0301
0200
1000
0000
0301
0020
1000
0000
,
0031
0010
0001
1000
0010
1000
0100
0010
,
0000
0001
0000
0100
0001
0000
1001
0000
,
0101
0000
1010
0000
1000
0020
0001
0000
,
1030
0020
0001
0000
1030
0200
0001
0000
,
1300
0100
1000
0100
1000
0001
1000
0001
,
0000
1000
0000
0100
0010
0000
0110
0000
,
0100
1000
0100
1000
0100
1000
0100
1000
,
0001
1000
0001
1000
0001
1000
0001
1000
,
0001
0100
0001
0100
0010
0100
0010
0100
,
0001
1000
0100
0010
0001
0000
0100
0000
,
0110
1010
1100
0110
,
0001
1000
1001
1001
,
0011
0000
1100
0000
1000
0010
0100
0001
,
0000
0100
0000
0010
0001
0010
1000
0100
,
0010
0000
0100
0000
0010
0100
1000
0010
,
0000
0100
0000
0001
0100
0010
0100
0001
,
0100
0000
0100
0001
0100
0000
0001
1000
,
0010
1000
0100
0010
0000
0001
0100
0010
,
1000
0100
0010
0000
0001
0100
0010
1000
,
0100
1000
0010
0100
0000
0001
0100
0010
,
0100
0001
0100
0001
1000
0001
1000
0001
,
1000
0100
0010
0001
0000
1000
0010
0100
,
0001
0010
0001
0000
1000
0010
1000
0001
,
0100
0010
0100
1000
0100
0001
0010
0100
,
1000
0000
1001
0000
0001
0100
0010
0100
,
0001
0100
0010
0100
0001
0010
0100
0010
,
0001
1000
0001
1000
0010
0100
0001
1000
,
0010
0100
0001
1000
0010
0100
0001
1000
,
0100
0010
0100
1000
0100
0010
0001
0010
,
0100
0010
0001
0010
0100
0010
0001
1000
,
0010
0100
0010
1000
,
0100
0010
0001
1000
0020
0000
0030
0000
,
0110
0000
1001
0000
1000
0010
0001
0000
,
1000
0100
0001
0000
0010
1000
0001
0000
,
0100
1000
0100
1000
0010
1000
0010
0100
,
0000
0001
0000
1000
0001
0000
1001
0000
,
0011
0000
0110
0000
0010
1000
0001
0000
,
0100
1000
0010
0000
0001
1000
0100
0000
,
0001
0100
0010
1000
0100
0010
0001
0100
,
0000
0010
0000
1000
0001
0000
1001
0000
,
1000
0000
0010
0000
0100
0010
1000
0001
,
0000
0010
0100
1000
0100
0000
0010
0000
,
0100
0000
1000
0000
0010
0100
0001
1000
,
0000
0001
0100
0010
1000
0000
0010
0000
,
0110
1001
0110
1001
,
0010
0100
0010
0000
1000
0001
1000
0000
,
0001
1000
0010
0100
,
0010
0000
0000
0000
1000
0000
0000
0000
0100
0000
0000
0000
0010
0000
0001
0010
,
0100
0010
0001
0100
,
0010
0000
1000
0100
0001
0100
0010
0100
,
1000
0000
0001
0000
1000
0010
0100
0001
,
0000
0010
0000
0001
0100
0001
0010
0100
,
1000
0000
0010
0000
0100
0010
1000
0001
,
0000
0100
0000
1000
0100
0001
0010
0001
,
0010
0000
0100
0000
0010
0100
1000
0001
,
0000
1000
0000
0010
0100
0010
0001
0010
,
0100
0000
0001
0000
0100
0001
0000
1000
,
0000
0100
0000
0010
0000
0001
0010
0001
,
0010
0100
1000
0100
1000
0010
1000
0010
,
1000
0001
0100
0001
0100
0001
1000
0001
,
1000
0100
0010
0100
0010
0001
1000
0001
,
0000
0100
0010
0100
0000
0001
1000
0001
,
1001
0000
1001
0000
1000
0010
0110
0000
,
0010
1000
1100
0000
0100
0010
0011
0000
,
0001
0100
0010
0001
0010
1000
0100
0010
,
0000
0001
0000
0100
0001
0000
1000
0000
,
1010
0000
1100
0000
0100
0010
0011
0000
,
0001
0100
0101
0000
0001
1000
1001
0000
,
1000
0100
0010
0001
0010
0100
1000
0010
,
0000
0100
0000
0010
1000
0000
1010
0000
,
1000
0010
1000
0010
1000
0100
1000
0100
,
0010
0100
0010
0100
0010
0001
0010
0001
,
0100
0001
0100
0001
0100
0010
0100
0010
,
0100
0001
0010
0100
1000
0000
0001
0000
,
1001
1100
0011
0101
,
1000
0000
0001
0000
1000
0001
1000
0001
,
1001
0000
0000
0000
;

//---------------dance-single - ----------------
#NOTES:
     dance-single:
     :
     Medium:
     6:
     0.478,0.535,0.171,0.102,0.000,451.000,25.000,15.000,0.000,0.000,0.000,0.478,0.535,0.171,0.102,0.000,451.000,25.000,15.000,0.000,0.000,0.000:
0000
0000
0000
0000
,
0000
0000
0000
0000
,
0000
0000
0000
0000
,
0000
0000
0000
0000
,
1000
0010
0100
0001
,
0010
0001
0010
0001
0000
0000
0011
0000
,
0010
0001
0100
0010
,
1000
0001
1000
0001
0000
0000
1001
0000
,
1000
0010
0100
0001
,
0010
0001
0010
0001
1000
0001
1000
0001
,
1000
0100
1000
0010
,
0100
0010
0100
0010
1000
0001
1000
0001
,
0010
0000
0100
0000
1000
0000
0010
1000
,
0010
0000
0100
0010
0100
0000
0001
0100
,
0001
0000
0010
0000
0001
0000
1000
0001
,
1000
0000
0100
0010
0100
0000
1000
0001
,
1000
0000
0010
0100
0010
0000
1000
0010
,
1000
0000
0001
1000
0001
0000
0010
0001
,
0010
0100
1000
0010
,
0100
0001
1001
0000
,
0110
0000
0110
0000
0010
0100
0010
0000
,
1000
0010
1000
0000
0001
1000
0001
0000
,
0010
0000
0100
0000
1000
0000
0010
1000
,
0000
0010
0000
0100
0001
0000
0010
0000
,
0110
0000
0110
0000
0010
0001
0010
0000
,
0001
1000
0001
0000
1000
0010
1000
0000
,
0010
0000
1000
0000
0100
0000
0010
0001
,
0000
0010
0000
0001
1000
0000
0010
0000
,
0210
1000
0010
0301
,
0012
1000
0010
1003
,
1200
0310
0012
0103
,
2010
0100
0001
3010
,
0200
0320
2030
3002
,
1003
0001
1000
0000
0001
0000
1001
0000
,
1000
0010
1000
0100
,
0010
0000
0001
0000
0100
0000
0010
0100
,
0010
0100
0010
1000
,
0001
0000
0010
0000
0100
0000
1000
0100
,
1000
0010
0100
0001
,
0010
0000
0001
0010
0000
0000
0001
0000
,
0010
0100
1000
0010
,
0100
0000
0010
0100
0000
0010
0000
1000
,
0001
0000
1000
0001
1000
0000
0100
1000
,
0100
0000
0010
0001
0000
0100
0000
0001
,
0010
0100
1000
0010
,
0100
0010
0100
0010
0100
0001
1000
0001
,
1000
0000
0001
0000
0010
0000
0100
1000
,
0000
0010
0000
0100
0010
1000
0010
1000
,
0100
0000
1000
0000
0010
0000
0100
0001
,
0000
0010
0000
0100
1000
0001
1000
0001
,
1000
0000
0100
0000
1000
0000
0010
1000
,
0000
0010
0000
0100
0001
0100
0001
0100
,
0001
0010
0100
1000
,
0001
2000
0002
3003
,
1000
0000
1000
0000
0010
0100
0100
0000
,
0001
0010
0010
0000
0100
1000
1000
0000
,
0010
0000
0100
0000
0010
0000
1000
0100
,
0000
1000
0000
0010
0100
0000
0001
0000
,
0010
0000
0001
0000
0100
0010
0010
0000
,
1000
0010
0010
0000
1000
0100
0100
0000
,
1000
0000
0010
0000
0100
0000
0001
0010
,
0000
0001
0000
1000
0001
0000
0100
0000
,
0010
0010
1000
1000
,
0100
0010
0100
0010
0100
0000
0010
0000
,
0001
0001
1000
1000
,
0001
1000
0001
1000
0001
0000
1000
0000
,
1001
0110
1001
0110
,
1010
1010
0011
0011
,
1000
0100
0010
0100
,
1000
0000
0010
0000
0100
0000
0010
0100
,
0010
0100
0010
1000
,
0100
0000
0010
0000
0001
0000
0010
0001
,
0010
0000
0100
0000
2000
0000
0000
0010
,
0000
0010
0000
0000
3010
0000
0100
0000
,
0001
0000
0010
0000
0002
0000
0000
0100
,
0000
0100
0000
0000
0103
0000
0010
0000
,
1000
0000
0001
0000
0020
0000
0000
0100
,
0000
0100
0000
0000
0130
0000
1000
0000
,
0010
0000
0100
0000
0002
0000
0000
1000
,
0000
1000
0000
1000
0003
0000
1000
0001
,
1000
0000
0100
0010
0100
0000
1000
0001
,
1000
0000
0010
0100
0010
0000
1000
0001
,
1000
0000
0100
0010
0100
0000
1000
0001
,
0000
0000
1000
0001
0000
0000
1000
0001
,
1000
0000
1001
0000
0001
0100
0001
0000
,
0010
0001
0010
0000
0001
1000
0001
0000
,
1000
0100
1000
0010
,
0100
0010
0100
0010
0100
0000
0010
0000
,
1000
0000
1100
0000
0100
0010
0100
0000
,
0010
0001
0010
0000
0001
1000
0001
0000
,
1000
0010
0100
0001
,
0010
0100
0010
0100
0010
0000
0100
0000
,
1000
0100
1000
0010
,
1000
0001
1000
0001
,
0010
0001
0100
0001
,
1000
0001
1000
0001
,
1000
1001
0001
1001
,
1000
0000
0010
0000
0100
0000
0010
0100
,
0010
0000
0000
0000
;

//---------------dance-single - ----------------
#NOTES:
     dance-single:
     :
     Easy:
     4:
     0.322,0.334,0.041,0.000,0.000,324.000,6.000,0.000,0.000,0.000,0.000,0.322,0.334,0.041,0.000,0.000,324.000,6.000,0.000,0.000,0.000,0.000:
0000
0000
0000
0000
,
0000
0000
0000
0000
,
0000
0000
0000
0000
,
0000
0000
0000
0000
,
1000
0010
1000
0100
,
0010
0010
0010
0000
,
0100
0010
0001
0100
,
0010
0010
0010
0000
,
1000
0010
0100
0010
,
1000
0001
1000
0001
,
1000
0010
0100
0001
,
0010
0100
0010
0100
,
0010
0001
0000
0100
,
0001
1000
1000
0010
,
0100
0100
0010
1000
,
0100
0010
0010
0001
,
0001
1000
1000
0010
,
0010
0100
0100
0001
,
0001
0010
0100
1000
,
0010
0100
0010
0000
,
0110
0110
0100
0100
,
0010
0010
0100
0100
,
0001
0010
0100
1000
,
0001
1000
0001
0000
,
1001
1001
1000
1000
,
0001
0001
1000
1000
,
0001
0010
0100
1000
,
0010
0100
0010
0000
,
1000
0010
1000
0100
,
1000
0001
1000
0001
,
0010
0001
1000
0001
,
0100
0010
0100
0010
,
1000
1000
1000
1000
,
0001
0001
1001
0000
,
1000
0000
1000
0000
,
0100
0010
0100
0000
,
0010
0000
0010
0000
,
0001
0010
0001
0000
,
1000
0000
0001
1000
,
0010
0000
0100
0001
,
0010
0000
0100
1000
,
0001
0000
1000
0001
,
0100
0000
0010
1000
,
0100
0000
1000
0001
,
0010
0000
0001
0100
,
0010
0000
0000
0100
,
0010
0100
0000
0010
,
1000
0100
0100
1000
,
0001
0010
0001
0001
,
0001
0100
0100
0010
,
1000
0001
0001
1000
,
0100
0010
0010
0001
,
1000
0001
0100
0010
,
1000
0001
1000
0000
,
0001
0001
0010
0010
,
0100
0100
1000
1000
,
0010
0100
1000
0100
,
0001
1000
0001
0000
,
0010
0010
0001
0001
,
1000
1000
0010
0010
,
1000
0100
1000
0010
,
0100
0001
1000
0000
,
0001
0010
0001
1000
,
0010
1000
0100
1000
,
0010
0100
1000
0100
,
0001
0010
0100
1000
,
0001
1000
0001
1000
,
0001
1000
1001
0000
,
0001
0000
0001
0000
,
1000
0000
1000
1000
,
1000
0000
0100
0000
,
0100
0000
0010
0010
,
0010
0000
0001
0000
,
0100
0100
0100
0100
,
0010
0000
0010
0000
,
1000
1000
1000
0001
,
0001
0000
0001
0000
,
0100
0100
0100
0100
,
0001
0000
0001
0000
,
1000
1000
1000
0001
,
0001
1000
1000
0001
,
0001
1000
1000
0001
,
0001
1000
1000
0001
,
0000
1000
0000
0001
,
1000
1000
0100
0100
,
0010
0010
0001
0001
,
0100
0001
0010
0001
,
1000
0010
0100
0000
,
0001
0001
0100
0100
,
0010
0010
1000
1000
,
0100
1000
0010
0100
,
0001
1000
0001
0000
,
0010
0000
0010
0000
,
0001
0000
0001
0000
,
1000
0000
1000
0000
,
0010
0100
0010
0000
,
1000
0001
1000
0001
,
1000
0000
0001
1000
,
0001
0000
0000
0000
;

//---------------dance-single - ----------------
#NOTES:
     dance-single:
     :
     Beginner:
     2:
     0.152,0.201,0.007,0.000,0.000,155.000,1.000,0.000,0.000,0.000,0.000,0.152,0.201,0.007,0.000,0.000,155.000,1.000,0.000,0.000,0.000,0.000: // measure 0
0000
0000
0000
0000
,  // measure 1
0000
0000
0000
0000
,  // measure 2
0000
0000
0000
0000
,  // measure 3
0000
0000
0000
0000
,  // measure 4
1000
0000
1000
0000
,  // measure 5
1000
0000
0000
0000
,  // measure 6
0001
0000
0001
0000
,  // measure 7
0001
0000
0000
0000
,  // measure 8
0010
0000
0010
0000
,  // measure 9
0010
0000
0010
0000
,  // measure 10
0100
0000
0100
0000
,  // measure 11
0100
0000
0000
0000
,  // measure 12
1000
0000
0000
0000
,  // measure 13
0001
0000
0000
0000
,  // measure 14
1000
0000
1000
0000
,  // measure 15
1000
0000
0000
0000
,  // measure 16
0010
0000
0000
0000
,  // measure 17
0100
0000
0000
0000
,  // measure 18
0010
0000
0010
0000
,  // measure 19
0010
0000
0000
0000
,  // measure 20
1000
0000
1000
0000
,  // measure 21
1000
0000
1000
0000
,  // measure 22
0001
0000
0001
0000
,  // measure 23
0001
0000
0000
0000
,  // measure 24
0010
0000
0010
0000
,  // measure 25
0010
0000
0010
0000
,  // measure 26
0100
0000
0100
0000
,  // measure 27
0100
0000
0000
0000
,  // measure 28
0010
0000
0000
0000
,  // measure 29
0001
0000
0000
0000
,  // measure 30
0100
0000
0000
0000
,  // measure 31
0010
0000
0000
0000
,  // measure 32
1000
0000
1000
0000
,  // measure 33
1000
0000
0000
0000
,  // measure 34
0001
0000
0000
0000
,  // measure 35
0000
0000
0000
0000
,  // measure 36
1000
0000
0000
0000
,  // measure 37
0000
0000
0000
0000
,  // measure 38
0001
0000
0000
0010
,  // measure 39
0010
0000
0000
0100
,  // measure 40
0100
0000
0000
1000
,  // measure 41
1000
0000
0000
0010
,  // measure 42
0010
0000
0010
0000
,  // measure 43
0010
0010
0010
0000
,  // measure 44
1000
0000
1000
0000
,  // measure 45
1000
1000
1000
0000
,  // measure 46
0001
0000
0000
0000
,  // measure 47
1000
0000
0000
0000
,  // measure 48
0100
0000
0100
0000
,  // measure 49
0100
0000
0000
0000
,  // measure 50
0010
0000
0000
0000
,  // measure 51
0001
0000
0000
0000
,  // measure 52
1000
0000
0001
0000
,  // measure 53
1000
0000
0000
0000
,  // measure 54
0001
0000
0001
0000
,  // measure 55
0001
0001
0001
0000
,  // measure 56
1000
0000
1000
0000
,  // measure 57
1000
1000
1000
0000
,  // measure 58
0010
0000
0010
0000
,  // measure 59
0010
0010
0010
0000
,  // measure 60
0100
0000
0100
0000
,  // measure 61
0100
0100
0100
0000
,  // measure 62
0001
0000
0000
0000
,  // measure 63
0010
0000
0000
0000
,  // measure 64
0100
0000
0010
0000
,  // measure 65
0100
0000
0000
0000
,  // measure 66
1000
0000
0001
0000
,  // measure 67
1000
0000
0000
0000
,  // measure 68
0001
0000
0000
0000
,  // measure 69
0000
0000
0000
0000
,  // measure 70
1000
0000
0000
0000
,  // measure 71
0000
0000
0000
0000
,  // measure 72
0010
0000
0000
0000
,  // measure 73
1000
0000
1000
0000
,  // measure 74
1000
0000
0000
0000
,  // measure 75
0001
0000
0001
0000
,  // measure 76
0001
0000
0000
0000
,  // measure 77
0010
0000
0010
0000
,  // measure 78
0010
0000
0000
0000
,  // measure 79
0100
0000
0100
0000
,  // measure 80
0010
0000
0100
0000
,  // measure 81
1000
0000
0001
0000
,  // measure 82
0100
0000
0010
0000
,  // measure 83
0000
0000
0000
0000
,  // measure 84
0100
0000
0100
0000
,  // measure 85
0010
0000
0010
0000
,  // measure 86
1000
0000
1000
0000
,  // measure 87
0001
0001
0001
0000
,  // measure 88
1000
0000
1000
0000
,  // measure 89
0100
0000
0100
0000
,  // measure 90
0010
0000
0010
0000
,  // measure 91
0001
0001
0001
0000
,  // measure 92
0010
0000
0001
0000
,  // measure 93
1000
0000
0010
0000
,  // measure 94
1000
0000
0100
0000
,  // measure 95
1000
0000
0001
0000
,  // measure 96
1000
1000
0001
0001
,  // measure 97
1000
0000
0001
0000
,  // measure 98
1001
0000
0000
0000
;
