#TITLE:route 80s;
#SUBTITLE:;
#ARTIST:samplingmasters MEGA;
#TITLETRANSLIT:B;
#SUBTITLETRANSLIT:;
#ARTISTTRANSLIT:;
#GENRE:;
#CREDIT:;
#MENUCOLOR:ddrgreen;
#METERTYPE:DDR;
#BANNER:route 80s.png;
#BACKGROUND:route 80s-bg.png;
#LYRICSPATH:;
#CDTITLE:./CDTITLES/BEATMANIA IIDX.PNG;
#MUSIC:route 80s.mp3;
#OFFSET:-0.432;
#SAMPLESTART:51.600;
#SAMPLELENGTH:12.000;
#SELECTABLE:YES;
#LISTSORT:;
#DISPLAYBPM:122.000:244.000;
#BPMS:0.000=121.940,36.500=243.880,60.500=121.940,91.000=243.880,115.000=121.940,173.000=243.880;
#STOPS:11.000=0.246
,14.500=0.246
,18.000=0.246
,21.000=0.492
,24.500=0.246
,28.000=0.246
,60.500=1.968
,85.500=0.492
,86.500=0.246
,115.000=1.968
,127.500=0.246
,128.000=0.246
,147.000=0.246
,148.500=0.246
,154.000=0.246
,155.500=0.246
,161.000=0.246
,162.500=0.246
,166.000=0.246
,167.500=0.246
,169.000=0.246
,172.500=0.246
;
#BGCHANGES:;
#ATTACKS:;

//---------------dance-single - ----------------
#NOTES:
     dance-single:
     :
     Easy:
     4:
     0.208,0.241,0.022,0.000,0.000:
0000
0000
0000
0000
,
0000
0000
0000
0000
,
1000
1000
0001
0001
,
0100
0100
0010
0000
,
1000
1000
0001
0100
,
0100
0010
1000
0100
,
1000
0000
0001
0100
,
0001
0000
1000
0100
,
1000
0000
0001
0100
,
0001
0000
0000
0000
,
1000
0100
1000
0000
,
0000
0010
0000
0100
,
0000
0001
0000
1000
,
0000
0010
0000
0100
,
0000
0010
1000
0000
,
0000
1001
0000
0000
1000
0000
0100
0000
,
1000
0001
0000
0100
,
0000
0010
0100
0001
,
1000
0001
0100
0010
,
1000
0000
0100
0000
,
0010
0000
0001
0100
,
0000
0000
0100
0010
,
1000
0010
1000
0001
,
0000
0000
0000
0000
,
0100
0000
0001
0000
,
0100
0000
0010
0000
,
1000
0000
0010
0000
,
0100
0000
0001
0000
,
1000
0000
0100
0010
,
0001
0100
0000
0010
,
0100
0001
1000
0000
,
0001
0100
0010
1000
,
1000
0001
0100
0010
,
0100
0000
0001
0000
,
0010
0100
0000
1000
,
0100
0001
0100
1000
,
0100
0001
0010
0100
,
0000
1000
0001
0010
,
0100
0000
1000
0000
,
0001
0100
0010
0100
,
0001
1000
0000
0010
,
0100
0001
0100
0000
,
0000
1000
0010
0100
,
0010
1000
0000
0001
,
0000
1000
0000
0010
,
0000
0100
0000
0010
,
0000
1000
0000
0100
,
0000
0010
0000
0001
,
0000
0100
0010
0100
,
0010
0100
0110
0000
;

//---------------dance-single - ----------------
#NOTES:
     dance-single:
     :
     Medium:
     6:
     0.388,0.466,0.043,0.022,0.000:
0000
0000
0000
0000
,
0000
0000
0000
0000
,
0001
0100
0001
0000
1000
0010
1000
0000
,
0000
0000
0000
0001
0010
0100
0000
0000
,
1000
0000
0100
0010
0001
0000
0001
0100
,
0010
0100
0001
0000
1000
0000
1000
1000
,
0001
0000
0000
0000
0000
0000
0100
0100
,
0010
0000
1000
0001
,
1000
0000
0100
0000
0010
0000
0001
0100
,
0001
1000
0010
1000
,
0000
0001
0100
0001
,
1000
0010
1000
0010
,
0100
0010
1000
0010
,
1000
0001
0100
0001
,
0100
0001
0100
0001
,
0000
0100
0010
1000
0001
0000
1000
0010
,
0000
0100
0010
0100
0010
1000
0010
1000
,
0000
0001
0100
0010
0100
0001
1000
0001
,
0100
0000
0001
0100
0001
0100
0001
1000
,
0000
0010
0100
0010
0000
1000
0010
1000
,
0000
0001
0100
0001
0100
0001
0100
0001
,
0000
0000
1000
1000
0001
0001
0010
0100
,
0010
0100
0010
1000
,
0100
1000
0100
0010
,
0001
0010
0001
1000
,
0001
1000
0001
0010
,
0100
0010
0001
1000
,
0001
1000
0010
1000
,
0000
0010
0000
0000
0100
0000
1001
0000
,
0001
0100
0001
0000
1000
0010
1000
0010
,
0000
0100
0000
0001
0100
0001
0000
1000
,
0010
0100
0010
0000
1000
0001
0100
0001
,
1000
0010
0100
0000
0000
0000
0010
0100
,
0001
0000
0000
0001
0100
0010
0000
1000
,
0000
0010
0100
0000
0000
0010
1000
0100
,
1000
0000
0001
0100
0010
0000
0100
0000
,
0001
0000
1000
0000
0010
0100
0110
0001
,
0100
0101
1000
0010
0100
0010
1000
0000
,
0001
0000
0100
0010
0100
0001
0100
0010
,
1000
0010
0100
0010
1000
0001
0100
0000
,
0001
1000
0010
1000
0001
0100
0010
0100
,
0001
0100
0010
0100
0001
1000
0100
0010
,
0001
0100
0010
1000
0010
0100
0010
1000
,
0001
0100
0001
0000
0010
0000
0100
0000
,
1000
0001
0010
0001
,
1000
0010
1000
0001
,
0100
0001
0100
0001
,
1000
0010
1000
0010
,
1000
0100
0010
0001
,
0100
2020
0000
0000
,
0000
0000
0000
3030
;

//---------------dance-single - ----------------
#NOTES:
     dance-single:
     :
     Hard:
     9:
     0.591,0.609,0.281,0.022,0.184:
0000
0000
0000
0000
,
0000
0000
0000
0000
,
1000
0000
0100
0000
0101
0000
0000
0001
0100
0000
1000
0000
1001
0000
0010
0000
,
0100
0000
0001
0000
0100
0000
0010
1000
0100
0010
0001
0000
1000
0000
0001
0000
,
0101
0000
0000
1000
0010
0000
0100
0000
0110
0000
1000
0000
0100
0000
0010
0000
,
0000
0001
1000
0000
1010
0000
0001
0000
0100
0000
0010
0000
0000
1000
0010
0000
,
0100
0000
0010
0000
1000
0000
0000
0000
1000
0000
0000
0000
0100
0001
0100
0000
,
1000
0010
0010
0000
0100
0100
0001
0000
,
1000
0000
0100
1000
0000
0000
0000
0000
0000
0000
0001
1000
0000
1000
0001
0000
,
1000
0100
0001
0100
0001
1000
0001
1000
,
0010
1000
0010
0100
0010
0100
0010
1000
,
0001
1000
0001
0100
0010
0100
0001
0010
,
0100
1000
0010
0100
0000
0100
0010
0000
,
1000
0000
0001
0010
0100
1000
0001
0010
,
0100
0000
0000
0000
1000
0000
0000
0000
0001
0000
0000
0000
0000
0000
0000
0010
0000
0000
0000
0000
0010
0000
0000
0000
0100
0000
0000
0000
0000
0000
0000
1000
,
0000
1001
0001
0100
1000
0100
0001
0010
,
1000
0000
0010
0000
0001
0000
0010
0000
0100
0000
1000
0001
1000
0000
0001
0000
,
0001
0000
1000
0100
0010
0100
1000
0001
,
0100
0000
0001
0000
1000
0010
1000
0000
0010
0100
0001
0000
1000
0000
1010
0000
,
0110
0001
0100
0110
0000
0001
0100
1000
,
0000
0000
1000
0000
0100
0000
0001
0000
0010
0000
0100
1000
0010
0000
0001
0000
,
0010
1000
0001
0011
1000
1010
0100
0010
,
1000
0010
0100
0001
0010
0100
1000
0100
,
1000
0100
0010
0001
0010
0001
1000
0010
,
0000
0010
1000
0000
0001
0100
0000
0010
,
1000
0010
1000
0010
1000
0010
0100
0000
,
0100
0001
0000
0001
1000
0000
0100
0001
,
0100
1000
0100
0010
0001
0010
0100
1000
,
0000
0000
0000
0000
0000
0000
0000
0001
0000
0000
0000
0000
0000
0000
0000
0000
0100
0000
0000
0000
0000
0000
0000
0000
1010
0000
0000
0000
1000
0000
0000
0000
,
0100
0000
0001
0000
0100
0000
0000
0000
0000
0000
1000
0001
1000
0000
0010
0000
,
0000
0000
1010
0000
0000
0000
0100
0001
0100
0000
0000
0000
0000
0000
0001
0000
,
0100
0000
0010
0000
0100
0000
0000
0000
0000
0000
0001
0010
0100
0000
1010
0000
,
0110
0000
1000
0100
1000
0000
0001
0000
0000
0000
0100
0001
0100
0000
0010
0000
,
1000
0000
0000
0000
0000
0000
0001
0100
0001
0000
0100
0000
0000
0000
0110
0000
,
0000
0000
0001
0010
0100
0000
0000
0000
0000
0000
1000
0001
0100
0000
0010
0000
,
1000
0000
0000
0000
0100
0000
0010
0000
0001
1000
0000
0000
1000
0100
0000
0000
,
0100
0010
0000
0000
0010
0001
0000
0000
0001
0000
1000
0000
1010
0000
0001
0000
,
0100
0000
0101
0000
1000
0000
0100
0000
0001
0000
0000
0000
0100
1000
0000
0010
,
0000
0100
0000
0000
0001
0000
0100
0000
0101
0000
1000
0000
0010
0000
1010
0000
,
0001
0100
0100
0010
0010
1000
1001
0000
,
1000
0100
0101
0001
0100
1100
1000
0100
,
0001
0100
1000
0001
1001
1000
0100
0010
,
0001
0010
0100
1000
0100
0010
0001
1000
,
0100
0110
0001
0100
1000
0100
0001
1000
,
0010
1000
0010
0100
0010
0100
0010
1000
,
0001
1000
0001
0100
0001
0100
0010
0100
,
0010
1000
0010
1000
0100
0000
0100
1000
,
0001
0100
0010
0100
0001
1000
0010
1000
,
0001
0000
0000
0000
0000
0000
0000
0000
0100
0000
0000
0000
0000
0000
0000
0100
0000
0000
0000
0000
0010
0000
0000
0000
1000
0000
0000
0000
0000
0000
0000
0001
,
0000
0100
0010
0000
1000
0000
0100
0000
,
0010
0000
0000
0001
0000
0100
0000
0220
,
0000
0330
0000
0000
;
