#TITLE:Rain;
#SUBTITLE:(Amathyst MSM Gate Mortgage Remix);
#ARTIST:Nero's Day At Disneyland;
#TITLETRANSLIT:;
#SUBTITLETRANSLIT:;
#ARTISTTRANSLIT:;
#CREDIT:Dossar;
#BANNER:rainbn.png;
#BACKGROUND:rainbg.png;
#LYRICSPATH:;
#CDTITLE:cd.png;
#MUSIC:Rain (Amathyst MSM Gate Mortgage Remix).ogg;
#OFFSET:-0.280;
#SAMPLESTART:17.280;
#SAMPLELENGTH:16.880;
#SELECTABLE:YES;
#BPMS:0.000=113.000;
#STOPS:;
#BGCHANGES:;

//---------------dance-single - Dossar----------------
#NOTES:
     dance-single:
     Dossar:
     Medium:
     6:
     0.424,0.414,0.197,0.288,0.000:
0000
0000
0000
0000
,
0000
0000
0000
0000
,
0000
0000
0000
0000
,
0000
0000
0000
0000
,
1000
0100
0010
0001
,
1000
0100
0010
0001
,
1000
0001
0000
0100
0000
0110
0000
0000
,
1000
0001
0000
0100
0000
0010
0000
1000
,
1001
0001
0100
0100
,
0010
0010
2002
3003
,
1000
0100
0000
0110
0000
0010
1001
0000
,
0001
0100
0000
0101
0000
1001
0000
1000
,
0010
0010
1000
1000
,
0001
0001
0220
0330
,
1000
0001
0000
0011
0000
0010
1001
0000
,
1000
0001
0000
0101
0000
0110
0000
0010
,
1000
0001
2000
0000
3001
0100
0002
0000
,
1003
0100
2000
0000
3001
0010
0002
0000
,
1003
0010
2000
0000
3001
0100
0002
0000
,
1003
0100
2000
0000
3001
0100
0100
0100
,
0001
1000
0002
0000
1003
0010
2000
0000
,
3001
0010
0002
0000
1003
0100
2000
0000
,
3001
0100
0002
0000
0103
0010
0200
0000
,
0301
1000
0002
0000
1003
1000
0001
0001
,
1001
0000
1000
0001
0100
0001
1000
0001
,
0100
0001
1000
0001
0100
0100
0100
0010
,
1000
0001
0001
0002
0000
0000
2003
0000
,
3001
0002
0000
1003
1000
1000
0100
0010
,
0001
1000
0010
1000
0001
1000
0010
1000
,
0001
1000
0010
1000
0001
0001
0001
0100
,
0010
1000
1000
2000
0000
0000
3002
0000
,
1003
2000
0000
3001
0001
0001
1000
0010
,
0110
0100
0010
0010
,
1000
1000
0022
0033
,
0001
0010
0000
0110
0000
0100
1001
0000
,
1000
0001
0000
0101
0000
0110
0000
0010
,
1000
1000
0010
0010
,
0100
0100
2002
3003
,
1000
0001
0000
0101
0000
0100
1001
0000
,
1000
0010
0000
0110
0000
0101
0000
0001
,
1000
0100
1000
0100
1000
0100
1000
0000
,
0001
0100
0001
0100
0001
0100
0001
0000
,
1000
0010
1000
0010
1000
0010
1000
0000
,
0001
0010
0001
0010
0001
0010
0001
0000
,
1000
0001
1000
0001
1000
0001
1000
0000
,
0010
0100
0010
0100
0010
0100
0010
0000
,
1000
0010
1000
0010
1000
0010
1000
0000
,
0001
0100
0001
0100
0001
0100
0001
0000
,
1000
1000
0001
0001
1000
1000
0001
0001
,
0100
0100
0010
0010
0100
0100
0010
0010
,
1000
1000
0001
0001
1000
1000
0001
0001
,
0100
0100
0010
0010
0100
0100
0010
0010
,
1000
1000
0001
0001
1000
1000
0001
0001
,
0100
0100
0010
0010
0100
0100
0010
0010
,
2000
3002
2003
0000
,
3020
0230
0320
0230
,
0301
0000
0000
0000
;

//---------------dance-single - Dossar----------------
#NOTES:
     dance-single:
     Dossar:
     Beginner:
     1:
     0.159,0.207,0.033,0.000,0.000:
0000
0000
0000
0000
,
0000
0000
0000
0000
,
0000
0000
0000
0000
,
0000
0000
0000
0000
,
1000
0000
0000
0000
,
1000
0000
0000
0000
,
0001
0000
0000
0000
,
0001
0000
0000
0000
,
1001
0000
1000
0000
,
1000
0000
0001
0000
,
0100
0000
0100
0000
,
0010
0000
0010
0000
,
1000
0000
1000
0000
,
1000
0000
0001
0000
,
0100
0000
0100
0000
,
0010
0000
0010
0000
,
1000
1000
1000
0000
,
0001
0001
0001
0000
,
0100
0100
0100
0000
,
0010
0010
0010
0000
,
1000
1000
1000
0000
,
0001
0001
0001
0000
,
0100
0100
0100
0000
,
0010
0010
0010
0000
,
0110
0000
0100
0000
,
0100
0000
0100
0100
,
0100
0000
0100
0000
,
0100
0000
0100
0100
,
0110
0000
0010
0000
,
0010
0000
0010
0010
,
0010
0000
0010
0000
,
0010
0000
0010
0010
,
0110
0000
0100
0000
,
0100
0000
0001
0000
,
1000
0000
1000
0000
,
0010
0000
0010
0000
,
1000
0000
1000
0000
,
1000
0000
0010
0000
,
0100
0000
0100
0000
,
0001
0000
0001
0000
,
1000
1000
1000
0000
,
0001
0001
0001
0000
,
0100
0100
0100
0000
,
0010
0010
0010
0000
,
1000
1000
1000
0000
,
0001
0001
0001
0000
,
0100
0100
0100
0000
,
0010
0010
0010
0000
,
1000
1000
1000
1000
,
0001
0001
0001
0001
,
1000
1000
1000
1000
,
0001
0001
0001
0001
,
1000
1000
1000
1000
,
0001
0001
0001
0001
,
1000
0000
0000
0000
,
1000
0000
0000
0000
,
1000
0000
0000
0000
;

//---------------dance-single - ----------------
#NOTES:
     dance-single:
     :
     Easy:
     3:
     0.234,0.253,0.033,0.214,0.000:
0000
0000
0000
0000
,
0000
0000
0000
0000
,
0000
0000
0000
0000
,
0000
0000
0000
0000
,
2000
0000
0000
3000
,
0200
0000
0000
0300
,
0020
0000
0000
0030
,
0002
0000
0000
0003
,
1001
0010
1000
0010
,
1000
0010
2000
3000
,
0001
0100
0002
0003
,
1000
0010
2000
3000
,
0001
1000
0001
1000
,
0001
1000
0002
0003
,
0100
0010
0200
0300
,
0010
0100
0020
0030
,
1000
0100
1000
0100
,
1000
0001
1000
0001
,
0100
0001
0100
0001
,
0100
0010
0100
0010
,
2000
0000
3002
0000
,
0203
0000
0320
0000
,
1030
1000
1000
1000
,
0001
0001
0001
0001
,
2002
3003
1000
1000
,
1000
1000
0001
0001
,
0100
0100
0100
0000
,
0010
0010
0010
0000
,
0220
0330
0100
0100
,
0100
0100
0001
0001
,
1000
1000
1000
0000
,
0001
0001
0001
0000
,
1001
0100
0001
0100
,
0001
0100
0002
0003
,
1000
0010
2000
3000
,
0001
0100
0002
0003
,
1000
0001
1000
0001
,
1000
0001
2000
3000
,
0010
0100
0020
0030
,
0100
0010
0200
0300
,
0001
0100
0001
0100
,
0001
1000
0001
1000
,
0100
1000
0100
1000
,
0001
1000
0001
1000
,
0001
0100
0001
0100
,
0010
0100
0010
0100
,
0010
1000
0010
1000
,
0001
1000
0001
1000
,
0001
0001
0001
0001
,
1000
1000
1000
1000
,
0010
0010
0010
0010
,
0100
0100
0100
0100
,
0001
0001
0001
0001
,
1000
1000
1000
1000
,
0002
0000
0000
0000
,
2003
0000
0000
0000
,
3001
0000
0000
0000
;

//---------------dance-single - ----------------
#NOTES:
     dance-single:
     :
     Hard:
     8:
     0.608,0.645,0.477,0.493,0.317:
0000
0000
0000
0000
,
0000
0000
0000
0000
,
0000
0000
0000
0000
,
0000
0000
0000
0000
,
1000
0100
0010
0001
1000
0100
0010
0001
,
1000
0000
0100
0000
0010
0000
0001
0000
1000
0001
0000
0100
0001
0000
1000
0010
,
0200
0302
0000
2003
0000
3020
0000
0000
,
0130
0002
0000
2003
0000
3200
0000
1300
,
1001
0001
0100
0010
1000
0001
0100
0010
,
1000
0001
0100
0010
2002
3003
1000
0010
,
0100
2002
3003
0220
0330
1001
2002
3003
,
1000
0110
0000
1001
0000
0110
0000
1001
,
0001
1000
0010
0100
0001
1000
0010
0100
,
0001
1000
0010
0100
2002
3003
0001
0100
,
0010
2002
3003
0220
0330
1001
2002
3003
,
1000
0110
0000
1001
0000
0110
0000
1001
,
0001
0100
0001
0100
0002
0000
1003
0000
0010
0100
0010
0100
0020
0000
0030
0000
,
1000
0000
0110
0000
0110
0000
0110
0000
0001
1000
0001
1000
0002
0000
0103
0000
,
0010
1000
0010
1000
0020
0000
0130
0000
0001
0100
0001
0100
0002
0000
0003
0000
,
0100
0010
0100
0010
0200
0000
0301
0000
1000
0000
0110
0000
0110
0000
0110
0000
,
0002
0000
0000
2003
0000
0000
3002
0000
0000
0000
1003
0000
0010
0000
0100
0000
,
0001
0001
1000
0010
0010
0100
0100
0100
,
0001
0001
1000
1000
0010
0010
0100
0100
,
0002
0000
0000
2003
0000
0000
3001
0000
0100
0000
0010
0000
1000
0000
0001
0000
,
2002
0000
3003
0000
1000
0000
0001
0100
0001
0000
1000
0010
1000
0000
0001
0100
,
0001
0000
1000
0010
1000
0000
0001
0000
1000
0010
1000
0010
1000
0000
0001
0000
,
0100
0000
0010
0000
0010
0000
0010
0100
0000
0000
0010
0000
1001
0000
0000
0000
,
1000
0001
0100
0010
0010
0010
1000
0001
,
1001
0000
0000
0000
1000
0000
0010
0100
0010
0000
1000
0001
1000
0000
0010
0100
,
0010
0000
1000
0001
1000
0000
0010
0000
1000
0001
1000
0001
1000
0000
0010
0000
,
0100
0000
0001
0000
0001
0000
0001
1000
0000
0000
0100
0000
1001
0000
0000
0000
,
1000
0010
0100
0001
0001
0001
1000
0010
,
0110
0100
0001
1000
0010
0100
0001
1000
,
0010
0100
0001
1000
0220
0330
0100
0010
,
1000
0220
0330
2002
3003
0110
0220
0330
,
1000
0011
0000
1100
0000
0011
0000
1100
,
0100
0010
0001
1000
0100
0010
0001
1000
,
0100
0010
0001
1000
0220
0330
0100
1000
,
0001
0220
0330
2002
3003
0110
0220
0330
,
0001
1100
0000
0011
0000
1100
0000
0011
,
0001
0000
0001
0000
1000
0100
1000
0000
0001
0100
0000
0101
0000
0000
0000
0000
,
0001
0000
0001
0000
1000
0010
1000
0000
0001
0100
0000
0100
0001
0000
0000
0000
,
1000
0000
1000
0000
0010
0100
0010
0000
1000
0001
0000
1001
0000
0000
0000
0000
,
0001
0000
0001
0000
1000
0100
1000
0000
0001
1000
0000
1001
0000
0000
0000
0000
,
0001
0000
0001
0000
0100
0010
0100
0000
0001
1000
0000
1001
0000
0000
0000
0000
,
0001
0000
0001
0000
0010
0001
0010
0000
0100
1000
0000
1000
0100
0000
0000
0000
,
1000
0000
1000
0000
0100
0010
0100
0000
1000
0001
0000
1001
0000
0000
0000
0000
,
0001
0000
0001
0000
0100
0010
0100
0000
0001
0100
0000
0101
0000
0000
0000
0000
,
0001
0000
0001
0000
1000
0010
1000
0000
0010
0100
0000
0110
0000
0000
0000
0000
,
0010
0000
0010
0000
1000
0001
1000
0000
0010
0100
0000
0100
0010
0000
0000
0000
,
1000
0000
1000
0000
0001
0010
0001
0000
1000
0100
0000
1100
0000
0000
0000
0000
,
0001
0000
0001
0000
1000
0100
1000
0000
0001
0100
0000
0101
0000
0000
0000
0000
,
0001
0000
0001
0000
1000
0100
1000
0000
0001
0100
0000
0101
0000
0000
0000
0000
,
1000
0000
1000
0000
0001
0010
0001
0000
1000
0001
0000
0001
1000
0000
1000
0000
,
0002
0000
0000
0103
0200
0000
0310
0020
0000
2030
0000
0000
,
3002
0000
0000
0103
0200
0000
0310
0020
0000
2030
0000
0000
,
3001
0000
0000
0000
;

//---------------dance-single - ----------------
#NOTES:
     dance-single:
     :
     Challenge:
     9:
     0.801,0.760,0.386,0.699,0.900: // measure 1
0000
0000
0000
0000
,  // measure 2
0000
0000
0000
0000
,  // measure 3
0000
0000
0000
0000
,  // measure 4
0000
0000
0000
0000
,  // measure 5
1000
0100
0010
0001
1000
0100
0010
0001
1000
0100
0010
0001
1000
0100
0010
0001
,  // measure 6
1000
0100
0010
0001
1000
0100
0010
0001
1000
0200
0000
0310
0002
0000
0013
0100
,  // measure 7
2000
3200
0000
0320
0000
0032
0000
0000
,  // measure 8
1003
0020
0000
0230
0000
0302
0000
1003
,  // measure 9
1001
0000
0001
0100
0010
1000
0001
0100
0010
1000
0001
0100
0010
1000
0001
0100
,  // measure 10
0010
1000
0001
0100
0010
1000
0001
0100
0020
0000
1030
0000
1000
0000
0110
0000
,  // measure 11
0001
0220
0330
2002
3003
0110
0220
0330
,  // measure 12
1000
0110
0000
1001
0000
0110
0000
1001
,  // measure 13
0010
0000
0001
1000
0010
0100
0001
1000
0010
0100
0001
1000
0010
0100
0001
1000
,  // measure 14
0010
0100
0001
1000
0010
0100
0001
1000
0020
0000
0130
0000
0100
0000
1001
0000
,  // measure 15
0010
2002
3003
0220
0330
1001
2002
3003
,  // measure 16
1000
0110
0000
1001
0000
0110
0000
1001
,  // measure 17
0001
0100
0001
0100
0001
1000
0001
1000
0100
0010
0100
1000
0100
0010
0001
0000
,  // measure 18
1000
0010
1000
0010
1000
0001
1000
0001
0010
0100
0010
0001
0010
0100
0010
0001
,  // measure 19
1000
0100
1000
0100
0010
0100
0010
0100
1000
0100
0010
0001
0010
0100
1000
0000
,  // measure 20
0001
0100
0001
0100
0001
1000
0001
1000
0100
0010
0100
1000
0100
0010
0001
0010
,  // measure 21
0200
0000
0000
2300
0000
0000
3002
0000
0000
0000
1003
0000
0220
0000
0330
0000
,  // measure 22
1000
0000
1000
0000
0010
0000
0100
0000
0100
0000
0001
1000
0001
1000
0001
0000
,  // measure 23
1000
1000
0001
0001
0100
0100
0010
0010
,  // measure 24
2000
0000
0000
3002
0000
0000
0023
0000
0230
0000
2300
0000
3200
0000
0320
0000
,  // measure 25
0032
0000
0003
0000
1000
0000
0001
1000
0100
0010
0001
1000
0010
0100
0001
1000
,  // measure 26
0100
0010
0001
1000
0010
0100
0001
1000
0100
0010
0001
1000
0001
1000
0010
0100
,  // measure 27
0001
0000
1000
0001
1000
0000
1000
0001
0000
0000
1000
0000
0110
0000
0001
0000
,  // measure 28
1000
0010
0100
1001
1001
1001
0010
0100
,  // measure 29
0002
0000
0003
0000
1000
0000
0001
0010
0100
1000
0001
0100
0010
1000
0001
0010
,  // measure 30
0100
1000
0001
0100
0010
1000
0001
0010
0100
1000
0001
0100
0001
0100
0010
1000
,  // measure 31
0001
0000
1000
0010
1000
0000
1000
0010
0000
0000
1000
0000
0110
0000
0001
0000
,  // measure 32
1000
0010
0100
1001
1001
1001
0100
0010
,  // measure 33
1001
0000
1000
0010
0100
0001
1000
0010
0100
0001
1000
0010
0100
0001
1000
0010
,  // measure 34
0100
0001
1000
0010
0100
0001
1000
0010
0200
0000
0301
0000
0001
0000
0110
0000
,  // measure 35
1000
0220
0330
2002
3003
0110
0220
0330
,  // measure 36
0001
0110
0000
1001
0000
0110
0000
1001
,  // measure 37
0100
0000
1000
0001
0100
0010
1000
0001
0100
0010
1000
0001
0100
0010
1000
0001
,  // measure 38
0100
0010
1000
0001
0100
0010
1000
0001
0200
0000
0310
0000
0010
0000
1001
0000
,  // measure 39
0100
2002
3003
0220
0330
1001
2002
3003
,  // measure 40
0001
0110
0000
1001
0000
0110
0000
1001
,  // measure 41
1000
0010
1000
0010
1000
0001
1000
0001
0010
0200
0000
2000
0000
3300
0000
0000
,  // measure 42
0001
0100
0001
0100
0001
1000
0001
1000
0010
0100
0000
0002
2000
0000
3003
0000
,  // measure 43
0001
0010
0001
0010
0001
1000
0001
1000
0100
0020
0000
0002
0000
0033
0000
0000
,  // measure 44
1000
0100
1000
0100
0010
0100
0010
0100
1000
0002
0000
0200
0000
0303
0000
0000
,  // measure 45
0001
0100
0001
0100
0001
1000
0001
1000
0010
0200
0000
0002
0000
0303
0000
0000
,  // measure 46
1000
0100
1000
0100
1000
0001
1000
0001
0100
0010
0000
2000
0002
0000
3003
0000
,  // measure 47
0001
0010
0001
0010
0001
1000
0001
1000
0010
0200
0000
0002
0000
0303
0000
0000
,  // measure 48
1000
0100
1000
0100
1000
0001
1000
0001
0100
0020
0000
2000
0000
3030
0000
0000
,  // measure 49
0001
0100
0001
0100
0001
1000
0001
1000
0010
0200
0000
0002
0000
0303
0000
0000
,  // measure 50
1000
0010
1000
0010
1000
0001
1000
0001
0010
0100
0000
2000
0002
0000
3003
0000
,  // measure 51
0001
0100
0001
0100
0001
1000
0001
1000
0100
0020
0000
0200
0000
0330
0000
0000
,  // measure 52
1000
0100
1000
0100
1000
0001
1000
0001
0100
0020
0000
2000
0000
3030
0000
0000
,  // measure 53
0001
0100
0001
0100
0001
1000
0001
1000
0010
0200
0000
0002
0000
0303
0000
0000
,  // measure 54
1000
0010
1000
0010
1000
0001
1000
0001
0010
0100
0000
0020
0002
0000
0033
0000
,  // measure 55
2000
0000
0000
0000
0000
0000
3001
0000
0002
0000
0000
0000
0103
0000
0200
0000
0000
0000
0301
1000
0001
1000
0001
1000
,  // measure 56
0002
0000
0000
0000
0000
0000
0103
0000
0200
0000
0000
0000
0310
0000
0020
0000
0000
0000
1030
0001
1000
0001
1000
0001
,  // measure 57
1000
0000
0000
0000
;
