#TITLE:Put A Donk On It;
#SUBTITLE:;
#ARTIST:Blackout Crew;
#TITLETRANSLIT:;
#SUBTITLETRANSLIT:;
#ARTISTTRANSLIT:;
#CREDIT:;
#BANNER:[Male Vocalists] - Put A Donk On It.png;
#BACKGROUND:[Male Vocalists] - Put A Donk On It-bg.png;
#LYRICSPATH:;
#CDTITLE:;
#MUSIC:[Male Vocalists] - Put A Donk On It.ogg;
#OFFSET:0.000;
#SAMPLESTART:19.173;
#SAMPLELENGTH:12.000;
#SELECTABLE:YES;
#BPMS:0.000=150.000,149.000=90.000,150.000=120.000,151.000=130.000,152.000=150.000;
#DISPLAYBPM:150;
#STOPS:149.000=2.780
;
#BGCHANGES:0.000=[Male Vocalists] - Put A Donk On It.avi=1.000=1=1=0,
99999=-nosongbg-=1.000=0=0=0 // don't automatically add -songbackground-
;

//---------------dance-single - ----------------
#NOTES:
     dance-single:
     :
     Hard:
     8:
     0.567,0.657,0.243,0.122,0.101:
0000
0000
0000
0000
,
0000
0000
0000
0000
,
0000
0000
0000
0000
,
0000
0000
0000
0000
0000
0000
0000
1000
,
0100
0010
0000
0010
0000
0010
0000
0010
,
0000
0100
0000
0100
0000
0100
0000
0100
,
1000
0001
0000
0001
0000
0001
0000
0001
,
1000
0010
0000
0010
0000
0010
0000
0010
,
0100
0000
0100
0001
0000
0001
0000
0001
,
0000
1000
0000
1000
0000
0100
0000
0100
,
1000
0000
1000
0010
0000
0010
0000
0010
,
0100
0100
1001
1001
,
0110
0000
1001
0000
1000
0100
0001
0000
,
0100
1000
0001
0100
0010
0100
0010
0000
,
0110
0000
0000
0000
0001
0000
1000
0010
0000
1000
0010
0000
0100
0000
0000
0000
,
0001
1000
0100
0000
1000
0001
0100
0000
,
0110
0000
0001
2000
0100
3100
0010
0000
,
0011
0000
0010
0100
1000
1000
0001
0000
,
0002
0003
0200
0300
2000
3000
0200
0300
,
0001
0000
0000
1000
0100
0000
0100
0000
0010
0000
0001
0000
0100
0000
0000
0000
,
0010
0000
1000
0000
0100
0000
0010
0000
0100
0000
1000
0000
1000
0000
0000
1000
,
0010
1000
0001
0010
0100
0010
0010
0000
,
0001
0001
1000
1000
0010
0010
0100
0000
,
0010
1000
0001
0010
0001
0100
0100
0000
,
0001
0010
0100
1000
0010
0100
0010
1000
,
0001
0010
0100
1000
0010
0100
0010
1000
,
0000
1000
0001
0010
0001
0100
0010
0100
,
0001
0010
0100
1000
0010
0100
0010
1000
,
0001
0000
0001
1000
0100
0010
0001
0100
,
1010
0000
0010
1000
0100
1000
0010
0100
,
0011
0000
0001
1000
0100
1000
0010
0100
,
0010
0010
1000
0001
0010
0100
1000
0001
,
0000
1000
0100
1000
0010
0100
0001
1000
,
0100
0010
0001
0100
0010
0100
1000
0100
,
0001
1000
0100
0010
0010
0001
1000
0010
,
0100
0001
0100
1000
0010
0001
0100
0000
,
0010
0000
1001
0000
1000
0100
0001
0000
,
0220
0330
0000
0000
,
1001
0010
0010
0010
,
1000
0100
0001
0100
0010
0100
2000
0000
,
3001
0010
0100
0010
0001
1000
0020
0000
,
0130
0000
0001
0000
1000
0000
0100
0000
0010
0000
0001
1000
0000
0000
0100
0000
,
0010
0000
0001
0000
1000
0000
0010
0100
0001
0000
1000
0100
0000
0000
0000
0000
,
0010
0000
0001
0000
1000
0000
0010
0100
0001
0000
1000
0000
0100
0000
0010
0000
,
0001
0000
1000
0000
0010
0000
0100
0010
0100
0010
0100
0000
0001
0000
0001
0000
,
1000
0000
1000
0000
0100
0010
0100
0010
0100
0000
1000
0001
0100
0000
0010
0000
,
1000
0000
0001
0000
0100
0000
0010
0000
1000
0000
0001
0010
0100
0000
0000
0000
,
0100
0000
1000
0000
0001
0000
1000
0010
0100
0000
0010
0000
1000
0000
0001
0000
,
0010
0100
0010
0001
1000
0100
0010
0001
,
0100
0000
0010
0000
1000
0000
0001
1000
0100
0000
0010
0000
0010
0000
0000
0000
,
1001
1100
0011
0101
,
0010
1000
0001
0000
0001
1000
0100
0000
,
0010
0000
0001
0000
1000
0000
0010
0100
0000
0010
0100
0000
0110
0000
0000
0000
,
0001
0000
1000
0000
0100
0000
0010
0001
1000
0000
0010
0000
0100
0000
0000
0000
,
1010
0000
1002
0010
0010
0013
0100
0000
,
1000
0000
0000
0000
0001
0000
0100
0010
0100
0000
0001
0000
1000
0000
0000
0000
,
1100
0011
1001
0110
,
0010
1000
0001
0010
,
2002
0000
0000
0000
,
3003
0000
0000
0000
;

//---------------dance-single - ----------------
#NOTES:
     dance-single:
     :
     Easy:
     4:
     0.294,0.448,0.233,0.061,0.000: // measure 1
0000
0000
0000
0000
,  // measure 2
0000
0000
0000
0000
,  // measure 3
0000
0000
0000
0000
,  // measure 4
0000
0000
0000
0000
,  // measure 5
1001
1000
0000
1000
,  // measure 6
0000
0001
0000
0001
,  // measure 7
0100
0010
0000
0010
,  // measure 8
1000
0100
0000
0100
,  // measure 9
1000
0001
0000
0001
,  // measure 10
0000
1000
0000
1000
,  // measure 11
0010
0100
0000
0010
,  // measure 12
0100
0000
1001
1001
,  // measure 13
0010
0010
1001
1001
,  // measure 14
0000
1000
0100
0010
,  // measure 15
0001
0100
0110
0110
,  // measure 16
0000
0001
0100
1000
,  // measure 17
0010
1000
0200
0300
,  // measure 18
0010
0001
1000
1000
,  // measure 19
0001
0001
1000
1000
,  // measure 20
1001
0000
0100
0000
0001
1000
0100
0000
,  // measure 21
1000
0000
1000
0000
,  // measure 22
0001
0000
0001
0000
,  // measure 23
1000
0000
0001
0000
,  // measure 24
1000
1000
0100
0100
,  // measure 25
0010
0000
0001
0000
,  // measure 26
1000
0000
0010
0000
,  // measure 27
0100
0100
0001
1000
,  // measure 28
0100
1000
0010
0010
,  // measure 29
0000
0100
0001
1000
,  // measure 30
0100
0000
0010
0010
,  // measure 31
0100
0010
1000
0001
,  // measure 32
1000
1000
0001
0001
,  // measure 33
0000
1000
0100
0010
,  // measure 34
0000
0001
0100
0010
,  // measure 35
1000
0000
0001
0000
,  // measure 36
1001
0110
1001
0000
,  // measure 37
1000
1000
0001
0001
,  // measure 38
0220
0330
0000
0000
,  // measure 39
1001
0000
0000
0000
,  // measure 40
0110
0000
0000
0000
,  // measure 41
1001
0000
0000
0000
,  // measure 42
1000
0000
0001
0000
,  // measure 43
1000
1000
0001
0001
,  // measure 44
0000
1000
0100
0010
,  // measure 45
0001
0001
1000
1000
,  // measure 46
0010
0100
0010
1000
,  // measure 47
0001
0001
1000
1000
,  // measure 48
0001
1000
0001
0001
,  // measure 49
1000
1100
0001
0011
,  // measure 50
1001
0000
0110
0000
0010
0010
0010
0000
,  // measure 51
1001
1100
0010
0100
,  // measure 52
0010
1000
0001
0001
,  // measure 53
1001
0100
0010
0100
,  // measure 54
1000
0001
1000
1000
,  // measure 55
0001
0100
0020
0130
,  // measure 56
0001
0001
1000
1000
,  // measure 57
0001
0001
1000
1000
,  // measure 58
0001
0100
1000
0100
,  // measure 59
2002
0000
0000
0000
,  // measure 60
3003
0000
0000
0000
;

//---------------dance-single - ----------------
#NOTES:
     dance-single:
     :
     Medium:
     6:
     0.448,0.478,0.435,0.061,0.000:
0000
0000
0000
0000
,
0000
0000
0000
0000
,
0000
0000
0000
0000
,
0000
0000
0000
0000
,
1000
0100
0001
0100
,
1000
0100
0001
0100
,
0010
0010
0100
0100
,
1000
0000
1000
0000
0001
0000
0001
0100
,
0010
0010
0010
0010
,
1000
1000
1000
1000
,
0001
0001
1000
1000
,
0001
0010
1001
1001
,
0010
0000
1001
0000
1000
0001
0100
0000
,
0001
1000
0100
0000
0010
0001
0100
0000
,
0010
0000
1001
0000
0001
1000
0001
0000
,
1000
0001
1000
0000
0001
1000
0100
0000
,
0010
0000
0200
0010
0010
0310
0100
0000
,
0010
0100
0010
0000
1000
0001
0100
0000
,
0010
1001
1001
1001
,
0110
1001
0110
1001
,
1000
0000
0100
0000
1000
0001
0100
0000
,
0010
0000
1000
0000
0001
0010
0100
0000
,
1000
0100
1000
0000
0001
0100
0001
0000
,
1000
0010
1000
0000
0001
0010
0001
0000
,
1000
0100
1000
0000
0001
0100
0001
0000
,
1000
0010
0100
0000
0001
0010
0100
0000
,
0000
1000
0100
0000
0010
0001
0100
0000
,
0010
1000
0001
0000
1000
0001
1000
0000
,
1001
1000
1100
0001
,
1001
0000
0001
0100
0001
0000
1000
0000
,
1001
0000
0001
0010
0001
0000
1000
0000
,
0010
0000
0001
0000
0010
1000
0100
0000
,
1000
0000
0010
0000
0001
0010
1000
0000
,
0100
0000
1000
0000
0100
1000
0001
0000
,
0100
0001
1000
0000
0010
1000
0100
0000
,
1001
0110
1001
0110
,
1001
0000
1100
0000
1000
0001
0100
0000
,
0220
0330
0000
0000
,
1001
0010
0010
0010
,
1001
0100
1001
0100
,
1000
0001
0100
0000
0101
0000
0100
0000
,
0001
1000
0010
0000
1001
0000
0110
0000
,
1000
0100
0001
0100
,
1000
0010
0001
0010
,
1000
1000
0001
0001
,
1000
0100
1000
0010
,
1000
0000
0001
0000
0100
0010
1000
0000
,
0001
0000
1000
0000
0100
0010
0001
0000
,
1000
0100
1000
0000
0001
0100
0001
0000
,
1001
1100
1001
0101
,
1001
0000
0110
0000
1000
0100
0001
0000
,
1001
0000
0101
0000
0001
0100
1000
0000
,
0001
0010
0001
0000
1000
0010
1000
0000
,
0001
0010
0100
0000
1000
0010
0100
0000
,
0010
0000
2001
0010
0010
0010
3010
0000
,
1001
0000
0100
0000
1000
0001
0100
0000
,
0101
0101
1100
1100
,
0001
0100
1000
0100
,
2002
0000
0000
0000
,
3003
0000
0000
0000
;

//---------------dance-single - ----------------
#NOTES:
     dance-single:
     :
     Beginner:
     1:
     0.132,0.176,0.041,0.010,0.000: // measure 1
0000
0000
0000
0000
,  // measure 2
0000
0000
0000
0000
,  // measure 3
0000
0000
0000
0000
,  // measure 4
0000
0000
0000
0000
,  // measure 5
1001
0000
0000
0000
,  // measure 6
0000
0000
0000
0000
,  // measure 7
0010
0000
0000
0000
,  // measure 8
0010
0000
0000
0000
,  // measure 9
1001
0000
0000
0000
,  // measure 10
0000
0000
0000
0000
,  // measure 11
0100
0000
0000
0000
,  // measure 12
0100
0000
0010
0010
,  // measure 13
0010
0000
0000
0000
,  // measure 14
0000
0000
0000
0000
,  // measure 15
1000
0000
0000
0000
,  // measure 16
0000
0000
0000
0000
,  // measure 17
0001
0000
0000
0000
,  // measure 18
0000
0000
0100
0100
,  // measure 19
0100
0000
0100
0000
,  // measure 20
0010
0000
0010
0000
,  // measure 21
1000
0000
1000
0000
,  // measure 22
0001
0000
0001
0000
,  // measure 23
1000
0000
0001
0000
,  // measure 24
0100
0000
0010
0010
,  // measure 25
0000
1000
0000
0001
,  // measure 26
0000
1000
0000
0001
,  // measure 27
0000
0100
0000
0100
,  // measure 28
0000
0000
0000
0000
,  // measure 29
0010
0000
0010
0000
,  // measure 30
0100
0000
0100
0000
,  // measure 31
0010
0000
0010
0000
,  // measure 32
0100
0100
0100
0000
,  // measure 33
0010
0000
1000
0000
,  // measure 34
0001
0000
1000
0000
,  // measure 35
0010
0000
1000
0000
,  // measure 36
0001
0000
1000
0000
,  // measure 37
0010
0010
0000
0000
,  // measure 38
0200
0300
0000
0000
,  // measure 39
1001
0000
0000
0000
,  // measure 40
0010
0000
0000
0000
,  // measure 41
0100
0000
0000
0000
,  // measure 42
0010
0000
0000
0000
,  // measure 43
1000
0000
1000
0000
,  // measure 44
0001
0000
0001
0000
,  // measure 45
1000
0000
0001
0000
,  // measure 46
1000
0000
0001
0000
,  // measure 47
1000
0000
0100
0000
,  // measure 48
0001
0000
0100
0000
,  // measure 49
1000
0000
1000
0000
,  // measure 50
0000
0010
0010
0010
,  // measure 51
0000
0000
1000
1000
,  // measure 52
0000
0000
0000
0000
,  // measure 53
0000
0000
0001
0001
,  // measure 54
0000
0000
0000
0000
,  // measure 55
0000
0000
0010
0010
,  // measure 56
0000
0000
0100
0100
,  // measure 57
0100
0000
0010
0000
,  // measure 58
0100
0000
0010
0000
,  // measure 59
1001
0000
0000
0000
;
