#VERSION:0.81;
#TITLE:Player One;
#SUBTITLE:;
#ARTIST:Machinae Supremacy;
#TITLETRANSLIT:;
#SUBTITLETRANSLIT:;
#ARTISTTRANSLIT:;
#GENRE:;
#ORIGIN:;
#CREDIT:;
#BANNER:;
#BACKGROUND:;
#PREVIEWVID:;
#JACKET:;
#CDIMAGE:;
#DISCIMAGE:;
#LYRICSPATH:;
#CDTITLE:;
#MUSIC:Player One.mp3;
#OFFSET:-11.051;
#SAMPLESTART:76.820;
#SAMPLELENGTH:12.000;
#SELECTABLE:YES;
#BPMS:0.000=175.000;
#STOPS:;
#DELAYS:;
#WARPS:;
#TIMESIGNATURES:0.000=4=4;
#TICKCOUNTS:0.000=4;
#COMBOS:0.000=1;
#SPEEDS:0.000=1.000=0.000=0;
#SCROLLS:0.000=1.000;
#FAKES:;
#LABELS:0.000=Song Start;
#BGCHANGES:;
#KEYSOUNDS:;
#ATTACKS:
;

//---------------dance-single - ----------------
#NOTEDATA:;
#CHARTNAME:;
#STEPSTYPE:dance-single;
#DESCRIPTION:;
#CHARTSTYLE:;
#DIFFICULTY:Hard;
#METER:8;
#RADARVALUES:0.444,0.485,0.111,0.213,0.000,353.000,14.000,27.000,0.000,0.000,0.000,0.000,0.000,0.444,0.485,0.111,0.213,0.000,353.000,14.000,27.000,0.000,0.000,0.000,0.000,0.000;
#CREDIT:;
#NOTES:
2002
0000
0000
0000
,
0000
0000
3003
0000
,
0220
0000
0000
0000
,
0000
0000
0330
0000
,
2020
0000
0000
0000
,
0000
0000
3030
0000
,
0101
0000
0000
0000
,
1010
0000
0000
0000
,
1001
0100
0000
0100
,
0000
0010
0000
0010
,
0000
0001
0000
0001
,
0000
1000
0000
1000
,
0010
0100
0010
0100
,
0001
1000
0001
1000
,
0001
0010
0100
1000
,
0001
0100
0010
1000
,
0001
0000
0010
0001
0000
0100
0000
0020
,
0000
1030
1000
0100
,
1000
0010
0000
0100
0000
0001
0000
0020
,
0000
0130
1000
0001
,
0200
0000
0310
1000
0000
0001
0000
0020
,
0000
0130
1000
0010
,
0100
0000
0001
0010
0000
0100
0000
2000
,
0000
3001
0100
0010
,
1000
0010
0000
0100
0000
0001
0000
0020
,
0000
0000
0130
1000
0001
0000
0100
0000
,
0010
1000
0000
0100
0000
1000
0000
0002
,
0000
0000
0103
0001
1000
0000
0100
0000
,
0010
0001
0000
0100
0000
0010
0000
2000
,
0000
0000
3001
0100
0010
0000
0100
0000
,
0001
0000
0010
0100
0000
1000
0000
0020
,
0000
0000
0130
0100
0000
0000
0001
0010
,
0001
0010
0000
0001
0010
0000
0100
0000
,
1000
0010
0000
1000
0010
0000
0100
0000
,
0001
1000
0000
0001
1000
0000
0001
0000
,
0010
0100
0000
0010
0100
0000
1000
0000
,
0010
0100
0000
0001
1000
0000
0100
0000
,
0010
0001
0000
0100
0010
0000
1000
0000
,
0100
1000
0000
0010
0100
0000
0001
0000
,
0010
0100
1000
0100
0010
0001
0100
0010
,
1000
0100
0000
0100
1000
0001
1000
0000
,
0001
0010
0000
0010
0001
0100
0001
0000
,
1000
0100
0000
0100
0010
0001
0100
0000
,
0010
0100
0000
0100
0001
1000
0100
0000
,
0010
0001
0000
0001
1000
0010
0100
0000
,
0010
1000
0000
1000
0001
0010
0100
0000
,
1000
0001
0000
0001
0100
0010
1000
0000
,
0001
0010
0001
1000
0100
1000
0001
0100
,
0020
0000
1030
0000
0001
0001
0000
0010
,
0000
0100
0000
1000
0000
0010
0000
0102
,
0000
0000
1003
0000
0010
0100
0000
0001
,
0000
0010
0000
0100
0000
1000
0000
0021
,
0000
0000
0031
0000
1000
0100
1000
0000
,
0010
0000
0100
0000
0001
1000
0001
0000
,
0010
0000
0100
0000
0010
0001
0010
0000
,
0200
0000
1300
0000
0002
0100
0000
0203
,
0000
0310
1000
1100
,
0100
0010
0000
0001
0000
1000
0000
1020
,
0000
0130
0001
0010
,
0100
1000
0000
0001
0000
0100
0000
2010
,
0000
0000
3001
0000
0010
0001
1000
0000
,
0010
0000
0100
0001
0000
1000
0000
0200
,
0000
0000
0310
0000
0001
0100
0010
0000
,
1010
0000
0101
0000
0001
0000
1000
0002
,
1000
0000
0013
0001
1000
0001
0100
0010
,
1000
0100
0010
0001
1000
0010
0100
0001
,
0000
0001
1000
0100
0010
0100
1000
0010
,
0100
0001
0010
0100
1000
0001
1000
0100
,
0000
0100
0010
0001
0100
1000
0100
0001
,
0010
0100
1000
0010
0100
0001
1000
0000
,
0010
0000
0100
0001
0000
0001
1000
0000
,
0100
0010
0001
1000
0010
0000
0100
0001
,
1000
0010
1000
0010
,
0100
0001
0100
0001
,
1000
0100
1000
0100
,
0010
0001
0010
0001
,
1000
0000
0010
0000
0100
0000
0001
1000
,
0001
0000
0100
0000
0010
0000
1000
0100
,
1000
0000
0100
0000
0010
0000
0001
1000
,
0001
0100
0010
1000
,
2002
0000
0000
0000
,
0000
0000
0000
0000
,
3003
0000
0000
0000
;

//---------------dance-single - ----------------
#NOTEDATA:;
#CHARTNAME:;
#STEPSTYPE:dance-single;
#DESCRIPTION:;
#CHARTSTYLE:;
#DIFFICULTY:Medium;
#METER:5;
#RADARVALUES:0.283,0.259,0.063,0.079,0.000,233.000,8.000,10.000,0.000,0.000,0.000,0.000,0.000,0.283,0.259,0.063,0.079,0.000,233.000,8.000,10.000,0.000,0.000,0.000,0.000,0.000;
#CREDIT:;
#NOTES:
2002
0000
0000
0000
,
0000
0000
3003
0000
,
0220
0000
0000
0000
,
0000
0000
0330
0000
,
0022
0000
0000
0000
,
0000
0000
0033
0000
,
1100
0000
0000
0000
,
1010
0000
0000
0000
,
0110
0010
0000
1000
,
0000
1000
0000
0100
,
0000
0010
0000
0001
,
0000
0001
0000
1000
,
0000
0010
0000
0100
,
0000
0001
0000
0010
,
0000
0100
0000
1000
,
0000
0001
0000
0100
,
0100
0000
0010
0000
,
0100
0010
0100
0000
,
0001
0000
0100
0000
,
0001
0100
0001
0000
,
1000
0000
0100
0000
,
1000
0100
1000
0000
,
0010
0000
1000
0000
,
0010
1000
0010
0000
,
1000
0000
0000
0100
0000
1000
0000
0100
,
0000
0000
0010
0001
,
0100
0000
0000
0010
0000
1000
0000
0010
,
0000
0100
0001
1000
,
0100
0000
0000
0010
0000
0100
0000
0010
,
0000
0100
1000
0001
,
0100
0000
0010
0000
,
1000
0000
0001
0000
,
0010
0000
0000
0001
0010
0000
0001
0000
,
0010
0000
0000
0100
1000
0000
0100
0000
,
1000
0000
0000
0010
1000
0000
0010
0000
,
1000
0000
0000
0001
0100
0000
0001
0000
,
0100
0000
0000
0010
1000
0000
0010
0000
,
1000
0000
0000
0001
0010
0000
0001
0000
,
0010
0000
0000
0100
0001
0000
0100
0000
,
0001
0100
1000
0010
,
0100
0000
0000
0010
0100
0000
0010
0000
,
0100
0000
0000
0001
1000
0000
0001
0000
,
1000
0000
0000
0001
0010
0000
0001
0000
,
0010
0000
0000
0100
1000
0000
0100
0000
,
1000
0000
0000
0001
0100
0000
0001
0000
,
0100
0000
0000
0010
1000
0000
0010
0000
,
1000
0000
0000
0001
1000
0000
0001
0000
,
1000
0010
0100
0001
,
0010
0000
0100
0000
1000
0000
0000
0100
,
0000
1000
0000
0001
0000
0100
0000
0010
,
0000
0000
0010
0000
1000
0000
0000
0100
,
0000
1000
0000
0001
0000
0100
0000
0020
,
0000
1030
1000
0100
,
1000
0000
0001
0000
0100
0000
0000
0010
,
0000
0100
0001
1000
,
0100
0000
0010
0000
0001
0000
0000
1000
,
0000
0010
0100
0001
,
1000
0000
0000
0100
0000
1000
0000
0010
,
0000
0000
0100
0000
0001
0000
0000
0010
,
0000
0100
0000
1000
0000
0001
0000
0200
,
0000
0310
0100
0001
,
0010
0000
0000
0100
0000
1000
0000
0001
,
0000
0100
0010
1000
,
0001
0000
0010
0000
0100
0000
0000
1000
,
0000
0010
0100
0001
,
0100
0010
1000
0100
,
0000
0010
0001
1000
,
0010
0100
0001
0010
,
0000
0010
0001
0100
,
1000
0100
0001
0010
,
0000
0100
1000
0010
,
0100
0001
1000
0100
,
0110
0010
0000
0010
,
0000
0001
0000
0001
,
0000
0100
0000
0100
,
0000
1000
0000
1000
,
0000
0001
0000
0001
,
0000
0010
0000
0010
,
0000
1000
0000
1000
,
0000
0001
0000
0001
,
2002
0000
0000
0000
,
0000
0000
0000
0000
,
3003
0000
0000
0000
;

//---------------dance-single - ----------------
#NOTEDATA:;
#CHARTNAME:;
#STEPSTYPE:dance-single;
#DESCRIPTION:;
#CHARTSTYLE:;
#DIFFICULTY:Easy;
#METER:4;
#RADARVALUES:0.221,0.259,0.103,0.016,0.000,181.000,13.000,2.000,0.000,0.000,0.000,0.000,0.000,0.221,0.259,0.103,0.016,0.000,181.000,13.000,2.000,0.000,0.000,0.000,0.000,0.000;
#CREDIT:;
#NOTES:
// measure 0
1001
0000
0000
0000
,  // measure 1
0000
0000
0000
0000
,  // measure 2
0110
0000
0000
0000
,  // measure 3
0000
0000
0000
0000
,  // measure 4
1001
0000
0000
0000
,  // measure 5
0000
0000
0000
0000
,  // measure 6
1010
0000
0000
0000
,  // measure 7
0101
0000
0000
0000
,  // measure 8
1000
0000
0000
1000
,  // measure 9
0000
0001
0000
0001
,  // measure 10
0000
0010
0000
0010
,  // measure 11
0000
0100
0000
0100
,  // measure 12
0000
1000
0000
1000
,  // measure 13
0000
0010
0000
0010
,  // measure 14
0000
0100
0000
0100
,  // measure 15
0000
0001
0000
0000
,  // measure 16
0010
0000
0001
0000
,  // measure 17
0010
0000
0001
0000
,  // measure 18
1000
0000
0100
0000
,  // measure 19
1000
0000
0100
0000
,  // measure 20
1000
0000
0010
0000
,  // measure 21
0100
0000
0001
0000
,  // measure 22
0010
0000
0100
0000
,  // measure 23
1000
0000
0010
0000
,  // measure 24
0100
0000
0001
0000
,  // measure 25
0010
0000
1000
0000
,  // measure 26
0001
0000
0100
0000
,  // measure 27
1000
0000
0010
0000
,  // measure 28
0100
0000
0001
0000
,  // measure 29
0010
0000
0100
0000
,  // measure 30
1000
0000
0010
0000
,  // measure 31
0100
0000
0001
0000
,  // measure 32
0010
0000
0100
1000
,  // measure 33
0100
0000
1000
0010
,  // measure 34
1000
0000
0001
0010
,  // measure 35
0001
0000
0100
0001
,  // measure 36
0100
0000
0010
0100
,  // measure 37
0010
0000
1000
0001
,  // measure 38
1000
0000
0001
0010
,  // measure 39
0001
0000
1000
0000
,  // measure 40
0010
0000
0100
0001
,  // measure 41
0101
0000
0001
0010
,  // measure 42
0011
0000
0010
0100
,  // measure 43
0110
0000
0100
1000
,  // measure 44
1100
0000
1000
0010
,  // measure 45
1010
0000
0010
0100
,  // measure 46
0110
0000
0100
0001
,  // measure 47
1000
0000
0100
0000
,  // measure 48
0010
0000
0001
0000
,  // measure 49
0100
0010
0100
0001
,  // measure 50
1000
0000
0100
0000
,  // measure 51
0010
0001
1000
0010
,  // measure 52
0100
0000
0001
0000
,  // measure 53
0010
0001
1000
0000
,  // measure 54
0010
0000
0100
0001
,  // measure 55
1000
0100
0010
0000
,  // measure 56
0001
0000
0100
0000
,  // measure 57
0010
1000
0100
1000
,  // measure 58
0001
0000
0100
0000
,  // measure 59
0010
1000
0100
1000
,  // measure 60
0001
0000
0100
0000
,  // measure 61
0010
1000
0100
0000
,  // measure 62
0010
0000
0001
0000
,  // measure 63
1000
0010
1000
0000
,  // measure 64
0001
0000
0010
0000
,  // measure 65
0100
0000
1000
0001
,  // measure 66
1000
0000
0010
0000
,  // measure 67
0100
0000
0001
1000
,  // measure 68
0001
0000
0100
0000
,  // measure 69
0010
0000
1000
0001
,  // measure 70
1000
0000
0100
0000
,  // measure 71
0010
0001
1000
0010
,  // measure 72
0110
0000
0100
0000
,  // measure 73
0100
0000
0100
0000
,  // measure 74
0001
0000
0001
0000
,  // measure 75
0001
0000
0001
0000
,  // measure 76
1000
0000
0100
0000
,  // measure 77
1000
0000
0010
0000
,  // measure 78
0100
0000
0001
0000
,  // measure 79
0010
0000
0100
0000
,  // measure 80
2002
0000
0000
0000
,  // measure 81
0000
0000
0000
0000
,  // measure 82
3003
0000
0000
0000
;
