#TITLE:紫の月;
#SUBTITLE:;
#ARTIST:阿部靖広;
#TITLETRANSLIT:Murasaki no Tsuki;
#SUBTITLETRANSLIT:;
#ARTISTTRANSLIT:Yasuhiro Abe;
#GENRE:;
#CREDIT:;
#MENUCOLOR:;
#METERTYPE:DDR;
#BANNER:[Male Vocalists] - Murasaki no Tsuki.png;
#BACKGROUND:[Male Vocalists] - Murasaki no Tsuki-bg.png;
#JACKET:[Male Vocalists] - Murasaki no Tsuki-jacket.png;
#LYRICSPATH:;
#CDTITLE:;
#MUSIC:[Male Vocalists] - Murasaki no Tsuki.mp3;
#OFFSET:-0.184;
#SAMPLESTART:54.700;
#SAMPLELENGTH:12.000;
#SELECTABLE:YES;
#LISTSORT:;
#BPMS:0.000=220.000;
#STOPS:304.000=1.909
;
#BGCHANGES:;
#ATTACKS:;

//---------------dance-single - ----------------
#NOTES:
     dance-single:
     :
     Hard:
     9:
     0.675,0.744,0.183,0.174,0.000:
0000
0000
0000
0000
,
0000
0000
0000
0000
,
0000
0000
0000
0000
,
0000
0000
0000
0000
,
0000
0000
0000
0000
,
0000
0000
0000
0000
,
0000
0000
0000
0000
,
0000
0000
0000
0000
,
1000
0010
0100
0010
0000
0100
0001
0010
,
0000
0100
1000
0001
0000
1000
0100
0000
,
1000
0001
0100
0001
0000
0010
0100
0010
,
0000
0001
0100
0002
0000
0000
0010
0000
,
0103
0010
1000
0100
0000
1000
0001
0010
,
0000
0001
0100
0010
0000
0100
0001
0000
,
1000
0010
0100
0001
0010
0100
0010
0001
,
0100
0010
0100
0001
0010
0100
1000
0000
,
0001
0100
0010
0100
0000
0001
0010
0000
,
0100
0010
0001
0100
0010
0000
0100
0000
,
0001
1000
0100
0010
0000
0100
0010
0000
,
0001
0010
0100
0010
0001
0100
0010
0000
,
0220
0000
0330
0000
,
0000
0000
0000
0000
,
2020
0000
0000
0000
,
3030
0000
0010
0100
0001
0010
0000
0000
,
2002
0000
0000
0000
3003
0000
0001
0100
,
0010
0100
0001
0010
0100
1000
0010
0000
,
1000
0100
1000
0100
0000
0000
1000
0001
,
1000
0001
0000
0100
0010
0100
0001
0000
,
1000
0000
0100
0010
0100
0000
0010
0001
,
0000
0100
0010
1000
0100
0000
1000
0000
,
0010
0000
0100
0001
0010
0000
0100
0010
,
0000
0001
0100
0010
1000
0000
0100
1000
,
0001
0000
0010
0100
1000
0000
0010
1000
,
0000
0010
1000
0001
0100
0000
0001
0000
,
1000
0000
0010
0100
0000
0001
0010
0000
,
0100
0000
1000
0010
0100
0000
0001
0000
,
1000
0000
0010
0100
0000
0001
0010
0000
,
0100
0000
0010
0001
0100
0000
0010
0000
,
0100
0000
0001
0010
0000
0100
1000
0000
,
0010
0000
1000
0010
0100
0000
0001
0000
,
0100
0000
0001
0010
0100
0000
0010
0000
,
0001
0100
0010
1000
0100
0000
1000
0000
,
0001
0000
0100
0010
0000
1000
0100
0000
,
0010
0000
0100
1000
0000
0010
1000
0010
,
0100
0000
0010
1000
0000
0001
0010
0000
,
0001
0000
1000
0100
0000
0010
0100
1000
,
0010
0000
1000
0100
0000
0010
0100
1000
,
0010
0000
0100
0001
0010
0100
1000
0000
,
1010
0000
0000
1001
0000
0000
0101
0000
,
0000
2000
3200
0310
,
0110
0000
0100
1000
0000
0001
0010
0100
,
0010
0000
0001
0100
0000
0001
1000
0010
,
1000
0000
0100
1000
0000
0001
1000
0000
,
0001
0000
0100
0001
0010
0100
0010
0001
,
0100
0000
0010
1000
0000
0100
0010
0100
,
1000
0000
0010
1000
0000
0010
0100
0001
,
0010
0100
1000
0010
,
1000
0100
0010
0100
1000
0010
1000
0000
,
1001
0000
0001
0100
0000
0001
0010
0100
,
0010
0000
0100
1000
0000
0010
0100
0010
,
1000
0000
0001
0100
0000
0001
0010
0000
,
0001
0000
1000
0100
0010
0100
1000
0010
,
0100
0000
0010
1000
0000
0001
0010
0100
,
0010
0000
0100
1000
0000
0010
0100
0010
,
1000
0100
0010
0100
,
1000
0010
0100
0001
0010
0001
0100
0000
,
1001
0000
1000
0100
0010
0100
1000
0000
,
0100
0000
0010
0100
1000
0001
0100
0000
,
1010
0000
0001
1000
0000
0001
0100
0000
,
0010
0000
0100
0000
0001
0010
0100
0000
,
1000
0010
0100
0001
0010
0100
0010
0001
,
0100
0010
0100
0001
0010
0000
0100
0000
,
1000
0001
0100
0001
0100
0010
0100
0010
,
1000
0010
1000
0100
1000
0001
1000
0000
,
1000
0100
0010
0001
1000
0100
0010
0001
,
1000
0100
0010
0001
0200
0000
0310
0000
,
1010
0000
0101
0000
0100
0010
0000
1000
,
0100
0000
0010
0000
0100
1000
0000
0010
,
0100
0001
0010
0000
0001
1000
0000
0100
,
0010
0100
1000
0000
0010
0100
0000
0001
,
0010
0100
0010
0000
0001
0000
0010
0000
,
0001
0000
1000
0100
0010
0100
1000
0010
,
0100
2002
0000
0000
,
3003
2200
3300
0022
,
0033
0000
0100
0010
0001
0010
0000
0100
,
1000
0001
0000
0100
0010
1000
0000
0100
,
1000
0000
0001
1000
0100
0010
0000
0001
,
0010
0100
0000
0010
0001
0200
0000
0000
,
0010
0000
0301
1000
0100
0010
0000
0001
,
1000
0010
0000
0100
0010
1000
0000
0100
,
0010
0000
0001
0010
0100
1000
0100
0010
,
0100
1000
0010
0100
0010
1000
0001
0010
,
0001
0000
1100
0000
1000
0010
0000
1000
,
0001
0000
0011
0000
0001
0100
0000
0001
,
1000
0000
1010
0000
0000
0101
0000
0000
,
0220
0000
0000
0330
;

//---------------dance-single - ----------------
#NOTES:
     dance-single:
     :
     Medium:
     7:
     0.594,0.744,0.201,0.320,0.000:
0000
0000
0000
0000
,
0000
0000
0000
0000
,
0000
0000
0000
0000
,
0000
0000
0000
0000
,
0000
0000
0000
0000
,
0000
0000
0000
0000
,
0000
0000
0000
0000
,
0000
0000
0000
0000
,
1000
0000
0010
0100
0000
0001
0010
0001
,
0000
0010
0100
0010
0000
0100
1000
0000
,
0010
0000
1000
0010
0000
1000
0001
1000
,
0000
0001
0100
0002
0000
0000
0000
0000
,
1003
0000
0100
0010
0000
0001
0100
0001
,
0000
0100
0010
0100
0000
0010
1000
0000
,
0001
0010
0100
1000
,
0010
1000
0010
0000
0100
0010
0100
0000
,
0001
0000
0010
0100
0000
0010
0001
0000
,
0100
0000
0010
0100
0010
0000
0100
0000
,
0001
0000
1000
0100
0000
0010
0100
0000
,
0010
0000
0001
0100
0001
0000
0100
0000
,
0220
0000
0330
0000
,
0000
0000
0000
0000
,
2002
0000
0000
0000
,
3003
0000
0001
0000
0100
0010
0000
0000
,
2020
0000
3030
0010
,
1000
0100
1000
0000
0100
0010
0100
0000
,
0010
0001
0010
0001
0000
0000
0001
0100
,
0001
0100
0000
0010
0100
0010
0100
0000
,
0010
0000
0100
0000
0001
0000
0010
0100
,
0000
0010
0100
0000
1000
0000
0010
0000
,
1000
0000
0001
0000
0100
0000
0001
0010
,
0000
0100
0010
0000
0001
0100
0001
0000
,
0100
0000
0010
0000
1000
0000
0100
1000
,
0000
0010
1000
0000
0001
0000
0100
0000
,
0001
0000
0010
0000
0100
0000
0010
0001
,
0000
0100
0010
0000
0100
0010
0100
0000
,
0002
0000
0000
0023
0000
0000
0230
0000
,
0320
0000
0031
0100
,
0020
0000
0000
0230
0000
0000
0302
0000
,
2003
0000
3100
1000
,
0010
0000
0100
0001
0100
0000
0001
0000
,
0010
0100
0010
0000
0100
1000
0100
0000
,
2000
0000
0000
3020
0000
0000
0130
0000
,
0001
0000
0010
0200
0000
0000
0310
0000
,
0001
0000
0100
0010
0000
0100
0001
0000
,
1000
0000
0100
2000
0000
0000
3010
0000
,
2000
0000
0000
3002
0000
0000
0203
0000
,
0301
1000
0001
1000
0001
1000
0001
0000
,
0101
0000
0000
1001
0000
0000
1010
0000
,
0000
2000
3200
0310
,
0110
0000
0100
1000
0000
0100
0010
0000
,
0100
0000
1000
0010
0000
0100
0010
0000
,
1000
0000
0001
0010
0000
0001
0100
0000
,
0001
0000
0010
0100
0010
0000
0100
0000
,
1000
0000
0010
0100
0000
0010
1000
0000
,
0001
0000
0010
0001
0000
0100
0001
0000
,
0010
0001
1000
0010
,
1000
0100
1000
0000
0100
0010
0100
0000
,
0010
0000
0001
0100
0000
0010
0100
0000
,
0001
0000
1000
0100
0000
1000
0010
0000
,
1000
0000
0100
0010
0000
0100
0010
0000
,
0001
0000
0100
0000
0010
0100
0010
0000
,
0100
0000
0001
1000
0000
0010
1000
0000
,
0100
0000
0010
0001
0000
0010
0100
0000
,
0010
0001
0100
0010
,
0100
0001
0100
0000
0010
0100
0010
0000
,
0110
0100
0001
1000
,
0100
1000
0010
1000
,
1001
0000
0001
0020
0000
0000
0130
0000
,
0010
0000
0001
0000
0100
0010
0100
0000
,
0001
0010
0001
0000
0010
0100
0010
0000
,
0100
0000
1000
0010
1000
0000
0010
0000
,
1000
0100
1000
0000
1000
0010
0000
1000
,
0001
0000
0001
0010
0000
0001
0100
0000
,
0001
0010
0001
0010
0100
0010
0100
0010
,
0100
1000
0100
1000
0020
0000
0130
0000
,
0110
0000
1001
0000
1000
0100
0000
0010
,
0100
0000
0010
0000
0001
0100
0001
0000
,
0100
0000
0010
0000
0100
0001
0000
1000
,
0100
0000
0010
0000
0100
0010
0000
0001
,
0100
0010
0100
0001
,
0010
0000
0100
0010
0100
0000
0010
0001
,
0010
0220
0000
0000
,
0330
2020
3030
0202
,
0303
0000
1001
0000
1000
0010
0000
0100
,
0010
0100
0000
0010
1000
0010
0000
1000
,
0100
0000
0010
0000
0001
0010
0000
0001
,
0100
0001
0000
0100
0010
0200
0000
0000
,
0000
0000
0310
0000
1000
0100
0000
0010
,
0001
0010
0000
0001
0100
0001
0000
0100
,
0010
0100
0010
1000
,
0100
0000
0010
0100
0010
0000
0100
1000
,
0100
0000
1100
0000
0000
1001
0000
0001
,
0010
0000
0011
0000
0000
0110
0000
0100
,
1000
0000
1010
0000
0000
0101
0000
0000
,
0220
0000
0000
0330
;

//---------------dance-single - ----------------
#NOTES:
     dance-single:
     :
     Easy:
     5:
     0.429,0.569,0.183,0.338,0.000: // measure 1
0000
0000
0000
0000
,  // measure 2
0000
0000
0000
0000
,  // measure 3
0000
0000
0000
0000
,  // measure 4
0000
0000
0000
0000
,  // measure 5
0000
0000
0000
0000
,  // measure 6
0000
0000
0000
0000
,  // measure 7
0000
0000
0000
0000
,  // measure 8
0000
0000
0000
0000
,  // measure 9
1000
0000
0000
0010
0000
0100
0000
0001
,  // measure 10
0000
0010
0000
0100
0000
0000
0010
0000
,  // measure 11
0001
0000
0000
0100
0000
0010
0000
0100
,  // measure 12
0000
0001
0000
2000
0000
0000
0000
0000
,  // measure 13
3100
0000
0000
1000
0000
0010
0000
0100
,  // measure 14
0000
0001
0000
0010
0000
0000
0100
0000
,  // measure 15
1000
0100
0010
0001
,  // measure 16
1000
0100
0010
0001
,  // measure 17
1000
0010
0000
0100
,  // measure 18
0001
0010
0100
0010
,  // measure 19
0001
0100
0000
0010
,  // measure 20
0100
0001
1000
0010
,  // measure 21
0220
0000
0330
0000
,  // measure 22
0000
0000
0000
0000
,  // measure 23
2020
0000
0000
0000
,  // measure 24
0000
0000
0000
3030
,  // measure 25
0202
0000
0000
0000
,  // measure 26
0000
0000
0000
0303
,  // measure 27
0002
0000
0000
0013
0000
0000
0200
0000
,  // measure 28
0000
1300
0000
0020
0000
0000
0130
0000
,  // measure 29
0010
0000
0100
0000
0001
0000
0000
1000
,  // measure 30
0000
0100
0010
0000
,  // measure 31
0100
0000
0010
0000
0001
0000
0000
0100
,  // measure 32
0000
0010
0100
0001
,  // measure 33
1000
0000
0100
0000
0010
0000
0000
0100
,  // measure 34
0000
0010
0001
0000
,  // measure 35
0100
0000
0001
0000
0010
0000
0000
0100
,  // measure 36
0000
0010
0001
0100
,  // measure 37
0020
0000
0000
0230
0000
0000
0301
0000
,  // measure 38
0020
0000
0130
0010
,  // measure 39
0002
0000
0000
0203
0000
0000
0310
0000
,  // measure 40
2000
0000
3001
0010
,  // measure 41
0100
0010
0001
0100
,  // measure 42
0010
0100
0001
1000
,  // measure 43
0010
0000
0000
0100
0000
0000
0001
0000
,  // measure 44
0020
0000
0000
0230
0000
0000
0310
0000
,  // measure 45
0002
0000
0000
0203
0000
0000
0310
0000
,  // measure 46
0200
0000
0000
0302
0000
0000
1003
0000
,  // measure 47
0200
0000
0000
0320
0000
0000
0031
0000
,  // measure 48
0200
0000
0000
0320
0000
0000
0130
0000
,  // measure 49
0101
0000
0000
1010
0000
0000
1001
0000
,  // measure 50
0000
0000
0000
0000
,  // measure 51
0110
0000
0000
0100
0000
0000
0001
0000
,  // measure 52
0010
0000
0000
0100
0000
0000
0010
0000
,  // measure 53
0001
0000
0000
0100
0000
0000
0010
0000
,  // measure 54
0100
0001
1000
0100
,  // measure 55
1000
0000
0000
0010
0000
0000
0100
0000
,  // measure 56
0001
0000
0000
0010
0000
0000
0100
0000
,  // measure 57
0010
0001
0100
0010
,  // measure 58
0100
0001
0010
0100
,  // measure 59
0010
0000
0000
0001
0000
0000
0100
0000
,  // measure 60
0010
0000
0000
0100
0000
0000
0001
0000
,  // measure 61
1000
0000
0000
0100
0000
0000
1000
0000
,  // measure 62
0010
0100
0001
0010
,  // measure 63
0001
0000
0000
0100
0000
0000
0010
0000
,  // measure 64
0100
0000
0000
0001
0000
0000
1000
0000
,  // measure 65
0100
1000
0010
0100
,  // measure 66
0001
0010
0100
0010
,  // measure 67
0001
0010
0100
0010
,  // measure 68
0001
0100
0010
0100
,  // measure 69
0001
0000
0000
0020
0000
0000
0000
0000
,  // measure 70
0000
0130
0010
0001
,  // measure 71
0100
0010
0100
0001
,  // measure 72
1000
0100
1000
0010
,  // measure 73
1000
0001
0000
0000
0010
0000
0000
0100
,  // measure 74
0000
0000
1000
0000
0000
0100
0000
0000
,  // measure 75
1000
0100
0010
0001
,  // measure 76
0010
0100
2000
3001
,  // measure 77
1001
0000
0110
0000
0000
0100
0000
0000
,  // measure 78
0010
0100
0001
0010
,  // measure 79
0100
0000
1000
0000
0000
0010
0000
0000
,  // measure 80
1000
0000
0001
0000
0000
0100
0000
0000
,  // measure 81
0010
0100
0001
0010
,  // measure 82
0100
0010
0100
0001
,  // measure 83
1000
2002
0000
0000
,  // measure 84
3003
2020
3030
0202
,  // measure 85
0303
0000
0110
0000
0100
0001
0000
0010
,  // measure 86
0000
0100
0000
0010
0000
0001
0000
0100
,  // measure 87
0010
0000
0100
0000
0001
0010
0000
0100
,  // measure 88
0000
0010
0000
0001
0000
0200
0000
0000
,  // measure 89
0000
0000
0310
0000
0100
0001
0000
1000
,  // measure 90
0000
0100
0000
0010
0000
0100
0000
0010
,  // measure 91
0001
1000
0100
0010
,  // measure 92
0001
1000
0100
0010
,  // measure 93
0001
0000
1001
0000
0000
1010
0000
0000
,  // measure 94
0000
0000
1001
0000
0000
0101
0000
0000
,  // measure 95
0000
0000
0011
0000
0000
1100
0000
0000
,  // measure 96
0220
0000
0000
0330
;

//---------------dance-single - ----------------
#NOTES:
     dance-single:
     :
     Beginner:
     2:
     0.204,0.304,0.119,0.000,0.000: // measure 1
0000
0000
0000
0000
,  // measure 2
0000
0000
0000
0000
,  // measure 3
0000
0000
0000
0000
,  // measure 4
0000
0000
0000
0000
,  // measure 5
0000
0000
0000
0000
,  // measure 6
0000
0000
0000
0000
,  // measure 7
0000
0000
0000
0000
,  // measure 8
0000
0000
0000
0000
,  // measure 9
1000
0000
0000
0000
,  // measure 10
0000
0000
0000
0000
,  // measure 11
0010
0000
0000
0000
,  // measure 12
0000
0000
0000
0000
,  // measure 13
0100
0000
0000
0000
,  // measure 14
0000
0000
0000
0000
,  // measure 15
0001
0000
0001
0000
,  // measure 16
1000
0000
1000
0000
,  // measure 17
0010
0000
0000
0000
,  // measure 18
0100
0000
0001
0000
,  // measure 19
0010
0000
0000
0000
,  // measure 20
0100
0000
0010
0000
,  // measure 21
0110
0000
0000
0000
,  // measure 22
0000
0000
0000
0000
,  // measure 23
1001
0000
0000
0000
,  // measure 24
0000
0000
0000
0000
,  // measure 25
1001
0000
0000
0000
,  // measure 26
0000
0000
0000
0000
,  // measure 27
0010
0000
0000
0100
,  // measure 28
0000
0000
0010
0000
,  // measure 29
0100
0000
0010
0000
,  // measure 30
1000
0000
0000
0000
,  // measure 31
0001
0000
0010
0000
,  // measure 32
0100
0000
0010
0000
,  // measure 33
0100
0000
1000
0000
,  // measure 34
0010
0000
0000
0000
,  // measure 35
0100
0000
0010
0000
,  // measure 36
1000
0000
0001
0000
,  // measure 37
1000
0000
0000
0000
,  // measure 38
0001
0000
0000
0000
,  // measure 39
0100
0000
0000
0000
,  // measure 40
0010
0000
0000
0000
,  // measure 41
0100
0000
0100
0000
,  // measure 42
0010
0000
0010
0000
,  // measure 43
1000
0000
0000
0000
,  // measure 44
0001
0000
0000
0000
,  // measure 45
0100
0000
0000
0000
,  // measure 46
0010
0000
0000
0000
,  // measure 47
1000
0000
0000
0000
,  // measure 48
0001
0000
0000
0000
,  // measure 49
0110
0000
0000
0110
,  // measure 50
0000
0000
0000
0000
,  // measure 51
0001
1000
0000
0001
,  // measure 52
0000
0100
0000
0010
,  // measure 53
0000
1000
0000
0100
,  // measure 54
0000
0010
0000
0100
,  // measure 55
0000
1000
0000
0010
,  // measure 56
0000
0100
0000
0010
,  // measure 57
1000
1000
0100
0100
,  // measure 58
0010
0000
0100
0000
,  // measure 59
1000
0001
0000
1000
,  // measure 60
0000
0010
0000
0100
,  // measure 61
0000
0001
0000
0010
,  // measure 62
0000
0100
0000
0010
,  // measure 63
0000
0001
0000
0100
,  // measure 64
0000
0010
0000
0100
,  // measure 65
0001
0001
0010
0010
,  // measure 66
0100
0000
0010
0000
,  // measure 67
0100
0000
0000
0000
,  // measure 68
0010
0000
0000
0000
,  // measure 69
0001
0000
0000
0000
,  // measure 70
0000
0000
1000
0000
,  // measure 71
0010
0000
0100
0000
,  // measure 72
0001
0000
0010
0000
,  // measure 73
0001
0010
0000
0001
,  // measure 74
0000
0100
0000
0010
,  // measure 75
1000
0000
0100
0000
,  // measure 76
0010
0000
0001
0000
,  // measure 77
1001
1000
0010
0000
,  // measure 78
0100
0000
0001
0000
,  // measure 79
0010
0000
0100
0000
,  // measure 80
0010
0000
0001
0000
,  // measure 81
0100
0000
0010
0000
,  // measure 82
0100
0000
0001
0000
,  // measure 83
0000
1001
0000
0000
,  // measure 84
0000
0110
0000
0110
,  // measure 85
0000
0100
0010
0000
,  // measure 86
0100
0000
1000
0000
,  // measure 87
0100
0010
0100
0000
,  // measure 88
1000
0000
0010
0000
,  // measure 89
1000
0001
1000
0000
,  // measure 90
0001
0000
0010
0000
,  // measure 91
0100
1000
0000
0100
,  // measure 92
0000
0010
0000
0001
,  // measure 93
0000
1001
0000
0000
,  // measure 94
0000
1001
0000
0000
,  // measure 95
0000
0110
0000
0000
,  // measure 96
0110
0000
0000
0000
;
