#TITLE:Move Me;
#SUBTITLE:;
#ARTIST:good-cool feat.Raj Ramayya;
#TITLETRANSLIT:;
#SUBTITLETRANSLIT:;
#ARTISTTRANSLIT:;
#CREDIT:;
#BANNER:Move me BN.png;
#BACKGROUND:move me BG.png;
#LYRICSPATH:;
#CDTITLE:./CDTITLES/DanceDanceRevolution X3 VS 2ndMIX.png;
#MUSIC:06 - good-cool feat. Raj Ramayya - Move Me.mp3;
#OFFSET:0.182;
#SAMPLESTART:78.220;
#SAMPLELENGTH:15.000;
#SELECTABLE:YES;
#BPMS:0.000=186.000,34.000=93.000,170.000=186.000;
#STOPS:;
#BGCHANGES:;

//---------------dance-single - ----------------
#NOTES:
     dance-single:
     :
     Easy:
     4:
     0.212,0.259,0.097,0.121,0.000:
0000
0000
0000
0000
,
0000
0000
0000
0000
,
0000
0000
0000
0000
,
0000
0000
0000
0000
,
0000
0000
0000
0000
,
0000
0000
0000
0000
,
0000
0000
0000
0000
,
0000
0000
0000
0000
,
0000
0000
1000
0100
,
0010
0011
0001
0100
,
0010
1010
1000
0001
,
1000
1001
0100
0010
,
0100
0110
0010
1000
,
0100
1100
0010
0001
,
0100
0101
0010
0100
,
0010
0110
0010
1000
,
0001
1001
0002
0000
,
0000
0003
2000
0000
,
0000
3000
0100
0010
,
0001
0001
1000
0001
,
1000
0010
0020
0000
,
0130
0001
0100
0020
,
2030
3200
0310
0001
,
1000
0001
0001
0100
,
1000
0100
0001
0010
,
0100
0010
0100
0010
,
0001
1000
2001
0000
,
0001
0001
3001
0000
,
0100
0010
0002
1003
,
1000
0010
1000
0100
,
0100
0010
0210
0000
,
0010
0010
0310
0000
,
0001
0000
0100
0100
,
0001
1000
2002
0000
,
3003
0000
1000
0100
,
0001
0100
2000
0010
,
0001
3010
1000
0010
,
0001
0010
2000
0100
,
0001
3100
0001
0100
,
1000
0100
0002
1000
,
0010
1003
0001
0010
,
1000
0010
0002
0000
,
1003
0000
1000
0000
,
0000
0000
0100
0100
,
0100
0000
0010
0000
,
0000
0000
0001
0001
,
0001
0000
0100
0000
,
0000
0000
0010
0010
,
0010
0000
1000
0000
,
0000
0000
0100
0100
,
0100
0000
0010
0000
,
0010
0000
0001
0001
,
0001
0000
0100
0000
,
0100
0000
0001
0001
,
0001
0000
0100
0000
,
0010
0000
1000
1000
,
1000
0000
0100
0000
,
0010
0000
0001
1000
,
0001
1001
0000
0000
;

//---------------dance-single - ----------------
#NOTES:
     dance-single:
     :
     Medium:
     6:
     0.345,0.401,0.283,0.154,0.008:
0000
0000
0000
0000
,
0000
0000
0000
0000
,
0000
0000
0000
0000
,
0000
0000
0000
0000
,
0000
0000
0000
0000
,
0000
0000
0000
0000
,
0000
0000
0000
0000
,
0000
0000
0000
0000
,
0000
0000
0000
0000
0001
0100
1000
0100
,
0001
0010
0110
0000
0010
0001
1000
0100
,
1000
0010
1010
0000
0001
0010
1000
0010
,
0001
1000
1100
0000
0010
0100
0001
1000
,
0100
0010
0110
0000
1000
0100
0001
0100
,
1000
0010
1010
0000
0010
0100
0001
0010
,
0001
0100
0101
0000
1000
0010
0001
0010
,
1000
0010
0110
0000
0100
0010
1000
0100
,
0010
0100
1100
0000
2000
0000
0001
0000
,
0100
3001
0002
0010
,
1000
0000
0013
0000
0001
0100
0010
1000
,
0100
0000
0100
0000
0010
0001
0010
0100
,
1000
1000
0001
0101
,
1000
0000
1100
0000
1000
0000
0010
0100
,
0001
1000
0100
0000
1000
0100
0010
0001
,
0100
0000
1000
0000
0100
0010
1000
0100
,
0001
0100
1000
1010
,
0001
0000
0011
0000
0002
0100
0103
0000
,
0010
1000
1001
0001
,
0100
0001
0200
0000
0310
0000
1000
0000
,
0010
1000
0010
0200
0000
0000
0301
0000
,
0001
0000
0010
0000
1000
0000
0010
0000
0001
0000
0000
0202
0000
0000
0000
0000
,
0303
1001
1000
1000
,
0100
0000
0010
0100
0020
0000
0031
0000
,
0100
0001
0100
0020
0000
0000
1030
0000
,
1000
0000
0100
0000
0001
0000
0100
0000
1000
0000
0000
2020
0000
0000
0000
0000
,
0000
0000
3030
0000
1000
0100
0001
0010
,
0001
0100
1000
0000
1100
0000
0101
0000
,
0011
0000
1100
0000
0001
0100
1000
0010
,
1000
0100
0001
0000
0101
0000
0011
0000
,
1100
0000
1001
0000
1000
0010
0001
0100
,
0001
0010
1000
0000
1100
0000
1010
0000
,
0110
0000
0101
0000
0001
0010
1000
0100
,
1000
0010
0001
0000
0101
0000
1001
0000
,
1010
0000
1000
0100
,
1000
0100
0020
0001
,
0031
0100
0100
0010
,
1000
0010
2000
0100
,
3100
0010
0100
0010
,
0001
1000
0002
1000
,
1003
0010
1000
0100
,
0010
0100
2000
0001
,
3001
0000
1000
0000
1001
0000
0000
0001
,
0000
0002
0000
0000
1003
0000
1000
0000
,
1000
0000
0000
0000
1010
0000
0000
0100
,
0000
0200
0000
0000
0301
0000
0001
0000
,
0001
0000
0000
0000
0110
0000
0000
0010
,
0000
0020
0000
0000
0130
0000
0100
0000
,
0100
0000
0000
0000
0001
0000
0000
1000
,
0000
2000
0000
0000
3001
0000
0001
0000
,
0100
1001
0000
0000
;

//---------------dance-single - ----------------
#NOTES:
     dance-single:
     :
     Hard:
     8:
     0.459,0.566,0.089,0.089,0.174: // measure 1
0000
0000
0000
0000
,  // measure 2
0000
0000
0000
0000
,  // measure 3
0000
0000
0000
0000
,  // measure 4
0000
0000
0000
0000
,  // measure 5
0000
0000
0000
0000
,  // measure 6
0000
0000
0000
0000
,  // measure 7
0000
0000
0000
0000
,  // measure 8
0000
0000
0000
0000
,  // measure 9
0000
0000
0000
0000
0000
0000
0000
0000
0101
0000
0100
0001
0010
0000
0100
0000
,  // measure 10
1000
0000
0010
0000
1000
0000
0001
0000
1001
0000
0010
1000
0001
0000
1000
0000
,  // measure 11
0010
1000
0010
1000
0001
0100
0001
1000
0001
0000
0100
0010
1000
0000
0001
0000
,  // measure 12
0100
0000
0001
0000
1000
0000
0010
0000
0110
0000
0100
0001
1000
0000
0100
0000
,  // measure 13
1000
0000
0010
0000
0001
0000
0010
0000
1001
0000
1000
0001
0010
0000
0100
0000
,  // measure 14
0010
0000
0001
0000
1000
0000
0001
0000
0101
0000
0001
0010
0100
0000
1000
0000
,  // measure 15
0001
0100
0001
0100
0010
1000
0001
1000
0100
0000
0010
0001
0100
0000
0010
0000
,  // measure 16
1000
0000
0100
0000
0010
0000
0001
0000
0011
0000
0001
1000
0010
0000
0001
0000
,  // measure 17
0010
0000
1000
0000
0010
0000
0100
0000
0010
1000
0000
0001
0100
0000
1000
0100
,  // measure 18
0000
0010
0002
0000
0000
0000
0003
0000
0001
1000
0000
0010
0100
0000
0010
1000
,  // measure 19
0000
0001
0200
0000
0000
0000
0300
0000
0010
0000
0100
0000
0001
0000
1000
0000
,  // measure 20
0010
0001
0010
0010
1000
0001
1000
0100
,  // measure 21
0010
0000
0001
0000
1000
0000
0001
0000
0100
0000
0000
0001
0000
0000
2000
0000
,  // measure 22
0000
0001
3001
0000
1000
0010
1000
0100
,  // measure 23
0001
0100
0010
0001
1001
0001
0100
1000
,  // measure 24
0001
0010
1000
1000
0010
0001
0010
0100
,  // measure 25
0001
0000
1000
0000
0010
0000
0100
0000
0010
0000
0000
0100
0000
0000
0002
0000
,  // measure 26
0000
1000
1003
0000
0010
0100
0001
1000
,  // measure 27
0100
0000
0010
0000
1001
0000
1000
0001
1000
0000
1000
0100
0000
1000
0010
0000
,  // measure 28
1000
0001
0000
0001
0010
0000
0001
0200
0000
0000
0000
0000
0301
0000
0000
0000
,  // measure 29
0001
1000
0100
0010
0001
1000
0110
1000
,  // measure 30
0001
0100
0001
1000
0010
0100
0010
0001
,  // measure 31
0010
0000
1000
0000
1100
0000
1000
0100
0010
0000
0001
1000
0000
0001
0010
0000
,  // measure 32
0001
1000
0000
1000
0010
0000
1000
0200
0000
0000
0000
0000
1300
0000
0000
0000
,  // measure 33
0001
0100
0010
1000
0001
0100
1001
0100
,  // measure 34
0001
0100
0010
1000
0002
0000
0000
0000
,  // measure 35
0000
0000
0003
0000
1000
0001
0010
0000
0100
0000
0010
0000
0001
0000
1000
0000
,  // measure 36
0001
0010
2000
0000
3010
0001
1000
0001
,  // measure 37
0100
0001
1000
0001
1000
0010
0100
0010
,  // measure 38
1000
0100
0002
0000
0103
1000
0100
1000
,  // measure 39
0010
0000
0100
0000
0001
0000
1000
0100
0010
0000
0100
0000
0010
0000
0001
0000
,  // measure 40
1000
0010
0002
0000
0013
1000
0001
0100
,  // measure 41
0001
1000
0100
0010
0001
0100
0010
0100
,  // measure 42
0001
0000
0100
0000
2000
0000
0000
0000
3100
0000
0001
0100
0001
1000
0000
1000
,  // measure 43
0001
0000
0000
0000
1000
0000
0010
1000
,  // measure 44
0100
0010
0100
0000
0010
0001
0010
0000
,  // measure 45
0100
0000
0010
0001
0100
0000
0010
1000
,  // measure 46
0001
0100
0001
0000
0100
0010
0100
0000
,  // measure 47
0010
0100
0001
1000
0001
0100
1000
0100
,  // measure 48
0001
1000
0100
0000
0100
0010
0100
0000
,  // measure 49
0010
0000
0001
1000
0100
0000
1000
0010
,  // measure 50
0100
0001
1000
0001
0100
0010
1000
0010
,  // measure 51
1000
0000
1000
0100
0010
0000
0100
0010
,  // measure 52
0000
0010
0001
0000
0001
0100
0010
0000
,  // measure 53
1000
0000
1000
0010
0100
0000
0001
1000
,  // measure 54
0000
1000
0010
0000
1000
0100
0001
0100
,  // measure 55
1000
0001
0100
0000
0001
0000
1000
0100
,  // measure 56
0000
0100
1000
0000
0010
0100
0001
0000
,  // measure 57
0001
0000
1000
0001
1000
0000
0001
0100
,  // measure 58
0000
0100
0001
0010
1000
0010
0001
0100
,  // measure 59
0010
1000
0001
0000
0000
0000
0000
0000
;
