#TITLE:Mal o Mains;
#SUBTITLE:;
#ARTIST:Sanseverino;
#TITLETRANSLIT:;
#SUBTITLETRANSLIT:;
#ARTISTTRANSLIT:;
#CREDIT:Dossar;
#BANNER:malomainsbn.png;
#BACKGROUND:malomainsbg.png;
#LYRICSPATH:;
#CDTITLE:cd.png;
#MUSIC:mal o mains.mp3;
#OFFSET:-3.000;
#SAMPLESTART:26.940;
#SAMPLELENGTH:19.900;
#SELECTABLE:YES;
#BPMS:0.000=96.100,30.500=102.507,30.833=96.100,31.333=109.829,31.833=82.371,32.333=96.100,86.500=102.507,86.833=96.100,87.333=109.829,87.833=76.880,88.167=153.760,88.500=85.422,89.333=146.438,90.000=64.067,90.333=85.422,91.333=102.507,92.000=95.500,96.000=96.100,145.000=102.507,145.333=85.422,145.500=96.100,147.500=102.507,147.833=85.422,148.000=128.133,148.333=85.422,149.000=96.100,150.500=102.507,150.833=85.422,151.000=102.507,151.333=85.422,151.500=96.100,152.000=102.507,152.333=85.422,152.500=96.100,184.000=98.000;
#STOPS:;
#BGCHANGES:;

//---------------dance-single - Dossar----------------
#NOTES:
     dance-single:
     Dossar:
     Hard:
     9:
     0.722,0.701,0.191,0.523,1.000: // measure 1
0000
0000
0000
0000
,  // measure 2
0000
0000
0000
0000
,  // measure 3
1000
0000
1000
0001
0000
0001
0100
0000
0000
0010
0000
0000
2000
0000
0000
0000
0000
3002
0000
0000
0000
0003
0000
0000
,  // measure 4
0001
0000
0001
1000
0000
1000
0100
0000
0000
0010
0000
0022
0000
0000
0000
0033
0000
0000
0000
0000
0000
0000
0000
0001
,  // measure 5
1000
0000
0010
1000
0000
0001
0100
0000
0000
0010
0000
1000
0001
0000
0100
0010
0000
1000
0001
0000
0100
0001
0000
1000
,  // measure 6
0100
0000
0010
0100
0000
1000
0100
0000
0010
0001
0000
0010
0100
0000
0000
1000
0000
0000
0001
0000
0000
1000
0000
0010
,  // measure 7
0100
0000
0010
1000
0000
0001
1000
0000
0100
0010
0000
0100
1000
0000
0100
0010
0000
0001
0010
0000
0100
0010
0000
0001
,  // measure 8
1000
0000
0010
1000
0000
0010
0100
0000
0010
1000
0000
0001
0010
0000
0100
0000
0000
0110
0000
0000
0011
0000
0000
2002
,  // measure 9
0000
3003
0000
1000
0000
0010
0100
0000
0001
1000
0000
0000
0010
0000
0000
0100
0000
0001
1000
0000
0100
0010
0000
0100
,  // measure 10
1000
0000
0001
0100
0000
0001
0100
0000
0001
0100
0000
0001
0100
0000
0020
0000
0030
0000
2000
0000
3000
0002
0000
0103
,  // measure 11
0010
0000
1000
0001
0000
1000
0100
0000
0000
0010
0000
0000
0002
0000
0000
0003
0000
1000
0001
0000
0100
0001
0000
1000
,  // measure 12
0001
0000
1000
0010
0100
0001
1000
0000
0000
0100
0000
0000
0020
0000
0000
0030
0000
0002
0000
0003
1000
0001
0000
0100
,  // measure 13
0001
0000
0000
0000
0000
1000
0100
0000
0000
0000
0000
0010
0100
0000
1000
0001
0000
0200
0000
0300
0010
1000
0000
0001
,  // measure 14
0100
0000
0000
0001
0000
0001
0100
0000
0100
0010
0000
0010
1000
0000
1000
0002
0000
0003
2000
0000
3001
0100
0000
0001
,  // measure 15
1000
0000
0100
0010
0000
0100
1000
0000
0000
0010
0000
0000
0200
0000
0000
0300
0000
0001
1000
0000
0100
1000
0000
0001
,  // measure 16
1000
0000
0010
0100
0000
0001
1000
0000
0000
0100
0000
0000
0020
0000
0000
0030
0000
0002
0000
0003
1000
0100
0000
0010
,  // measure 17
0001
0000
0000
0000
0000
1000
0001
0000
0000
0000
0000
0010
0001
0000
1000
0001
0000
0020
0000
0030
0001
1000
0000
0001
,  // measure 18
0100
0000
0000
1001
0000
0000
0000
0000
1010
0000
0000
0000
0101
0000
0000
0000
0000
2002
0000
0000
0000
3003
0000
0000
,  // measure 19
0001
0000
1000
0010
0000
0100
0010
0000
1000
0001
0000
1000
0100
0000
0010
0001
0000
1000
0001
0000
0000
0001
0000
0001
,  // measure 20
0100
0000
0000
0010
0000
0010
1000
0000
0001
0100
0000
0001
1000
0000
0000
0000
0000
0000
0100
0000
0000
0000
0000
0000
,  // measure 21
1000
0000
0010
0100
0000
0010
1000
0000
0001
1000
0000
0100
0010
0000
0100
1000
0000
0001
0010
0000
0001
1000
0000
0001
,  // measure 22
0100
0000
0000
0000
0010
0000
1000
0000
0000
0000
0001
0000
0000
0000
0000
0000
1000
0000
0000
0000
0000
0002
0000
0000
0000
0000
0000
0003
0000
0000
0000
0000
0000
0000
0101
0000
0000
0000
0000
0000
1010
0000
0000
0000
0000
0000
2002
0000
,  // measure 23
0000
0000
0000
0000
0000
0000
0000
0000
0000
0000
0000
3003
,  // measure 24
0001
0100
0001
0100
0001
0100
0001
0100
0001
0100
0001
0100
0001
0000
0000
2000
0000
3000
0200
0000
0300
0020
0000
0031
,  // measure 25
1000
0000
0100
0010
0000
0100
1000
0000
0000
0001
0000
0000
0200
0000
0000
0300
0000
0001
1000
0000
0010
0100
0000
0001
,  // measure 26
1000
0000
0001
0010
0000
0100
1000
0000
0000
0001
0000
0000
0200
0000
0000
0300
0000
0020
0000
0030
1000
0001
0000
0100
,  // measure 27
0001
0000
0000
0000
0000
1000
0100
0000
0000
0000
0000
0010
0100
0000
1000
0001
0000
0020
0000
0000
0130
1000
0000
0001
,  // measure 28
0100
0000
0000
0000
0000
0000
0001
0000
0000
1000
0000
0000
0001
0000
0000
1000
0000
0000
0000
0000
0000
0000
0000
0000
0000
0000
0000
0000
1001
0000
0000
0000
0000
0000
0110
0000
0000
0000
0000
0000
1001
0000
0000
0000
0000
0000
0001
0000
,  // measure 29
1000
0000
0000
0000
1000
0000
0100
0000
0000
0000
0100
0000
0010
0000
0000
0001
0000
0000
0020
0000
0000
0000
0000
0000
0031
0000
0000
0010
0000
0000
0100
0000
0000
1000
0000
0000
0100
0000
0000
0010
0000
0000
0001
0000
0000
0010
0000
0000
,  // measure 30
0100
0000
0010
0001
0000
1000
0010
0000
0000
0100
0000
0000
0002
0000
0000
0003
0000
2000
0000
3000
0001
0100
0000
0010
,  // measure 31
1000
0000
0000
0000
0000
0001
0010
0000
0000
0000
0000
0001
1000
0000
0100
0010
0000
0002
0000
0003
0010
0100
0000
1000
,  // measure 32
0001
0000
1000
0010
0000
0100
0001
0000
1000
0001
0000
1000
0100
0000
0010
0001
0000
1000
0010
0000
0100
0010
0000
1000
,  // measure 33
0002
0000
0000
0000
0000
0000
0000
0000
0000
0203
0000
0000
0000
0000
0000
0000
0000
0000
0310
0000
0000
1000
0000
0001
,  // measure 34
0100
0000
0100
0010
0000
0010
1000
0000
1000
0001
0000
0001
1000
0000
1000
0100
0000
0100
0010
0000
0010
0001
0000
0001
,  // measure 35
1000
0000
1000
0010
0000
0010
0100
0000
0100
0001
0000
0001
1000
0000
1000
0100
0000
0100
0010
0000
0010
0001
0000
0001
,  // measure 36
0020
0000
0000
0031
0000
0001
1000
0000
1000
0200
0000
0000
1300
0000
1000
0100
0000
0100
0010
0000
0020
0000
0000
0000
,  // measure 37
0031
0000
0000
0000
0001
0000
1000
0000
0000
0000
1000
0000
0001
0000
0000
0000
0002
0000
0000
0000
0000
0000
0000
0000
0003
0000
0000
0000
1010
0000
0000
0000
0000
0000
0110
0000
0000
0000
0000
0202
0000
0000
0000
0000
0303
0000
0001
0000
,  // measure 38
0100
0000
0100
0010
0000
0010
1000
0000
1000
0000
0000
2002
0000
0000
0000
3003
0000
0001
0100
0000
0100
0001
0000
0001
,  // measure 39
1000
0000
2000
0000
3000
0001
0100
0000
0100
0001
0000
0001
1000
0000
1000
0100
0000
0100
1000
0000
1000
0001
0000
0001
,  // measure 40
0200
0000
0000
0301
0000
1000
0010
0000
1000
0001
0000
1000
0001
1000
0001
1000
0001
1000
0001
1000
0001
1000
0002
2000
,  // measure 41
0000
3003
1000
0100
0000
0000
1000
0000
0000
0001
0000
0000
0200
0000
0000
0000
0000
0310
0000
0000
1010
0000
0000
0202
,  // measure 42
0000
0303
0001
1000
0000
0000
0010
0000
0000
0100
0000
0000
0002
0000
0000
0000
0000
1003
0000
0000
0000
0000
0000
0022
,  // measure 43
0000
0033
0001
0010
0000
0000
0100
0000
0000
1000
0000
0000
0002
0000
0000
0000
0000
0103
0000
0000
0000
0000
0000
0220
,  // measure 44
0000
0330
0100
0010
0000
0000
1000
0000
0000
0000
0000
0000
0001
0000
0000
0000
0000
0000
1000
0000
0000
0000
0000
2002
,  // measure 45
0000
0000
0000
0000
0000
0000
0000
0000
0000
0000
0000
0000
0000
0000
0000
0000
3003
0000
0001
0010
0001
0010
0001
0010
,  // measure 46
0001
1000
0001
1000
0001
1000
0001
0100
0001
0100
0001
0100
0002
0000
0000
0003
0000
1000
0010
0000
0100
0010
0000
1000
,  // measure 47
0002
0003
0000
1000
0001
1000
0001
1000
0001
0100
0001
0100
0001
0100
0001
0100
0001
0100
0002
0000
0000
0003
0000
0000
;

//---------------dance-single - Dossar----------------
#NOTES:
     dance-single:
     Dossar:
     Medium:
     6:
     0.451,0.428,0.374,0.390,0.129:
0000
0000
0000
0000
,
0000
0000
0000
0000
,
1000
0000
0000
0001
0000
0000
0100
0000
0000
0010
0000
0000
2000
0000
0000
0000
0000
3002
0000
0000
0000
0003
0000
0000
,
0100
0000
0000
0010
0000
0000
0100
0000
0000
0000
0000
1001
0000
0000
0000
0000
0000
0000
0000
0000
0000
0000
0000
0000
,
1000
1000
0100
0000
1000
0100
1000
0001
,
0100
0010
1000
0001
0100
0000
0010
0000
,
1000
0001
0010
0001
1000
0100
0010
0001
,
1000
0000
0000
0010
0000
0000
0100
0000
0000
0001
0000
0000
1000
0000
0000
0000
0000
1001
0000
0000
1001
0000
0000
1001
,
0000
0001
0100
0010
1000
0001
0010
0100
,
0010
0011
0011
0011
1001
0000
0000
0000
,
0001
0100
0010
1000
0002
0003
1000
0010
,
0100
0000
0000
0001
0000
0000
1000
0000
0000
0100
0000
0000
0020
0000
0000
0030
0000
0002
0000
0003
0000
1000
0000
0000
,
0100
0000
1001
0000
0001
0010
0100
0010
,
0001
0000
0000
1000
0000
0000
0010
0000
0000
0100
0000
0000
0001
0000
0000
2000
0000
3000
0002
0000
0003
0100
0000
0000
,
0010
1000
0001
1000
0200
0300
1000
0100
,
1000
0000
0000
0001
0000
0000
0100
0000
0000
0010
0000
0000
2000
0000
0000
3000
0000
0002
0000
0003
0000
1000
0000
0000
,
0001
0000
0101
0000
0100
0001
1000
0010
,
0100
0000
0000
0110
0000
0000
0000
0000
0101
0000
0000
0000
1001
0000
0000
0000
0000
2002
0000
0000
0000
3003
0000
0000
,
0001
0100
0010
1000
0100
0010
0001
0001
,
0100
0010
1000
0001
1000
0000
0100
0000
,
1000
0001
0100
0100
0001
1000
0001
0100
,
0010
0000
0000
1000
0000
0000
0100
0000
0000
1000
0000
0000
0001
0000
0000
0000
0000
1001
0000
0000
1001
0000
0000
2002
,
0000
0000
0000
0000
0000
0000
0000
0000
0000
0000
0000
3003
,
0101
0101
0101
0101
1001
0000
0000
0000
,
0001
1000
0100
0010
0002
0003
1000
0010
,
0100
0000
0000
0001
0000
0000
0010
0000
0000
0100
0000
0000
2000
0000
0000
3000
0000
0002
0000
0003
0000
0100
0000
0000
,
0010
0000
0101
0000
0100
0001
1000
0100
,
0010
0000
0000
0001
0000
0000
0001
0000
0000
0000
0000
0000
0000
0000
1001
0000
0000
1001
0000
0000
1001
0000
0000
1001
,
0000
1000
0100
1000
0001
0000
0100
0001
,
1000
0000
0000
0010
0000
0000
0100
0000
0000
0001
0000
0000
0020
0000
0000
0030
0000
0200
0000
0300
0000
1000
0000
0000
,
0010
0000
1010
0000
1000
0001
0100
0010
,
1000
0001
0100
0010
1000
0100
1000
0001
,
0200
0000
0000
0302
0000
0000
1003
0001
,
0010
0100
1000
0100
0010
0100
1000
0010
,
0100
0010
1000
0010
0100
0001
0010
0001
,
2000
3001
0100
0020
1030
0100
0020
0000
,
0031
0000
0000
0000
0000
0000
1000
0000
0000
0000
0000
0000
0002
0000
0000
0000
0000
0000
0000
0000
0000
0000
0000
0000
0003
0000
0000
0000
1001
0000
0000
0000
0000
0000
1001
0000
0000
0000
0000
2002
0000
0000
0000
0000
3003
0000
0000
0000
,
1000
0000
0000
0010
0000
0000
1000
0000
0000
0000
0000
2002
0000
0000
0000
3003
0000
0000
0001
0000
0000
0001
0000
0000
,
2000
0000
0000
0000
3000
0000
0001
0000
0000
0100
0000
0000
0001
0000
0000
1000
0000
0000
0100
0000
0000
0010
0000
0000
,
0002
0000
0000
1003
0000
0000
0010
0000
0000
0100
0000
0000
0001
0000
0000
0001
0000
0000
0001
0000
0000
0001
0000
2002
,
0000
3003
0000
1000
0000
0000
0001
0000
0000
1000
0000
0000
0200
0000
0000
0000
0000
1300
0000
0000
1001
0000
0000
0202
,
0000
0303
0000
0100
0000
0000
0010
0000
0000
1000
0000
0000
0002
0000
0000
0000
0000
1003
0000
0000
0000
0000
0000
2020
,
0000
3030
0000
0010
0000
0000
1000
0000
0000
0001
0000
0000
0200
0000
0000
0000
0000
0310
0000
0000
0000
0000
0000
0220
,
0000
0330
0000
0010
0000
0000
1000
0000
0000
0000
0000
0000
0001
0000
0000
0000
0000
0000
1000
0000
0000
0000
0000
2002
,
0000
0000
0000
0000
0000
0000
0000
0000
0000
0000
0000
0000
0000
0000
0000
0000
3003
0000
0001
0000
0000
0001
0000
0000
,
0100
0100
0010
0010
2000
3000
0001
0100
,
1001
1001
0101
0101
1001
1001
0202
0303
;

//---------------dance-single - Dossar----------------
#NOTES:
     dance-single:
     Dossar:
     Easy:
     4:
     0.256,0.273,0.150,0.058,0.029:
0000
0000
0000
0000
,
0000
0000
0000
0000
,
1000
0001
1000
0001
,
1001
0000
0000
0000
0000
0000
1001
0000
0000
0000
0000
1001
0000
0000
0000
0000
0000
0000
0000
0000
0000
0000
0000
0000
,
0001
0100
0010
1000
,
0001
0100
0001
0000
,
1000
0100
1000
0001
,
0100
0000
0000
0000
0000
0000
0001
0000
0000
0000
0000
0000
1001
0000
0000
0000
0000
0001
0000
0000
1000
0000
0000
0001
,
0000
1000
0010
0100
,
0001
1000
0001
1000
0001
0000
0000
0000
,
0001
0100
0010
1000
,
0001
0000
1000
0000
0100
0000
0010
0001
,
1000
1001
0001
0100
,
0010
1000
0001
0100
,
0001
1000
0100
1000
,
0001
0000
0100
0000
0010
0000
1000
0001
,
0100
0110
0010
1000
,
0001
0100
0010
1000
,
0001
0010
0100
0010
,
0001
1000
0001
0000
,
1000
0001
0100
0010
,
1000
0000
0000
0000
0000
0000
0001
0000
0000
0000
0000
0000
1000
0000
0000
0000
0000
0001
0000
0000
0100
0000
0000
0002
,
0000
0000
0000
0000
0000
0000
0000
0000
0000
0000
0000
0003
,
1000
0001
1000
0001
1000
0000
0000
0000
,
0001
0100
0010
1000
,
0100
0000
0010
0000
0100
0000
1000
0001
,
0100
0101
0001
1000
,
0010
0100
0001
1000
,
0001
0100
0001
1000
,
0100
0000
1000
0000
0001
0000
0100
0010
,
1000
1010
0010
0100
,
0001
1000
0001
0100
,
0002
0000
0000
2003
0000
0000
3001
0001
,
0001
0000
0100
0100
0100
0000
0010
0010
,
0010
0000
1000
1000
1000
0000
0001
0001
,
0001
0000
1000
1000
1000
0000
0001
0001
,
0001
0000
0100
0100
0100
0000
0010
0010
,
0010
0000
1000
1000
1000
0000
0001
0001
,
0001
0000
0100
0100
0100
0000
0001
0001
,
0001
0000
1000
1000
1000
0000
0001
0001
,
0001
1000
1100
1001
,
0001
0100
0101
1001
,
1000
0010
0110
0101
,
0001
1000
1001
0101
,
2002
0000
0000
0000
0000
0000
0000
0000
3003
1000
0000
0000
,
0001
0100
0010
1000
,
2002
0000
0000
0000
0000
0000
0000
3003
;

//---------------dance-single - Dossar----------------
#NOTES:
     dance-single:
     Dossar:
     Beginner:
     1:
     0.107,0.153,0.050,0.000,0.000:
0000
0000
0000
0000
,
0000
0000
0000
0000
,
1000
0000
1000
0000
,
1001
0000
0000
0000
,
0001
0000
0001
0000
,
0100
0000
0100
0000
,
0010
0000
0010
0000
,
1000
0000
1000
0000
,
0000
0000
0001
0000
,
0001
0000
1001
0000
,
1000
0000
1000
0000
,
0010
0000
0010
0000
,
0100
0000
0100
0000
,
0100
0000
0000
0000
,
0001
0000
0001
0000
,
1000
0000
1000
0000
,
0010
0000
0010
0000
,
0010
0000
0000
0000
,
0100
0000
0100
0000
,
0001
0000
0001
0000
,
1000
0000
1000
0000
,
0001
0000
0001
0000
,
0000
0000
0000
0000
,
1001
1001
1001
0000
,
0001
0000
0001
0000
,
1000
0000
1000
0000
,
0010
0000
0010
0000
,
0010
0000
0000
0000
,
1000
0000
1000
0000
,
0001
0000
0001
0000
,
0100
0000
0100
0000
,
0100
0000
0000
0000
,
0001
0000
0001
0000
,
1000
0000
1000
0000
,
0001
0000
0001
0000
,
1000
0000
1000
0000
,
0010
0000
0010
0000
,
0100
0000
0100
0000
,
0010
0000
0010
0000
,
0100
0000
0100
0000
,
0001
0001
0001
0000
,
1000
1000
1000
0000
,
0001
0001
0001
0000
,
1000
1000
1000
0000
,
1001
0000
0000
0000
,
0001
0000
0000
0000
,
0001
0000
0000
0000
;
