#TITLE:MY SONGS KNOW WHAT YOU DID IN THE DARK;
#SUBTITLE:(LIGHT 'EM UP);
#ARTIST:FALL OUT BOY;
#TITLETRANSLIT:;
#SUBTITLETRANSLIT:;
#ARTISTTRANSLIT:;
#CREDIT:;
#BANNER:[Male Vocalists] - My Songs Know What You Did In The Dark (LIGHT 'EM UP).png;
#BACKGROUND:[Male Vocalists] - My Songs Know What You Did In The Dark (LIGHT 'EM UP)-bg.png;
#LYRICSPATH:;
#CDTITLE:cdtitle.png;
#MUSIC:[Male Vocalists] - My Songs Know What You Did In The Dark (Light 'Em Up).mp3;
#OFFSET:-0.040;
#SAMPLESTART:95.613;
#SAMPLELENGTH:17.900;
#SELECTABLE:YES;
#DISPLAYBPM:152.000;
#BPMS:0.000=152.000,52.000=304.000,54.000=152.000,60.000=303.999,62.000=152.000,84.000=303.999,86.000=152.000,92.000=304.000,94.000=152.000;
#STOPS:52.000=0.196
,53.000=0.196
,60.000=0.196
,61.000=0.196
,84.000=0.196
,85.000=0.196
,92.000=0.196
,93.000=0.196
,241.000=0.780
;
#BGCHANGES:8.000=[Male Vocalists] - My Songs Know What You Did In The Dark (LIGHT 'EM UP).avi=1.000=1=0=0,
99999=-nosongbg-=1.000=0=0=0 // don't automatically add -songbackground-
;

//---------------dance-single - ----------------
#NOTES:
     dance-single:
     :
     Beginner:
     2:
     0.155,0.216,0.023,0.000,0.000:
0000
0000
0000
0000
,
0000
0000
0000
0000
,
0000
0000
0000
0000
,
0000
0000
0000
0000
,
1000
0000
0001
0000
,
0100
0000
0100
0000
,
0010
0000
1000
0000
,
0001
0000
0000
0000
,
1000
0000
0100
0000
,
0010
0000
0010
0000
,
0001
0000
0100
0000
,
0001
0000
0000
0000
,
1000
0000
0001
0000
,
0100
0000
0000
0000
,
0010
0000
1000
0000
,
0001
0000
0000
0000
,
0010
0000
0100
0000
,
1000
0000
1000
0000
,
0010
0000
1000
0000
,
0001
0000
0000
0000
,
0100
0000
0001
0000
,
1000
0000
0000
0000
,
0010
0000
1000
0000
,
0100
0000
0000
0000
,
0010
0000
0001
0000
,
1000
0000
1000
0000
,
0010
0000
0100
0000
,
0001
0000
0000
0000
,
1001
0000
0000
0000
,
0100
0000
0000
0000
,
0110
0000
0000
0000
,
0010
0000
0000
0000
,
0010
0010
0010
0000
,
0010
0010
0010
0000
,
0010
0010
0010
0000
,
0000
0000
0000
0000
,
0010
0010
0010
0000
,
0010
0010
0010
0000
,
0010
0010
0010
0000
,
0000
0000
0000
0000
,
1000
0000
0001
0000
,
0100
0000
0001
0000
,
1000
0000
0100
0000
,
0000
0010
0010
0000
,
0001
0000
1000
0000
,
0100
0000
0100
0000
,
1000
0000
0001
0000
,
0000
0100
0100
0000
,
0001
0000
0001
0000
,
0001
0001
0001
0000
,
1000
0000
1000
0000
,
1000
1000
1000
0000
,
0010
0000
1000
0000
,
0100
0000
0010
0000
,
0001
0000
0000
0000
,
1000
0000
0000
0000
,
0010
0000
0100
0000
,
0001
0000
1000
0000
,
0100
0000
0100
0000
,
0010
0000
0000
0000
,
0000
1001
0000
0000
,
0000
0000
0010
0010
,
0010
0000
0010
0010
,
0010
0000
0000
0000
,
0000
0000
0010
0010
,
0010
0000
0010
0010
,
0010
0000
0010
0010
,
0010
0000
0000
0000
,
0000
0000
0001
0000
,
0001
0000
0100
0000
,
0100
0000
0010
0000
,
1000
0000
0000
0100
,
0100
0000
1000
0000
,
1000
0000
0100
0000
,
1000
0000
0001
0000
,
0001
0000
0000
0100
,
0100
0000
0010
0000
,
0000
0000
1000
0000
,
0000
0000
0001
0000
,
0000
0000
0010
0000
;

//---------------dance-single - ----------------
#NOTES:
     dance-single:
     :
     Medium:
     5:
     0.408,0.467,0.178,0.566,0.000:
0000
0000
0000
0000
,
0000
0000
0000
0000
,
0000
0000
0000
0000
,
0000
0000
0000
0000
,
0100
0001
1000
1000
,
0010
1000
0100
0100
,
0010
0001
1000
0010
,
0200
0000
0000
0300
,
0001
1000
0010
0010
,
1000
0001
1000
1000
,
0100
0010
0001
0001
,
2000
0000
0000
3000
,
0100
0000
0010
0001
0010
0000
0100
0000
,
1001
1001
0100
0010
,
1000
0100
1000
0000
0001
0100
0001
0000
,
0110
0110
1000
0001
,
0010
0000
0100
1000
0001
0000
0100
0000
,
0010
1000
0010
0100
,
0001
1000
0001
0000
1000
0100
1000
0000
,
0002
0003
0100
0001
,
2000
3200
0310
0001
,
1100
1100
0010
1000
,
0001
0000
0100
0000
0010
0100
0010
0000
,
1001
1001
0100
0001
,
1000
0100
1000
0000
0001
1000
0001
0000
,
0100
0100
0100
0000
0010
0010
0010
0000
,
1000
0100
0010
0001
,
1000
0000
0020
2030
,
3002
0000
0023
0230
,
2300
0000
3020
0230
,
0302
0000
1000
0000
,
1000
0000
1003
0000
,
0010
0000
0010
0000
0010
0000
0001
0100
,
0010
0000
0010
0000
0010
0000
1000
0100
,
0010
0000
0010
0000
0010
0000
0000
1001
,
0000
2002
0000
0000
0000
0000
3003
0000
,
0100
0000
0100
0000
0100
0000
1000
0001
,
0100
0000
0100
0000
0100
0000
0010
1000
,
0100
0000
0100
0000
0100
0000
0000
1001
,
0000
2002
0000
0000
0000
0000
3003
0000
,
0020
0000
0000
2030
0000
0000
3100
0000
,
0020
0000
0000
0031
0000
0000
0100
0000
,
0002
0000
0000
2003
0000
0000
3010
0010
,
0000
0000
1000
0001
0100
0000
1001
0000
,
0200
0000
0000
0302
0000
0000
0013
0000
,
0200
0000
0000
1300
0000
0000
0010
0000
,
2000
0000
0000
3002
0000
0000
0103
0100
,
0000
0000
0001
1000
0010
0000
1001
0000
,
0210
0000
0010
0000
,
0010
0000
0310
0000
,
0120
0000
0100
0000
,
0100
0000
0230
0302
,
2003
0000
3200
2300
,
3002
0000
0203
0302
,
2003
0000
0100
0000
,
0100
0000
0100
0100
,
3200
0000
0320
0032
,
2003
0000
3020
2030
,
3002
0000
1000
0000
,
1000
0000
1003
0000
,
0010
0100
1001
0000
0010
1000
0010
1000
,
0020
0000
0030
0000
1000
0001
1000
0001
,
2000
0000
3000
0000
0001
0100
0001
0100
,
0002
0000
0003
0110
0000
0220
0000
0000
,
0000
0000
0330
0000
1000
0100
1000
0100
,
2000
0000
3000
0000
0001
1000
0001
1000
,
0002
0000
0003
0000
0100
0010
0100
0010
,
0200
0000
0300
1001
0000
2002
0000
0000
,
0000
0000
3003
0000
0020
0000
0000
2030
,
0000
0000
3100
0000
2000
0000
0000
3001
,
0000
0000
0100
0000
0002
0000
0000
0023
,
0000
0000
0100
0130
0000
0000
1000
0100
,
0001
0000
1100
0000
0002
0000
0000
0203
,
0000
0000
0310
0000
2000
0000
0000
3100
,
0000
0000
1000
0000
0002
0000
0000
2003
,
0000
0000
0100
3100
0000
0000
1000
0100
,
0010
0000
1001
0000
0200
0000
0000
0302
,
0000
0000
2003
0000
3200
0000
0000
1300
,
0000
0000
0010
0000
2000
0000
0000
3200
,
0000
0000
0310
0020
0000
0000
0000
0000
,
0000
0030
0000
0000
;

//---------------dance-single - ----------------
#NOTES:
     dance-single:
     :
     Hard:
     8:
     0.577,0.622,0.295,0.473,0.008: // measure 1
0000
0000
0000
0000
,  // measure 2
0000
0000
0000
0000
,  // measure 3
0000
0000
0000
0000
,  // measure 4
0000
0000
0000
0000
,  // measure 5
0001
0000
0010
0100
0010
0000
0001
0000
,  // measure 6
1000
0100
1000
0000
0001
0100
0010
0000
,  // measure 7
0100
0000
0001
1000
0001
0000
0010
0000
,  // measure 8
0100
1000
0100
0000
1000
0010
0100
0000
,  // measure 9
0001
0010
1000
0010
0001
0000
1000
0000
,  // measure 10
0010
0100
0001
0000
0010
0100
1000
0000
,  // measure 11
0010
1000
0100
1000
0001
0000
0100
0000
,  // measure 12
0010
0100
0001
0000
0010
0100
1000
0010
,  // measure 13
0100
0001
0010
0100
0100
0010
0001
1000
,  // measure 14
0110
0000
1001
0000
0100
1000
0100
0000
,  // measure 15
0001
0010
1000
0000
0010
0001
0100
0010
,  // measure 16
1010
0000
1001
0000
0100
0001
1000
0000
,  // measure 17
0010
1000
0100
1000
0001
0000
0100
0010
,  // measure 18
2000
0000
3010
2000
0001
3000
1000
0000
,  // measure 19
0100
0010
0001
0000
0100
0010
0100
0001
,  // measure 20
2000
0000
3010
0000
0001
0010
1000
0010
,  // measure 21
0001
0000
1000
0100
0100
0000
1000
0001
,  // measure 22
0101
0000
0110
0000
1000
0100
0010
0001
,  // measure 23
1000
0010
1000
0001
0100
0010
0100
0001
,  // measure 24
1001
0000
0110
0000
0001
0100
0010
1000
,  // measure 25
0100
0010
0001
0010
0100
1000
0010
0000
,  // measure 26
1000
0100
0001
0000
0001
0100
1000
0000
,  // measure 27
1000
0010
0001
0010
1000
0100
0010
0001
,  // measure 28
2000
0000
3010
0010
0200
0000
0302
0000
,  // measure 29
2003
3002
0023
0230
,  // measure 30
2300
0000
3002
0000
0203
0000
0310
1000
,  // measure 31
0200
0000
0310
0001
2000
0000
3010
1000
,  // measure 32
0002
0000
0013
0100
2000
0000
3000
0000
,  // measure 33
0110
0000
1001
0000
0100
0001
1000
0000
,  // measure 34
1100
0000
0101
0000
0010
0001
1000
0000
,  // measure 35
1001
0000
0110
0000
1000
0100
0010
0002
,  // measure 36
0000
0200
0000
0000
0000
0000
0303
0000
,  // measure 37
0110
0000
0101
0000
1000
0001
0100
0000
,  // measure 38
1010
0000
1100
0000
0010
0100
1000
0000
,  // measure 39
0110
0000
0011
0000
1000
0001
0100
0020
,  // measure 40
0000
2000
0000
0000
0000
0000
3030
0000
,  // measure 41
1000
0000
1000
0100
0000
0100
0001
0100
,  // measure 42
1000
0000
1000
0010
0000
0010
0001
0010
,  // measure 43
0100
0000
0100
0001
0000
0001
0010
0100
,  // measure 44
1000
0000
0100
0010
0110
0000
1100
0000
,  // measure 45
0001
0000
0001
0010
0000
0010
1000
0010
,  // measure 46
0001
0000
0001
0100
0000
0100
1000
0100
,  // measure 47
0010
0000
0010
1000
0000
1000
0100
0010
,  // measure 48
0001
0000
0010
0100
0110
0000
1001
0000
,  // measure 49
0200
0000
0000
0010
0010
0000
0010
0000
,  // measure 50
0000
0001
0001
0000
0301
0000
0010
0000
,  // measure 51
0020
0000
0000
0100
0100
0000
0100
0000
,  // measure 52
0000
0001
0001
0000
0032
0000
2003
0000
,  // measure 53
3020
0032
0023
2030
,  // measure 54
3200
0000
0320
0000
0032
0000
0103
0001
,  // measure 55
2000
0000
3010
1000
0200
0000
0310
0001
,  // measure 56
2000
0000
3010
0100
0002
0000
0023
0000
,  // measure 57
2030
3002
0203
2300
,  // measure 58
3020
0000
0032
0000
0023
0000
0130
0001
,  // measure 59
2000
0000
3010
1000
0002
0000
0013
0100
,  // measure 60
2000
0000
3010
0100
0002
0000
2003
0000
,  // measure 61
3010
0100
0001
1000
0020
0030
0000
0000
0101
0000
0000
0000
1001
0000
0000
0000
,  // measure 62
1010
1000
0100
0000
1100
0000
1001
0000
,  // measure 63
0101
0100
0010
0000
1001
0000
0011
0000
,  // measure 64
1100
1000
0001
0100
0010
0200
0002
0000
,  // measure 65
0000
0300
1003
0000
0010
0100
0010
0100
,  // measure 66
0001
0101
0000
0000
0010
0001
0010
0001
,  // measure 67
1000
1001
0000
0000
0100
1000
0100
1000
,  // measure 68
0010
1010
0100
0001
2000
0200
0000
3000
,  // measure 69
0310
0000
0001
0000
1000
0100
0010
0001
,  // measure 70
0100
0010
1000
0010
0100
0001
0010
1000
,  // measure 71
0010
0001
1000
0010
0100
0001
1000
0010
,  // measure 72
0100
0001
0001
0002
0000
0000
0103
0010
,  // measure 73
2001
0000
3020
0000
0130
0001
1000
0100
,  // measure 74
1000
0001
0010
1000
0001
0100
1000
0010
,  // measure 75
0100
0001
1000
0100
1000
0100
0010
0001
,  // measure 76
0100
0010
0010
0020
0000
0000
1030
0100
,  // measure 77
2010
0000
3002
0000
0103
0000
0000
0001
,  // measure 78
0000
0000
0010
0100
1000
0000
0000
0010
,  // measure 79
0000
0000
1000
0001
0100
0000
0000
0010
,  // measure 80
0000
0100
0001
2000
0000
0000
0000
0000
,  // measure 81
0000
3000
0000
0000
;

//---------------dance-single - ----------------
#NOTES:
     dance-single:
     :
     Easy:
     3:
     0.276,0.373,0.078,0.271,0.000:
0000
0000
0000
0000
,
0000
0000
0000
0000
,
0000
0000
0000
0000
,
0000
0000
0000
0000
,
0100
0001
1000
0000
,
0010
1000
0001
0000
,
0010
0100
1000
0002
,
0200
0000
0000
0303
,
0010
0100
0001
0000
,
0010
0001
1000
0000
,
0100
1000
0010
0200
,
0020
0000
0000
0330
,
1000
0100
0001
0000
,
1001
1001
0000
0000
,
0001
0100
1000
0000
,
1001
1001
0000
0000
,
1000
0100
0001
0000
,
0010
0001
0100
0000
,
0010
1000
0100
0000
,
1000
0000
0001
0000
,
0100
0001
1000
0000
,
1001
1001
0000
0000
,
0010
1000
0100
0000
,
1001
1001
0000
0000
,
0100
0001
1000
0000
,
0100
0000
0001
0000
,
0010
0001
0100
0010
,
1000
0000
0001
0000
,
2000
0000
3002
0000
,
0203
0000
0320
0000
,
2030
0000
0000
0000
,
0002
0000
0000
3003
,
0010
0010
0010
0000
,
0010
0010
0010
0000
,
0010
0010
0010
0000
,
2000
0002
0000
3003
,
0010
0010
0010
0000
,
0010
0010
0010
0000
,
0010
0010
0010
0000
,
0002
2000
0000
3003
,
0100
1000
0100
1000
,
0001
1000
0001
0000
,
0100
0001
0100
0001
,
0000
0000
0100
0100
0100
0000
0000
0000
,
0010
1000
0010
1000
,
0001
1000
0001
0000
,
0010
0100
0010
0100
,
0000
0000
0001
0001
0001
0000
0000
0000
,
1000
0000
1000
0000
,
1000
0001
1000
0000
,
1000
0000
1000
0000
,
1000
0001
1000
0000
,
0020
0000
0230
0000
,
0302
0000
2003
0000
,
0200
0000
0000
0000
,
3300
0000
0010
0000
,
2000
0000
3002
0000
,
0023
0000
0032
0000
,
0200
0000
0000
0000
,
0000
0000
0000
0000
0000
0303
0000
0000
,
0110
1001
0010
0010
,
0020
1030
0010
0010
,
0020
0130
0010
0010
,
0020
0030
2000
0002
,
0000
3003
0010
0010
,
0020
0031
0010
0010
,
0020
0130
0010
0010
,
0020
0030
0002
2000
,
0000
3003
0100
0001
,
0100
0001
1000
0001
,
1000
0000
0010
1000
,
0010
0000
1000
0000
0000
0000
0100
0100
,
0100
0000
1000
0001
,
1000
0001
0100
0001
,
0100
0000
0010
0100
,
0010
0000
0100
0000
0000
0000
0001
0001
,
0001
0000
1000
0000
,
0100
0000
0001
0000
,
0001
0000
0010
0000
,
1000
0000
0200
0000
,
0000
0300
0000
0000
;
