#TITLE:MANGA SUPER ROBOT;
#SUBTITLE:;
#ARTIST:BABBY ONE;
#TITLETRANSLIT:;
#SUBTITLETRANSLIT:;
#ARTISTTRANSLIT:;
#CREDIT:Lisek;
#BANNER:[Male Vocalists] - MANGA SUPER ROBOT.png;
#BACKGROUND:[Male Vocalists] - MANGA SUPER ROBOT-bg.png;
#LYRICSPATH:;
#CDTITLE:cdtitle.png;
#MUSIC:[Male Vocalists] - MANGA SUPER ROBOT.ogg;
#OFFSET:-0.124;
#SAMPLESTART:59.999;
#SAMPLELENGTH:12.500;
#SELECTABLE:YES;
#BPMS:0.000=158.083;
#STOPS:;
#BGCHANGES:;

//---------------dance-single - Lisek----------------
#NOTES:
     dance-single:
     Lisek:
     Challenge:
     11:
     0.817,0.874,0.375,0.091,0.710:
0000
0000
0000
0000
,
0000
0000
0000
0000
,
0000
1000
0000
1010
0000
0000
0000
0000
,
0000
0001
0000
0101
0000
0000
0000
0000
,
0001
0100
0010
1000
0000
0000
0000
0000
,
1000
0010
0100
0001
0000
0000
0000
0000
,
0000
1000
0000
1100
0000
0000
0000
0000
,
0000
0000
0000
0000
0000
0000
0000
0000
0001
0100
0010
1000
0100
0010
0001
1000
,
0001
0100
0010
0100
0000
0001
0010
0000
,
0100
1000
0010
0100
0000
0010
1000
0000
,
0001
0100
0000
0101
0000
0000
0010
0000
,
1000
0100
0000
1100
0000
0000
1000
0000
,
0001
0100
1000
0100
0000
0010
0100
0000
,
0010
1000
0100
0001
0000
0100
1000
0000
,
0001
0100
0000
0101
0000
0000
0001
0000
,
1000
0100
0010
0001
0010
0100
1000
0010
0100
0001
0100
0010
1000
0010
0100
0001
,
1000
0000
0010
0100
0000
0100
0001
0000
0010
0100
1000
0010
0100
0001
0010
0100
,
1000
0000
0001
0010
0000
0010
0100
0000
1000
0100
0010
0001
0100
0001
0100
0010
,
1000
0000
0001
0100
0000
0100
0010
0000
1000
0001
0010
0100
1000
0001
0100
0010
,
1000
0000
0010
0100
0000
0100
0001
0000
0001
0010
0000
0010
0100
1000
0001
0010
,
0100
0000
0010
0001
0000
0001
0100
0000
0010
1000
0100
0010
0100
1000
0001
0100
,
0010
0000
0100
0010
0000
0010
1000
0000
0100
0010
0001
0100
0010
0100
0001
0010
,
0001
0000
0100
0010
0000
0010
1000
0000
1000
0001
0000
0001
0100
0010
1000
0000
,
1010
0000
0000
0110
0000
0000
0101
0000
0000
0110
0000
0000
1010
0000
1001
0000
,
0001
0000
0010
0000
0001
0000
0100
0010
0000
1000
0010
0000
0100
0000
0001
0000
,
1000
0000
0100
0000
1000
0000
0010
0100
0000
0010
1000
0000
0100
0000
1000
0000
,
1001
0001
0100
0010
0100
0001
1000
0100
,
1000
0100
1000
0001
0100
0010
0100
0001
1000
0100
0010
0001
0010
0100
1000
0001
,
1000
0000
0010
0000
1000
0000
0010
0100
0000
0010
1000
0000
0001
0000
0100
0000
,
0001
0000
0010
0000
0001
0000
0010
0000
0100
0000
1000
0000
0010
0000
0100
0010
,
0000
0000
1000
0000
0010
0000
0100
0001
0000
0000
0100
0000
0010
0000
1000
0000
,
1100
1010
0110
0101
0000
0000
0000
0000
,
0001
0100
1000
0100
0001
0010
0100
1000
,
0001
0000
0010
0000
1000
0000
0010
0000
0001
0000
0100
0000
0010
1000
0001
0100
,
0001
1000
0100
1000
0001
0100
0010
1000
,
0001
0010
0100
1000
0100
0010
0001
0100
0010
1000
0100
0010
0001
0010
0100
1000
,
0001
0100
0010
1000
0000
0100
0010
0001
,
1000
0010
0000
0100
0000
0000
0002
0000
,
1003
0010
1000
0000
0000
0000
0001
0010
0001
0000
0000
0000
1000
0100
1000
0000
,
0001
0101
0000
1010
0000
1001
0000
0000
,
0002
0100
1000
0200
0000
0010
0313
0000
,
2000
0010
0001
0020
0000
0100
3130
0000
,
1000
0001
0100
0010
0000
0100
0001
0000
,
0101
1100
0101
1100
,
1000
0010
0001
1000
0100
0001
0010
1000
,
0001
0100
1000
0010
0001
1000
0100
0001
,
0010
1000
0001
0100
1000
0010
0001
0010
,
1000
0100
1000
0001
0100
0010
1000
0100
0010
0001
0010
0100
1000
0001
0100
0010
,
2000
0001
0100
0002
0000
0100
3103
0000
,
0002
1000
0100
2000
0000
0010
3013
0000
,
1000
0001
0100
0010
0000
0100
0001
0000
,
0101
1100
0101
1100
,
0001
0010
1000
0001
0100
1000
0010
0001
,
1000
0100
0001
0010
1000
0001
0100
1000
,
1001
0000
0010
0010
0000
0100
0001
1001
,
0000
0000
1001
0000
1000
0001
1000
0000
0001
0100
0010
1000
0100
0010
0001
0010
,
0100
0000
1000
0001
0000
0001
0010
0000
0100
1000
0010
0100
0010
1000
0001
0100
,
0010
0000
1000
0100
0000
0100
1000
0000
0001
0010
0100
0010
0001
0100
0010
1000
,
0001
0000
0100
0001
0000
0001
0010
0000
0001
0100
0010
1000
0100
0010
0001
0010
,
0100
0000
1000
0010
0000
0010
0100
0000
0100
0001
0000
0001
1000
0010
0100
0001
,
0010
0000
0001
0100
0000
0100
0010
0000
1000
0100
0010
0001
0010
0100
1000
0001
,
0100
0000
0010
1000
0000
1000
0001
0000
0100
0010
1000
0100
1000
0001
0100
0010
,
0100
0000
0001
0010
0000
0010
0100
0000
1000
0001
0100
0010
1000
0100
0010
0000
,
0011
0000
0000
0101
0000
0000
0110
0000
0000
1010
0000
0000
1001
0000
0110
0000
;

//---------------dance-single - Lisek----------------
#NOTES:
     dance-single:
     Lisek:
     Hard:
     9:
     0.575,0.647,0.182,0.152,0.172: // measure 1
0000
0000
0000
0000
,  // measure 2
0000
0000
0000
0000
,  // measure 3
0000
0000
0000
0000
,  // measure 4
0000
0000
0000
0000
,  // measure 5
1000
0100
0010
0001
0000
0000
0000
0000
,  // measure 6
0001
0010
0100
1000
0000
0000
0000
0000
,  // measure 7
0000
0001
0000
1001
0000
0000
0000
0000
,  // measure 8
0000
0000
0000
0000
,  // measure 9
1000
0100
1000
0010
0000
0100
0010
0000
,  // measure 10
1000
0001
0010
0001
0000
0100
0001
0000
,  // measure 11
1000
0010
0000
1010
0000
0000
0010
0000
,  // measure 12
0100
0001
0000
0101
0000
0000
0001
0000
,  // measure 13
1000
0100
1000
0001
0000
0100
0010
0000
,  // measure 14
0100
0001
0010
0001
0000
1000
0010
0000
,  // measure 15
1000
0010
0000
1010
0000
0000
0100
0000
,  // measure 16
2002
0000
0000
0000
0000
0000
0000
3003
,  // measure 17
1000
0000
0000
0100
0000
0000
0001
0000
0100
0000
1000
0000
0010
0000
1000
0000
,  // measure 18
0001
0000
0000
0100
0000
0000
1000
0000
0100
0000
0001
0000
0100
0000
0010
0000
,  // measure 19
1000
0000
0000
0100
0000
0000
0001
0000
0100
0000
1000
0000
0010
0000
1000
0000
,  // measure 20
0001
0000
0100
0010
0000
0010
1000
0000
0001
0100
0000
0100
0010
0000
1000
0000
,  // measure 21
0001
0000
0000
0010
0000
0000
1000
0000
0010
0000
0001
0000
0100
0000
0010
0000
,  // measure 22
1000
0000
0000
0010
0000
0000
0001
0000
0010
0000
1000
0000
0001
0000
0100
0000
,  // measure 23
0001
0000
0000
0010
0000
0000
1000
0000
0010
0000
0001
0000
1000
0000
0100
0000
,  // measure 24
1100
0000
0000
1001
0000
0000
1100
0000
0000
1001
0000
0000
1100
0000
1001
0000
,  // measure 25
0001
0000
0100
0000
0010
0000
1000
0100
0000
0000
1000
0000
0010
0000
0100
0000
,  // measure 26
0001
0000
0010
0000
0001
0000
0100
0010
0000
0000
1000
0000
0100
0000
1000
0010
,  // measure 27
0000
0000
0100
0000
0001
0000
0100
0010
0000
0000
0100
0000
0001
0000
1000
0000
,  // measure 28
0020
0000
0001
0000
0100
0000
1030
0001
,  // measure 29
0010
0000
0000
0000
0001
0000
0100
0010
0000
0000
1000
0000
0100
0000
1000
0000
,  // measure 30
0001
0000
0010
0000
0001
0000
0100
0000
0001
0000
0010
0000
0100
0000
1000
0100
,  // measure 31
0000
0000
0010
0000
0100
0000
1000
0100
0000
0000
0010
0000
0001
0000
0100
0000
,  // measure 32
0020
1000
0001
1030
0000
0000
0000
0000
,  // measure 33
1001
0000
0001
0100
0000
0010
1000
0100
,  // measure 34
0010
0001
0000
1000
0000
0000
0010
0000
,  // measure 35
1000
0100
0000
0010
0000
0001
0100
0010
,  // measure 36
1000
0100
0000
1000
0000
0000
0010
0000
,  // measure 37
0100
0000
0001
0010
0000
0100
1000
0001
,  // measure 38
0100
0010
0000
1000
0000
0000
0001
0000
,  // measure 39
1000
0010
1000
0000
0000
0000
0001
0100
0001
0000
0000
0000
1000
0001
1000
0000
,  // measure 40
0001
0100
0000
0001
0000
1000
0001
0100
,  // measure 41
0001
0010
0100
1000
0000
0010
0100
0001
,  // measure 42
1000
0100
1000
0010
0000
0100
0010
1000
,  // measure 43
0001
0100
0001
1000
0000
0001
0100
0000
,  // measure 44
0002
0203
2300
3020
,  // measure 45
0031
1000
0001
0100
0001
1000
0001
0100
,  // measure 46
0010
1000
0010
0100
0010
1000
0010
0100
,  // measure 47
0010
1000
0001
0100
0000
0001
1000
0010
,  // measure 48
0200
0001
1000
0310
,  // measure 49
1000
0010
0100
0001
0000
0010
0100
1000
,  // measure 50
0001
0100
0010
1000
0000
0100
0010
0001
,  // measure 51
1000
0010
1000
0001
0000
0100
0010
0000
,  // measure 52
2000
3020
0032
0203
,  // measure 53
1300
0001
1000
0100
1000
0001
1000
0100
,  // measure 54
0010
0001
0010
0100
0010
0001
0010
0100
,  // measure 55
1000
0100
0010
0100
1000
0001
0010
0002
,  // measure 56
0000
2000
0000
0000
0000
0000
0000
3003
,  // measure 57
0001
0000
0000
0100
0000
0000
1000
0000
0100
0000
0001
0000
1000
0000
0010
0000
,  // measure 58
1000
0000
0000
0100
0000
0000
0001
0000
0100
0000
1000
0000
0010
0000
0100
0000
,  // measure 59
0001
0000
0000
0010
0000
0000
1000
0000
0010
0000
0001
0000
0100
0000
0010
0000
,  // measure 60
1000
0000
0100
0010
0000
0010
0001
0000
0001
0100
0000
0100
0010
0000
1000
0000
,  // measure 61
0001
0000
0000
0010
0000
0000
1000
0000
0010
0000
0001
0000
0100
0000
0010
0000
,  // measure 62
1000
0000
0000
0010
0000
0000
0001
0000
0010
0000
1000
0000
0100
0000
0010
0000
,  // measure 63
0001
0000
0000
0100
0000
0000
1000
0000
0100
0000
0001
0000
1000
0000
0001
0000
,  // measure 64
1001
0000
0000
0101
0000
0000
1001
0000
0000
0101
0000
0000
1001
0000
0110
0000
;

//---------------dance-single - ----------------
#NOTES:
     dance-single:
     Lisek:
     Medium:
     5:
     0.324,0.421,0.030,0.203,0.000: // measure 1
0000
0000
0000
0000
,  // measure 2
0000
0000
0000
0000
,  // measure 3
0000
0000
0000
0000
,  // measure 4
0000
0000
0000
0000
,  // measure 5
1000
0001
0000
0000
,  // measure 6
0100
0010
0000
0000
,  // measure 7
0000
0000
0000
0000
,  // measure 8
0000
0000
0000
0000
,  // measure 9
1000
0100
1000
0000
,  // measure 10
0001
0010
0001
0000
,  // measure 11
1000
0010
1000
0000
,  // measure 12
0010
0100
0010
0000
,  // measure 13
1000
0100
1000
0000
,  // measure 14
0001
0010
0001
0000
,  // measure 15
1000
0001
1000
0000
,  // measure 16
0020
0000
0000
0000
,  // measure 17
1030
0100
0010
0001
,  // measure 18
1000
0010
0100
0001
,  // measure 19
1000
0100
1000
0001
,  // measure 20
0100
0010
0100
0001
,  // measure 21
1000
0100
0010
0001
,  // measure 22
1000
0010
0100
0001
,  // measure 23
1000
0100
1000
0001
,  // measure 24
2002
0000
0000
3003
,  // measure 25
1000
0001
0100
0010
,  // measure 26
1000
0100
0010
0100
,  // measure 27
1000
0001
0100
0010
,  // measure 28
0100
0001
1000
0001
,  // measure 29
0010
0001
1000
0010
,  // measure 30
1000
0100
1000
0010
,  // measure 31
0100
0001
1000
0001
,  // measure 32
1000
0001
1000
0001
0000
0000
0000
0000
,  // measure 33
1000
0010
0100
0010
,  // measure 34
1000
0001
0010
0001
,  // measure 35
0100
0010
1000
0100
,  // measure 36
1000
0001
1000
0000
,  // measure 37
0001
0010
0001
0100
,  // measure 38
0010
1000
0010
0000
,  // measure 39
0100
0010
1000
0001
,  // measure 40
1001
0000
1000
0001
,  // measure 41
1000
0001
1000
0001
0000
0000
0000
0000
,  // measure 42
0100
0010
0100
0010
0000
0000
0000
0000
,  // measure 43
1000
0100
0010
0001
,  // measure 44
2000
3020
0230
0320
,  // measure 45
1030
0001
0100
0000
,  // measure 46
0001
0100
0010
0000
,  // measure 47
1000
0100
0010
0001
,  // measure 48
2000
0000
0001
3001
,  // measure 49
1000
0001
1000
0001
0000
0000
0000
0000
,  // measure 50
0100
0010
0100
0010
0000
0000
0000
0000
,  // measure 51
1000
0100
0010
0001
,  // measure 52
2000
3002
0203
0320
,  // measure 53
1030
0010
0100
0000
,  // measure 54
0001
0100
0010
0000
,  // measure 55
1000
0100
1000
0001
,  // measure 56
2000
0000
0000
3000
,  // measure 57
0001
0100
0001
2000
,  // measure 58
3001
0100
0010
0200
,  // measure 59
0310
1000
0001
0200
,  // measure 60
0301
1000
0010
1000
,  // measure 61
0001
0100
0001
2000
,  // measure 62
3010
0100
0010
2000
,  // measure 63
3100
0010
0001
1000
,  // measure 64
2002
0000
0000
0000
0000
0000
0000
3003
;

//---------------dance-single - ----------------
#NOTES:
     dance-single:
     Lisek:
     Beginner:
     1:
     0.085,0.128,0.000,0.000,0.000: // measure 1
0000
0000
0000
0000
,  // measure 2
0000
0000
0000
0000
,  // measure 3
0000
0000
0000
0000
,  // measure 4
0000
0000
0000
0000
,  // measure 5
1000
0000
0000
0000
,  // measure 6
0001
0000
0000
0000
,  // measure 7
0000
0000
0000
0000
,  // measure 8
0000
0000
0000
0000
,  // measure 9
1000
0000
0000
0000
,  // measure 10
0010
0000
0000
0000
,  // measure 11
0100
0000
0000
0000
,  // measure 12
0001
0000
0000
0000
,  // measure 13
1000
0000
0000
0000
,  // measure 14
0001
0000
0000
0000
,  // measure 15
1000
0000
0000
0000
,  // measure 16
0000
0000
0000
0000
,  // measure 17
0001
0000
0000
0000
,  // measure 18
0100
0000
0000
0000
,  // measure 19
0010
0000
0000
0000
,  // measure 20
1000
0000
0001
0000
,  // measure 21
1000
0000
0000
0000
,  // measure 22
0001
0000
0000
0000
,  // measure 23
0100
0000
0000
0000
,  // measure 24
0001
0000
0000
0000
,  // measure 25
1000
0000
0000
0000
,  // measure 26
0100
0000
0000
0000
,  // measure 27
0010
0000
0000
0000
,  // measure 28
0001
0000
0000
0000
,  // measure 29
1000
0000
0000
0000
,  // measure 30
0010
0000
0000
0000
,  // measure 31
1000
0000
0000
0000
,  // measure 32
0001
0000
0000
0000
,  // measure 33
1000
0000
0000
0000
,  // measure 34
0100
0000
0000
0000
,  // measure 35
1000
0000
0000
0000
,  // measure 36
0001
0000
0000
0000
,  // measure 37
0010
0000
0000
0000
,  // measure 38
0001
0000
0000
0000
,  // measure 39
0100
0000
0000
0000
,  // measure 40
0000
0000
0000
0000
,  // measure 41
0001
0000
0000
0000
,  // measure 42
1000
0000
0000
0000
,  // measure 43
0010
0000
0000
0000
,  // measure 44
0100
0000
0000
0000
,  // measure 45
0010
0000
0000
0000
,  // measure 46
1000
0000
0000
0000
,  // measure 47
0001
0000
1000
0000
,  // measure 48
0001
0000
0000
0000
,  // measure 49
1000
0000
0000
0000
,  // measure 50
0100
0000
0000
0000
,  // measure 51
1000
0000
0000
0000
,  // measure 52
0010
0000
0000
0000
,  // measure 53
1000
0000
0000
0000
,  // measure 54
0001
0000
0000
0000
,  // measure 55
1000
0000
0001
0000
,  // measure 56
1000
0000
0000
0000
,  // measure 57
0001
0000
0000
0000
,  // measure 58
0100
0000
0000
0000
,  // measure 59
0001
0000
0000
0000
,  // measure 60
1000
0000
0000
0000
,  // measure 61
0010
0000
0000
0000
,  // measure 62
1000
0000
0000
0000
,  // measure 63
0001
0000
0000
0000
,  // measure 64
0100
0000
0000
0000
;

//---------------dance-single - ----------------
#NOTES:
     dance-single:
     Lisek:
     Easy:
     2:
     0.140,0.227,0.041,0.172,0.000: // measure 1
0000
0000
0000
0000
,  // measure 2
0000
0000
0000
0000
,  // measure 3
0000
0000
0000
0000
,  // measure 4
0000
0000
0000
0000
,  // measure 5
1000
0000
0000
0000
,  // measure 6
0001
0000
0000
0000
,  // measure 7
0000
0000
0000
0000
,  // measure 8
0000
0000
0000
0000
,  // measure 9
1000
0000
0000
0000
,  // measure 10
0001
0000
0000
0000
,  // measure 11
2000
0000
3000
0000
,  // measure 12
0020
0000
0030
0000
,  // measure 13
0100
0000
0000
0000
,  // measure 14
0001
0000
0000
0000
,  // measure 15
2000
0000
3000
0000
,  // measure 16
2002
0000
0000
3003
,  // measure 17
0001
0000
0000
0000
,  // measure 18
0100
0000
0000
0000
,  // measure 19
0001
0000
0000
0000
,  // measure 20
1000
0000
0010
0000
,  // measure 21
1000
0000
0000
0000
,  // measure 22
0001
0000
0000
0000
,  // measure 23
0100
0000
0000
0000
,  // measure 24
2002
0000
0000
3003
,  // measure 25
1000
0000
0010
0000
,  // measure 26
1000
0000
0010
0000
,  // measure 27
0100
0000
0010
0000
,  // measure 28
0100
0000
0000
0000
,  // measure 29
0001
0000
0010
0000
,  // measure 30
0001
0000
0010
0000
,  // measure 31
0001
0000
1000
0000
,  // measure 32
0002
0000
0003
0000
,  // measure 33
1000
0000
0100
0000
,  // measure 34
0010
0000
0001
0000
,  // measure 35
1000
0000
0000
0000
,  // measure 36
0001
0000
0000
0000
,  // measure 37
0001
0000
0010
0000
,  // measure 38
0100
0000
1000
0000
,  // measure 39
2002
0000
0000
0000
,  // measure 40
0000
0000
3003
0000
,  // measure 41
1000
0000
0000
0000
,  // measure 42
0010
0000
0000
0000
,  // measure 43
2000
0000
3000
0000
,  // measure 44
0002
0000
0000
0000
,  // measure 45
1003
0000
0000
0000
,  // measure 46
0010
0000
0000
0000
,  // measure 47
1000
0000
0001
0000
,  // measure 48
1000
0000
0000
0000
,  // measure 49
0001
0000
0000
0000
,  // measure 50
1000
0000
0000
0000
,  // measure 51
0002
0000
0003
0000
,  // measure 52
2000
0000
0000
0000
,  // measure 53
3010
0000
0000
0000
,  // measure 54
1000
0000
0000
0000
,  // measure 55
0001
0000
1000
0000
,  // measure 56
0001
0000
0000
0000
,  // measure 57
1000
0000
0100
0000
,  // measure 58
1000
0000
0100
0000
,  // measure 59
1000
0000
0001
0000
,  // measure 60
2000
0000
0000
0000
,  // measure 61
3001
0000
0100
0000
,  // measure 62
0001
0000
0100
0000
,  // measure 63
0001
0000
1000
0000
,  // measure 64
2002
0000
0000
0000
0000
0000
0000
3003
;
