#TITLE:Lunatic Paradise;
#SUBTITLE:;
#ARTIST:AXEL.K;
#TITLETRANSLIT:;
#SUBTITLETRANSLIT:;
#ARTISTTRANSLIT:;
#GENRE:;
#CREDIT:chen.png;
#BANNER:[Male Vocalists] - Lunatic Paradise.png;
#BACKGROUND:[Male Vocalists] - Lunatic Paradise-bg.png;
#LYRICSPATH:;
#CDTITLE:cdtitle.png;
#MUSIC:[Male Vocalists] - Lunatic Paradise.ogg;
#OFFSET:-0.037;
#SAMPLESTART:56.929;
#SAMPLELENGTH:12.000;
#SELECTABLE:YES;
#BPMS:0.000=160.000;
#STOPS:;
#BGCHANGES:;
#KEYSOUNDS:;

//---------------dance-single - C. Yakumo----------------
#NOTES:
     dance-single:
     C. Yakumo:
     Challenge:
     11:
     0.987,1.000,0.246,0.758,1.000:
0000
0000
0000
0000
,
0000
0000
0000
0000
,
0000
0000
0000
0000
,
2001
0000
0000
0000
0000
0000
3100
0000
0010
0000
0000
0001
0000
0000
0201
0000
,
0000
0000
0000
0000
0000
0310
1000
0000
0100
0000
0001
0000
0100
0000
0010
0001
,
2000
0000
0000
0000
0000
3010
0100
0000
0001
0000
0000
1000
0000
0000
1200
0000
,
0000
0000
0000
0000
0000
0000
0310
0000
0001
0000
0010
0100
1000
0010
1000
0001
,
0020
0000
0000
0230
0000
0000
0310
0000
0001
0000
1000
0000
0010
0000
0400
0000
,
0000
0000
0000
0000
0000
0000
0301
0000
0010
0000
1000
0000
0010
0000
0100
1000
,
0001
0100
0001
1000
0100
0010
0001
0100
0010
1000
0010
0100
0001
0100
0010
1000
,
0001
1000
0100
1000
0001
0010
0001
1000
0010
0000
0100
0001
1000
0000
0001
1000
,
0200
0000
0000
0000
00M0
000M
M000
000M
,
0320
M000
000M
0M00
000M
M000
000M
0M00
,
M032
00M0
0M00
00M0
M000
0M00
0003
0000
,
1000
0010
0100
0001
0010
0000
0001
2000
0000
0000
3010
0000
0100
0000
0001
0000
,
1000
0001
0100
0010
1000
0000
1000
0100
0010
0001
1000
0000
1000
0001
0100
0000
,
0020
0000
0000
0000
0130
0001
1000
0000
0000
0000
1100
0000
0000
0000
2010
0000
,
0000
0000
0000
0000
0000
0000
3001
0100
0001
0100
0001
0100
0020
0000
0000
0000
0000
0000
2030
0000
0000
0000
0000
0000
,
3100
0010
0100
1000
0010
0000
0100
0002
0000
0000
0013
0000
0100
0000
0010
0000
,
0001
1000
0010
0000
0100
0010
0000
1000
0000
0001
0000
0010
0100
0000
1000
0000
,
0002
0000
0000
0000
0103
0010
1000
0000
0000
0000
1001
0000
0000
0000
0012
0000
,
0000
0000
0000
0000
1003
0000
0010
0100
,
2001
0000
3100
0000
0010
0001
0010
0000
0100
1000
0100
0000
1000
0000
0010
0000
,
0100
0001
0100
0000
0001
1000
0001
0000
1000
0100
1000
0000
0010
1000
0010
0000
,
0100
0001
0100
0000
0001
1000
0001
0000
0010
0001
0010
0000
0100
1000
0001
1000
,
0010
0100
0001
0000
0010
0000
0002
0000
0203
0000
2300
0000
3200
0000
0320
0000
,
0130
0001
0100
0000
0001
0010
0001
0000
1000
0100
1000
0000
0001
0010
0100
0010
,
0001
1000
0010
0000
0100
0001
0100
0000
0001
1000
0001
0000
0010
0000
0100
0000
,
1000
0001
1000
0000
0010
1000
0010
0000
0100
0001
0100
0000
0010
0000
1000
0000
,
1001
0000
0000
0000
0001
0000
0010
0000
0110
0000
0100
1000
0001
0000
0100
0001
,
0020
0000
0000
2030
0000
3010
0001
2000
,
0000
0000
0000
0000
0000
0000
0000
0000
0000
0000
0000
0000
3001
0000
0010
0000
0100
0000
1000
0000
0100
0000
0010
0000
0002
0000
0000
0000
0000
0000
0000
0000
0000
2003
0000
0000
0000
0000
0000
0000
0000
0000
3010
0000
0000
0000
0000
0000
,
0210
0000
0000
2300
0000
3100
0001
0010
,
0200
0000
0000
0000
0000
0000
0000
0000
0000
0000
0000
0000
1300
0000
0001
0000
0100
0000
0001
0000
1000
0000
0010
0000
2000
0000
0000
0000
0000
0000
0000
0000
0000
3002
0000
0000
0000
0000
0000
0000
0000
0000
0103
0000
0000
0000
0000
0000
,
0120
0000
0000
0032
0000
0013
1000
0001
,
0020
0000
0000
0000
0000
0000
0000
0000
0000
0000
0000
0000
0031
0000
0100
0000
0001
0000
1000
0000
0001
0000
0010
0000
0200
0000
0000
0000
0000
0000
0000
0000
0000
2300
0000
0000
0000
0000
0000
0000
0000
0000
3010
0000
0000
0000
0000
0000
,
0210
0000
0000
0300
0012
0000
0000
0003
,
2001
0000
0000
0000
0000
0000
3000
0000
0102
0000
0000
0000
1003
0100
1000
0100
,
0010
0001
2000
0000
3020
0000
0130
0001
1000
0000
0200
0000
0310
0001
0010
0100
,
0010
0001
0200
0000
0310
1000
0010
0100
0001
0000
0020
0000
0130
1000
0100
0010
,
0001
1000
0020
0000
0130
0001
1000
0100
0010
0001
1000
0001
0010
0100
1000
0010
,
0100
0001
1000
0100
0010
0001
1000
0001
0100
0010
1000
0001
0100
0001
0010
0100
,
1000
0001
0200
0000
0320
0000
0130
0001
1000
0000
0200
0000
0310
0001
1000
0001
,
0100
0010
2000
0000
3001
1000
0100
0010
0001
1000
0002
0000
0103
0010
0100
0001
,
1000
0100
0020
0000
0130
1000
0001
0100
0010
1000
0020
0000
0130
0001
0020
0000
,
0031
1000
0100
0000
0010
0000
0100
0000
1000
0010
0100
0000
0010
1000
0100
0000
,
0010
0000
0100
0002
0000
0000
0103
0000
0010
0000
0001
0000
1000
0000
0010
0000
,
1000
0001
1000
0001
1000
0001
1000
0001
0010
0000
0100
0000
1000
0000
0001
0000
,
0100
0010
0100
0001
1000
0001
0010
0100
1000
0001
0010
0001
1000
0001
0100
0001
,
1000
0100
1000
0001
0010
0100
1000
0001
0100
0000
0010
0000
1000
0000
0001
0000
,
0020
0000
0000
0032
0000
0000
0103
0000
0010
0000
1000
0000
0001
0000
0010
0000
,
0100
1000
0001
1000
0010
0100
0001
0010
0100
0000
1000
0000
0010
0000
0100
0001
,
1000
0010
1000
0001
1000
0100
0010
0001
0100
0010
0100
0001
1000
0100
1000
0001
,
0010
0100
0010
0001
1000
0010
0100
0010
1000
0000
0100
0000
0010
0000
0001
0000
,
2001
0000
0000
0000
0000
0000
3020
0000
0000
0000
0000
0000
0130
0001
1000
0100
,
0010
0001
1000
0010
0100
0001
1000
0100
0020
0000
0000
0000
0130
1000
0001
0000
,
0102
0000
0000
0000
0000
0000
2003
0000
0000
0000
0000
0000
3100
0010
0100
1000
,
0001
0100
0010
1000
0100
0010
0001
0100
0020
0000
0000
0000
0130
0001
1000
0000
,
1200
0000
0000
0000
0000
0000
0320
0000
0000
0000
0000
0000
0031
1000
0001
0010
,
0100
1000
0001
0100
0010
1000
0100
0010
0001
1000
0000
0010
1000
0001
0100
0000
,
0201
0000
0000
0300
2010
0000
0000
3000
,
1200
0000
0000
0000
0000
0000
0300
0000
0012
0000
0000
0000
1003
0010
1000
0010
,
0100
0001
1000
0000
0200
0000
1300
0001
0010
0000
0200
0000
1300
0001
1000
0010
,
0100
0001
2000
0000
3100
0010
0001
0010
0100
1000
0002
0000
0103
0010
1000
0010
,
0100
0001
2000
0000
3100
0010
0100
1000
0001
0100
0010
1000
0100
0010
0100
1000
,
0001
0100
0010
0100
0001
0010
0100
1000
0010
0100
0010
1000
0100
0010
0001
1000
,
0001
0100
0020
0000
2030
0000
3001
0100
0010
0000
2000
0000
3001
0010
0100
0010
,
0001
1000
0020
0000
0130
0001
0100
0010
1000
0100
1000
0001
0010
0001
1000
0100
,
0010
0001
0200
0000
0310
1000
0010
0100
0001
0010
0200
0000
1300
0010
0100
0000
,
0102
0000
0000
0000
0000
0000
1003
0000
1001
0000
0000
0101
0000
0000
0011
0000
,
0100
00M0
M000
000M
00M0
0M00
M000
00M0
,
0M00
000M
M000
0M00
M000
000M
M000
0M00
,
00M0
000M
M000
00M0
M000
000M
0M00
00M0
,
M000
0000
0000
0000
;

//---------------dance-single - C. Yakumo----------------
#NOTES:
     dance-single:
     C. Yakumo:
     Beginner:
     1:
     0.121,0.256,0.037,0.055,0.000:
0000
0000
0000
0000
,
0000
0000
0000
0000
,
0000
0000
0000
0000
,
0000
0000
0000
0000
,
0000
0000
0000
0000
,
0000
0000
0000
0000
,
0000
0000
0000
0000
,
0001
0000
0100
0000
,
0000
0000
0000
0000
,
0001
0000
1000
0000
,
0001
0000
0001
0000
,
1000
0000
0000
0000
,
0010
0000
0000
0000
,
0100
0000
0000
0000
,
0001
0000
0000
0000
,
0010
0000
0000
0000
,
0100
0000
0000
0000
,
0010
0000
0000
0000
,
0001
0000
0000
0000
,
1000
0000
0000
0000
,
0010
0000
0000
0000
,
0100
0000
0000
0000
,
0001
1000
0000
0000
,
0000
0000
0010
0010
,
0010
0000
0000
0000
,
1000
0000
0100
0100
,
0000
0010
0000
0000
,
0000
0000
0001
0001
,
0001
0000
0000
0000
,
1000
0000
0001
0000
,
1000
0000
1000
0000
,
0010
0000
0000
0000
,
0100
0000
0100
0000
,
0001
0000
0000
0000
,
0010
0000
0010
0000
,
0100
0000
0000
0000
,
2000
0000
3200
0000
,
0320
0000
0032
0000
,
1003
0000
0000
0000
,
0010
0000
0000
0000
,
0100
0000
0000
0000
,
0001
0000
0000
0000
,
0010
0000
0000
0000
,
0001
0000
0000
0000
,
1000
0000
0000
0000
,
0100
0000
0000
0000
,
0010
0000
0001
0000
,
0000
0000
1000
0000
,
0020
0000
0000
0000
,
0000
0000
0130
0000
,
0010
0000
0100
0000
,
0000
0000
0001
0000
,
2000
0000
0000
0000
,
0000
0000
3100
0000
,
0010
0000
0000
0000
,
0001
0000
0000
0000
,
0100
0000
0000
0000
,
0010
0000
0000
0000
,
1000
0000
0000
0000
,
0001
0000
0000
0000
,
1001
0000
1001
0000
,
1001
0000
1001
0000
,
1000
0000
0000
0000
,
0010
0000
0000
0000
,
0100
0000
0000
0000
,
0001
0000
0010
0000
,
0001
0000
0000
0000
,
0100
0000
0000
0000
,
0010
0000
0000
0000
,
1000
0000
0001
0000
,
1000
0000
0000
0000
;

//---------------dance-single - C. Yakumo----------------
#NOTES:
     dance-single:
     C. Yakumo:
     Easy:
     4:
     0.232,0.255,0.073,0.100,0.000:
0000
0000
0000
0000
,
0000
0000
0000
0000
,
0000
0000
0000
0000
,
1001
0000
0000
0000
0000
0000
0000
0110
,
0000
0000
0001
1000
,
1010
0000
0000
0000
0000
0000
0000
0011
,
0000
0000
0001
0100
,
0010
0000
1000
0000
,
0001
0000
0010
0000
,
0001
0000
0001
0000
,
0100
0000
0100
0010
,
0200
0000
0000
0000
,
0302
0000
0000
0000
,
2003
0000
0000
3000
,
0000
0100
0000
0010
,
0000
0001
0000
1000
,
0001
0000
0100
0000
,
0010
0000
0100
0001
,
1000
0100
0000
0010
,
0001
0000
1000
0000
,
0010
0000
0100
0000
,
0010
0000
2000
0000
,
3001
0000
0100
0000
,
0010
0000
1000
0001
,
1000
0000
0100
0000
,
0010
0000
0001
0100
,
0010
0000
1000
0000
,
0001
0000
0010
0100
,
1000
0000
0001
0000
,
0100
0010
0100
0010
,
1000
0000
0000
1000
0000
0000
0000
0000
,
0001
0100
0010
1000
,
0100
0000
0000
0100
0000
0000
0000
0000
,
0010
0100
1000
0001
,
0100
0000
0000
0100
0000
0000
0000
0000
,
0010
1000
0001
0010
,
0110
0000
1100
0000
,
0011
0000
0101
0000
,
0100
0000
0000
0010
0000
0000
0000
0000
,
1000
0000
0000
0001
0000
0000
0010
0000
,
0100
0000
0000
1000
0000
0000
0000
0000
,
0001
0000
0100
0000
,
0001
0000
0000
0010
0000
0000
0000
0000
,
0100
0000
0000
0010
0000
0000
0000
0000
,
0001
0000
0000
1000
0000
0000
0000
0000
,
0020
0000
0000
0230
0000
0000
0000
0000
,
0301
0000
1000
0000
,
0000
0000
0100
0010
,
0001
0001
1000
1000
,
0010
0100
0010
0100
,
0001
0000
1000
0000
,
0000
0000
0001
0010
,
0100
0100
1000
1000
,
0001
0010
0001
0010
,
0100
0000
0000
1000
0000
0000
0002
0000
,
0000
0000
0000
0000
,
0103
0000
0000
0010
0000
0000
2000
0000
,
0000
0000
0000
0000
,
3100
0000
0000
0010
0000
0000
0200
0000
,
0000
0000
0000
0000
,
1300
0000
0001
0000
,
0100
0000
0010
0000
,
1000
0000
0000
0001
0000
0000
1000
0000
,
0010
0000
0000
0100
0000
0000
0010
0000
,
0100
0000
0000
0001
0000
0000
0100
0000
,
0001
0010
0100
1000
,
0100
0000
0000
0010
0000
0000
0100
0000
,
1000
0000
0000
0010
0000
0000
0100
0000
,
0001
0000
0000
0100
0000
0000
0001
0000
,
0020
0000
0000
0230
0000
0000
0300
0000
;

//---------------dance-single - C. Yakumo----------------
#NOTES:
     dance-single:
     C. Yakumo:
     Hard:
     9:
     0.596,0.733,0.164,0.511,0.237:
0000
0000
0000
0000
,
0000
0000
0000
0000
,
0000
0000
0000
0000
,
1001
0000
0000
0000
0000
0000
0001
0000
0100
0000
0000
0010
0000
0000
2010
0000
,
0000
0000
0000
3100
0010
0001
0010
0100
,
2000
0000
0000
0000
0000
0000
3010
0000
0100
0000
0000
0001
0000
0000
0021
0000
,
0000
0000
0000
0130
0010
0001
1000
0010
,
0200
0000
0000
0302
0000
0000
1003
0000
0100
0000
0001
0000
0100
0000
0010
0000
,
0000
0000
0000
0000
0001
0100
0010
1000
,
0100
0010
0100
1000
0001
1000
0010
0100
,
0001
0100
0001
0100
0010
1000
0100
0010
,
0002
0000
0000
0000
,
2003
0000
0000
0000
,
3020
0000
0000
0030
,
0100
0000
0001
0000
0010
0000
0000
0100
0000
0000
0010
0000
0001
0000
1000
0000
,
0010
0100
0001
0100
0001
0010
0001
0010
,
0200
0000
0000
1300
0000
0001
0000
0200
,
0000
0340
2030
3002
,
0013
0000
0001
0000
1000
0000
0000
0100
0000
0000
1000
0000
0010
0000
0100
0000
,
0001
0000
0010
0000
0000
0001
0000
0100
0000
0010
0000
0100
0001
0000
1000
0000
,
0200
0000
0000
0310
0000
0001
0000
2000
,
0000
0000
0000
0000
0000
0000
0000
0000
3010
0000
0000
0100
0000
0000
0001
0000
,
1000
0000
0100
0020
0000
0031
1000
0020
,
0000
0000
0030
0100
0001
0100
0010
1000
,
0000
0100
1000
0001
0200
0000
0301
0020
,
0000
0000
0030
0001
0100
0010
1000
0100
,
0000
0000
0010
0002
0000
1003
0010
0200
,
0000
0000
0300
0001
0100
1000
0100
0010
,
0000
0100
0001
0010
0100
1000
0100
0010
,
0011
1000
0101
0110
,
0020
0000
0000
2030
0000
3100
0010
0002
,
0000
0000
0000
0000
0M00
0000
0000
0000
1003
0000
0000
0010
0000
0000
0100
0000
,
0002
0000
0000
2003
0000
3010
0100
0001
,
0020
0000
0000
0000
M000
0000
0031
0000
1000
0000
0000
0010
0000
0000
0100
0000
,
0020
0000
0000
0032
0000
0013
1000
0100
,
0020
0000
0000
0000
M000
0000
0000
0000
0031
0000
0000
1000
0000
0000
0010
0000
,
0210
0000
0000
0000
0302
0000
0000
0003
,
0021
0000
0000
0000
0000
0000
0000
0000
0230
0000
0000
0000
1300
0001
1000
0001
,
1000
0000
0010
0000
0100
0000
0000
1000
0000
0000
0100
0000
0001
0000
0100
0000
,
0010
0000
1000
0000
0100
0000
0000
0001
0000
0000
0100
0000
0010
0000
0001
0000
,
0100
0000
0010
0000
0100
0000
0000
1000
0000
0000
0100
0000
0010
0000
1000
0000
,
0400
0000
0000
0000
,
0310
0000
0001
0000
0100
0000
0000
1000
0000
0000
0100
0000
0010
0000
1000
0000
,
0001
0000
0100
0000
0010
0000
0000
0001
0000
0000
0010
0000
1000
0000
0001
0000
,
0010
0000
0100
0000
0010
0000
0000
0001
0000
0000
0100
0000
0010
0000
1000
0000
,
0002
0000
0000
0023
0000
0000
0130
0000
,
2001
0000
0000
3020
0000
0000
0130
0000
0001
0000
1000
0000
0100
0000
0010
0000
,
0400
0000
0000
0000
1300
0001
0010
1000
,
0010
0100
1000
0010
0100
0001
1000
0100
,
0010
0001
0010
0001
1000
0010
0100
0001
,
0020
0000
0000
0230
0000
0000
1300
0000
0010
0000
0100
0000
0001
0000
0010
0000
,
0004
0000
0000
0000
1003
0010
0100
1000
,
0100
0001
1000
0100
0010
0100
1000
0010
,
0100
0010
1000
0001
1000
0100
0010
0001
,
2001
0000
0000
0000
0000
0000
3020
0000
0000
0000
0000
0000
0130
0001
0100
0001
,
0100
0001
0100
0001
0100
0001
0100
0001
2000
0000
0000
0000
0100
0000
3000
0000
,
1020
0000
0000
0000
0000
0000
0230
0000
0000
0000
0000
0000
0301
1000
0001
1000
,
0001
1000
0001
1000
0001
1000
0001
1000
0200
0000
0000
0000
0010
0000
0300
0000
,
0012
0000
0000
0000
0000
0000
0203
0000
0000
0000
0000
0000
0310
1000
0010
1000
,
0010
1000
0010
1000
0010
1000
0010
1000
0001
1000
0000
0001
1000
0000
0100
0000
,
0120
0000
0000
0030
0102
0000
0000
0003
,
2100
0000
0000
0000
0000
0000
3000
0000
1020
0000
0000
0000
0130
0001
0100
0001
,
0100
0000
0010
0000
0100
0000
0000
1000
0000
0000
0100
0000
0001
0000
1000
0000
,
0010
0000
0100
0000
0010
0000
0000
0001
0000
0000
0010
0000
0100
0000
0001
0000
,
1000
0000
0100
0000
0010
0000
0000
1000
0000
0000
0010
0000
0001
0000
1000
0000
,
0004
0000
0000
0000
,
1003
0000
0010
0000
0100
0000
0000
1000
0000
0000
0100
0000
0001
0000
0010
0000
,
0100
0000
1000
0000
0100
0000
0000
0001
0000
0000
0100
0000
0010
0000
0001
0000
,
1000
0000
0100
0000
0010
0000
0000
1000
0000
0000
0010
0000
0001
0000
0000
0000
,
0102
0000
0000
0000
0000
0000
0023
0000
0100
0000
0000
0100
0000
0000
0130
0000
,
2100
0000
0000
0000
,
3002
0000
0000
0000
,
0203
0000
0000
0000
,
0300
0000
0000
0000
;

//---------------dance-single - C. Yakumo----------------
#NOTES:
     dance-single:
     C. Yakumo:
     Medium:
     7:
     0.438,0.415,0.110,0.210,0.018:
0000
0000
0000
0000
,
0000
0000
0000
0000
,
0000
0000
0000
0000
,
1001
0000
0000
0000
0000
0000
0001
0000
0100
0000
0000
0010
0000
0000
0110
0000
,
0000
0000
0000
1000
0001
1000
0010
0100
,
0101
0000
0000
0000
0000
0000
0001
0000
0010
0000
0000
0100
0000
0000
1100
0000
,
0000
0000
0000
1000
0001
0010
0100
0010
,
0001
0100
0010
1000
,
0001
0001
0010
0100
,
1000
0100
1000
0000
0001
0010
0001
0000
,
1000
0010
1000
0001
0100
0001
0010
0100
,
2000
0000
0000
0000
,
3002
0000
0000
0000
,
0023
0000
0000
0030
,
0100
1000
0001
0100
,
0010
1000
0010
1000
,
0001
0010
0001
1000
,
0100
0010
0100
1000
,
0001
0100
0001
1000
,
0010
1000
0010
0100
,
0001
0010
0100
1000
,
0001
0000
0101
0001
,
1100
0000
1000
0001
0000
0100
0001
0100
,
0000
0000
0000
0000
0010
1000
0001
0010
,
0000
0100
0010
0001
1000
0000
0001
0100
,
0000
0000
0000
0010
0100
0010
1000
0001
,
0000
0000
0010
0100
0000
1000
0100
0010
,
0000
0000
0000
0001
0100
0001
1000
0100
,
0000
0010
0100
0010
0001
1000
0001
0100
,
0010
1000
0001
0010
,
0200
0000
0000
2300
0000
3001
0100
0002
,
0000
0000
0010
0100
,
2003
0000
0000
3200
0000
0310
0001
1000
,
0020
0000
0000
0130
0002
0000
1000
0000
,
0203
0000
0000
2300
0000
3100
0001
1000
,
0020
0000
0000
0000
0000
0000
0000
0000
0130
0000
0000
0001
0000
0000
0100
0000
,
0010
0000
1000
0000
,
1001
0000
0000
0000
0001
0000
0010
0100
,
0010
0000
0001
0000
0100
0010
1000
0000
,
0100
0000
0010
0000
0001
1000
0100
0000
,
1000
0000
0010
0000
0100
0001
1000
0000
,
0100
0010
0001
0100
,
0010
1000
0010
0000
0100
0000
0001
0000
,
0010
0001
1000
0000
0100
0000
0010
0000
,
0100
1000
0010
0000
0100
0000
0001
0000
,
2000
0000
0000
3020
0000
0000
0030
0000
,
0100
0000
0000
0001
0000
0000
1000
0000
0100
0000
0000
0000
0010
0000
0000
0000
,
0100
0000
0100
0000
1000
0001
0100
0010
,
1000
0001
0100
0000
0010
1000
0010
0000
,
0100
0001
0100
0001
0010
0000
0100
0000
,
1000
0000
0001
0000
0100
0010
1000
0000
,
0100
0010
0001
0001
,
0100
0010
1000
0000
0001
0010
0100
0000
,
1000
0100
1000
0100
0010
0000
0001
0000
,
0200
0000
0000
0320
0000
0000
1030
0001
,
1000
0001
1000
0001
0100
0000
0010
0000
,
2000
0000
0000
3200
0000
0000
0310
0001
,
0010
0001
0010
0001
1000
0000
0010
0000
,
0200
0000
0000
0302
0000
0000
0013
0100
,
0010
0100
0010
0100
1000
0000
0001
0000
,
0101
0000
1010
0000
,
1100
0000
0011
1000
,
0100
0000
0010
0000
0001
0100
0010
0000
,
1000
0000
0001
0000
0010
0001
0100
0000
,
0010
0000
1000
0000
0100
1000
0010
0100
,
0001
0010
0100
1000
,
0010
0100
0001
0000
1000
0000
0100
0000
,
0010
0001
0100
0000
0010
0000
1000
0000
,
0100
1000
0010
0000
0100
0000
0001
0000
,
0021
0000
0000
0230
0000
0000
0000
0000
,
0300
0000
0000
0000
;
