#TITLE:Love It When You Call;
#SUBTITLE:;
#ARTIST:THE FEELING;
#TITLETRANSLIT:;
#SUBTITLETRANSLIT:;
#ARTISTTRANSLIT:;
#CREDIT:;
#BANNER:[Male Vocalists] - Love It When You Call.png;
#BACKGROUND:[Male Vocalists] - Love It When You Call-bg.png;
#LYRICSPATH:;
#CDTITLE:cdtitle.png;
#MUSIC:[Male Vocalists] - Love It When You Call.mp3;
#OFFSET:-0.040;
#SAMPLESTART:53.113;
#SAMPLELENGTH:17.860;
#SELECTABLE:YES;
#BPMS:0.000=117.000,152.000=58.500,168.000=117.000;
#STOPS:;
#BGCHANGES:4.000=[Male Vocalists] - Love It When You Call.avi=1.000=1=0=0,
99999=-nosongbg-=1.000=0=0=0 // don't automatically add -songbackground-
;

//---------------dance-single - ----------------
#NOTES:
     dance-single:
     :
     Beginner:
     1:
     0.102,0.151,0.030,0.000,0.000: // measure 1
0000
0000
0000
0000
,  // measure 2
0000
0000
0000
0000
,  // measure 3
1000
0000
0000
0000
,  // measure 4
0100
0000
0000
0000
,  // measure 5
1000
0000
0000
0000
,  // measure 6
0001
0000
0000
0000
,  // measure 7
1001
0000
0000
0000
,  // measure 8
0010
0000
0000
0000
,  // measure 9
1000
0000
0000
0000
,  // measure 10
0100
0000
0000
0000
,  // measure 11
0010
0000
0000
0000
,  // measure 12
0001
0000
0000
0000
,  // measure 13
1000
0000
0000
0000
,  // measure 14
0010
0000
0000
0000
,  // measure 15
0100
0000
0100
0000
,  // measure 16
0100
0000
0000
0000
,  // measure 17
0001
0000
0001
0000
,  // measure 18
0001
0000
0000
0000
,  // measure 19
1000
0000
1000
0000
,  // measure 20
1000
0000
0000
0000
,  // measure 21
1001
0000
0000
0000
,  // measure 22
0110
0000
0000
0000
,  // measure 23
1000
1000
1000
0000
,  // measure 24
0000
0000
0000
0000
,  // measure 25
0001
0001
0001
0000
,  // measure 26
0000
0000
0000
0000
,  // measure 27
0010
0000
0010
0000
,  // measure 28
1000
0000
1000
0000
,  // measure 29
0100
0100
0100
0000
,  // measure 30
0100
0100
0100
0000
,  // measure 31
1000
0000
1000
0000
,  // measure 32
0001
0000
0001
0000
,  // measure 33
0010
0010
0010
0000
,  // measure 34
0010
0010
0010
0000
,  // measure 35
0001
0000
0000
0000
,  // measure 36
1000
0000
0000
0000
,  // measure 37
0010
0000
0010
0000
,  // measure 38
0010
0000
0000
0000
,  // measure 39
1001
0000
0000
0000
,  // measure 40
0100
0100
0100
0000
,  // measure 41
1000
0000
0000
0000
,  // measure 42
0001
0001
0001
0000
,  // measure 43
0100
0000
0000
0000
,  // measure 44
1000
0000
0000
0000
,  // measure 45
0001
0001
0001
0000
,  // measure 46
0001
0001
0001
0000
,  // measure 47
0010
0000
0000
0000
,  // measure 48
0001
0000
0000
0000
,  // measure 49
0100
0100
0100
0000
,  // measure 50
0100
0100
0100
0000
,  // measure 51
0010
0000
0000
0000
,  // measure 52
1000
0000
0000
0000
,  // measure 53
0001
0000
0001
0000
,  // measure 54
1000
0000
1000
0000
,  // measure 55
0010
0000
0000
0000
,  // measure 56
0100
0100
0000
0000
,  // measure 57
0001
0001
0000
0000
,  // measure 58
1000
0000
0100
0000
,  // measure 59
0010
0000
0000
0000
;

//---------------dance-single - ----------------
#NOTES:
     dance-single:
     :
     Medium:
     5:
     0.328,0.374,0.164,0.470,0.000: // measure 1
0000
0000
0000
0000
,  // measure 2
0000
0000
0000
0000
,  // measure 3
2001
0000
3100
0000
0000
1000
0001
0000
,  // measure 4
0102
0000
1003
0000
0000
0001
0010
0000
,  // measure 5
2010
0000
3001
0000
0000
0010
0100
0000
,  // measure 6
1002
0000
0013
0000
0000
1000
0100
0000
,  // measure 7
2010
3100
1000
0001
,  // measure 8
0200
0310
0100
0001
,  // measure 9
0020
0031
1000
0100
,  // measure 10
0020
0130
1000
0001
,  // measure 11
0200
0000
1300
0000
0100
0000
0010
1000
,  // measure 12
0020
0000
0130
0000
0001
0000
1000
0100
,  // measure 13
2000
0000
3010
0000
1000
0000
0001
0100
,  // measure 14
0002
1003
0010
0100
,  // measure 15
2001
3200
0320
0032
,  // measure 16
0203
0000
0300
0000
0010
0100
0010
0000
,  // measure 17
2000
3100
0002
0103
,  // measure 18
2000
3100
0010
0000
,  // measure 19
0002
2003
3020
0230
,  // measure 20
0302
0000
0003
0000
0010
0100
0010
0000
,  // measure 21
2002
3003
2200
3300
,  // measure 22
0202
0000
0000
0303
,  // measure 23
0010
1000
0010
0000
0100
0000
0010
0000
,  // measure 24
2000
0100
3100
0000
,  // measure 25
0001
1000
0001
0000
0100
0000
0010
0000
,  // measure 26
0200
0001
0301
0000
,  // measure 27
2000
3100
1100
0000
,  // measure 28
0002
0103
0101
0000
,  // measure 29
0020
0130
0110
1001
,  // measure 30
0010
1000
0010
1000
0200
0000
0300
0000
,  // measure 31
1000
0100
0010
0001
,  // measure 32
0100
0010
0010
0000
,  // measure 33
0200
0301
0101
0000
,  // measure 34
0020
1030
1010
0000
,  // measure 35
0100
0000
1000
0000
0010
1000
0010
0000
,  // measure 36
1000
0000
0001
0000
0100
0001
0100
0000
,  // measure 37
0020
0000
2030
0000
,  // measure 38
3002
0000
0103
0000
,  // measure 39
1000
0000
0100
0000
0010
0010
0001
0000
,  // measure 40
1000
0000
0001
0000
0100
0100
1001
0000
,  // measure 41
0010
1000
0010
0000
0100
0001
1000
0000
,  // measure 42
0001
0010
0001
0000
1000
0100
0010
0000
,  // measure 43
2000
3100
1100
0000
,  // measure 44
0002
1003
1001
0000
,  // measure 45
0020
0130
0110
0101
,  // measure 46
0010
0000
0001
0010
0100
0000
0000
0000
,  // measure 47
1000
0000
0100
1000
0100
0000
1000
0000
,  // measure 48
1000
0000
0001
0100
0001
0000
0000
0000
,  // measure 49
0200
0310
0110
1001
,  // measure 50
0010
0000
1000
0100
0010
0000
0000
0000
,  // measure 51
0001
1000
0001
1000
0002
0000
0003
0000
,  // measure 52
1000
0001
1000
0001
2000
0000
3000
0000
,  // measure 53
0020
2030
3200
0320
,  // measure 54
0032
2003
3020
0230
,  // measure 55
0302
0000
2003
0000
0000
0000
3100
1000
,  // measure 56
0100
0000
0020
0000
0000
0000
0031
0100
,  // measure 57
0001
0000
0200
0000
0000
0000
0310
1000
,  // measure 58
0010
1000
0002
2003
,  // measure 59
3200
0000
0000
0000
,  // measure 60
0300
0000
0000
0000
;

//---------------dance-single - ----------------
#NOTES:
     dance-single:
     :
     Hard:
     7:
     0.439,0.616,0.075,0.328,0.108: // measure 1
0000
0000
0000
0000
,  // measure 2
0000
0000
0000
0000
,  // measure 3
0001
0000
0010
0000
0001
0000
0000
0100
0000
0000
0001
0000
0100
0000
0010
0000
,  // measure 4
1000
0000
0100
0000
1000
0000
0000
0010
0000
0000
0100
0000
0001
0000
1000
0000
,  // measure 5
0100
0000
0010
0000
0100
0000
0000
1000
0000
0000
0010
0000
1000
0000
0001
0000
,  // measure 6
0100
0000
0010
0000
0100
0000
0000
0001
0000
0000
1000
0000
0100
0000
0010
0000
,  // measure 7
0002
0000
1003
0000
0000
0001
0100
0010
,  // measure 8
2000
0000
3100
0000
0000
0010
1000
0010
,  // measure 9
0200
0000
0310
0000
0000
0100
0001
0010
,  // measure 10
0200
0000
1300
0000
0000
0010
1000
0001
,  // measure 11
0200
0000
0310
0000
0100
0001
0010
0100
,  // measure 12
2000
0000
3100
0000
1000
0010
0001
0010
,  // measure 13
0200
0000
0301
0000
1000
0100
0001
0100
,  // measure 14
2000
0000
3010
0000
0100
0001
1000
0000
,  // measure 15
0210
0000
0310
0100
0001
0000
0010
0100
,  // measure 16
1000
0100
0010
0000
0001
1000
0010
0000
,  // measure 17
0200
0000
0310
1000
0002
0000
0013
0100
,  // measure 18
2000
0000
3010
0000
0100
0001
1000
0000
,  // measure 19
0012
0000
1003
0010
0100
0000
0001
1000
,  // measure 20
0100
1000
0010
0000
0100
0001
1000
0010
,  // measure 21
0210
0301
2100
3001
,  // measure 22
1002
0100
0010
0013
,  // measure 23
1000
0100
1000
0100
0020
0000
0031
0000
,  // measure 24
0200
0000
0310
0010
2000
0000
3000
0000
,  // measure 25
0001
0010
0001
0010
0200
0000
1300
0010
,  // measure 26
0100
0001
0000
1000
0000
1001
1001
0000
,  // measure 27
0100
0100
1000
0010
0010
0000
0100
0001
,  // measure 28
1000
1000
0100
0010
0010
0000
0001
1000
,  // measure 29
0010
0010
1000
1000
0002
0000
0013
0100
,  // measure 30
0010
0010
0001
0001
2000
0000
3010
0000
,  // measure 31
0100
0100
0001
0010
0001
1000
1000
0010
,  // measure 32
0010
0100
0001
0010
0100
0100
2000
0000
,  // measure 33
3010
0010
1000
0001
0001
0000
0010
0010
,  // measure 34
0001
0001
1000
1000
0200
0000
0310
0000
,  // measure 35
1000
0000
0100
0000
1000
0000
0000
0010
0000
0000
1000
0000
0100
0000
0010
0000
,  // measure 36
0001
0000
0100
0000
0001
0000
0000
1000
0000
0000
0001
0000
0100
0000
0010
0000
,  // measure 37
2000
0000
3100
1000
0020
0000
0130
0001
,  // measure 38
2000
0000
0100
0000
3010
0000
0001
0100
,  // measure 39
0010
0000
1000
0000
0010
0000
1000
0000
0200
0000
0000
0000
0000
0000
0000
0000
0310
0000
0000
0010
0000
0000
0000
0000
0002
0000
0000
0000
0000
0000
0000
0003
,  // measure 40
0100
0000
0010
0000
1000
0000
0010
0000
0200
0000
0000
0000
0000
0000
0000
0000
0301
0000
0000
0001
0000
0000
0000
0000
2001
0000
0000
0000
0000
0000
0000
0000
,  // measure 41
3010
0000
0100
0000
0001
0000
0100
0000
0020
0000
0000
0000
0000
0000
0000
0000
1030
0000
0000
1000
0000
0000
0000
0000
0200
0000
0000
0000
0000
0000
0000
0000
,  // measure 42
0310
0001
0010
0001
1000
0100
1000
0100
0010
0001
0100
0010
1000
1001
1001
0000
,  // measure 43
0010
0010
0001
0100
0100
0000
0010
1000
,  // measure 44
0001
0001
0010
0100
0100
0000
1000
0001
,  // measure 45
0100
0100
0001
0001
2000
0000
3100
0010
,  // measure 46
0100
0100
1000
1000
0002
0000
0103
0000
,  // measure 47
0010
0010
1000
0100
1000
0001
0001
0100
,  // measure 48
0100
0010
1000
0100
0010
0010
0002
0000
,  // measure 49
0103
0100
0001
1000
1000
0000
0100
0100
,  // measure 50
1000
1000
0001
0001
0020
0000
0130
0000
,  // measure 51
1000
0000
0000
1000
0000
0000
1000
0000
0000
0000
0100
0000
1000
0000
0010
0000
,  // measure 52
0100
0000
0000
0100
0000
0000
0100
0000
0000
0000
0010
0000
0100
0000
0001
0000
,  // measure 53
0010
0000
0000
0001
0000
0000
1000
0000
0000
0001
0000
0000
0100
0000
0000
0010
,  // measure 54
0000
0000
1000
0000
0000
0100
0000
0000
0010
0000
0000
0001
0000
0000
1000
0000
,  // measure 55
0200
0000
0320
0000
0000
0031
0010
0100
,  // measure 56
2000
0000
3020
0000
0000
0130
0001
0100
,  // measure 57
0020
0000
2030
0000
0000
3100
1000
0010
,  // measure 58
0100
0001
0010
1000
0010
0001
1000
0010
,  // measure 59
0200
0000
0000
0000
,  // measure 60
0300
0000
0000
0000
;

//---------------dance-single - ----------------
#NOTES:
     dance-single:
     :
     Easy:
     3:
     0.204,0.242,0.052,0.269,0.000: // measure 1
0000
0000
0000
0000
,  // measure 2
0000
0000
0000
0000
,  // measure 3
2000
3000
0010
1000
,  // measure 4
0200
0300
1000
0001
,  // measure 5
0020
0030
0100
1000
,  // measure 6
0002
0003
0100
0010
,  // measure 7
2002
3003
0000
0010
,  // measure 8
0020
0030
0000
1000
,  // measure 9
2000
3000
0000
0001
,  // measure 10
0002
0003
0000
0010
,  // measure 11
0020
0030
0000
0100
,  // measure 12
0200
0300
0000
1000
,  // measure 13
2000
3000
0000
0001
,  // measure 14
0002
0003
0000
0100
,  // measure 15
0200
0300
0002
0003
,  // measure 16
2000
3000
0010
0000
,  // measure 17
1000
0000
0001
0001
,  // measure 18
0001
0000
0000
0000
,  // measure 19
0200
0300
0002
0003
,  // measure 20
2000
3000
0010
0010
,  // measure 21
0020
0030
2000
3000
,  // measure 22
0202
0000
0000
0303
,  // measure 23
0010
1000
0010
0000
,  // measure 24
2000
0000
3000
0000
,  // measure 25
0100
0010
0100
0000
,  // measure 26
2002
0000
0000
3003
,  // measure 27
0010
0100
0010
0000
,  // measure 28
1000
0010
1000
0000
,  // measure 29
0001
0100
0001
1000
,  // measure 30
0100
1000
0001
0000
,  // measure 31
0100
0100
0100
0001
,  // measure 32
1000
1000
1000
0000
,  // measure 33
0010
1000
0001
0001
,  // measure 34
0010
0001
0100
0000
,  // measure 35
2002
3003
0010
0010
,  // measure 36
0020
0030
1000
1000
,  // measure 37
2000
0000
3200
0000
,  // measure 38
0320
0000
0000
0000
,  // measure 39
0031
0000
0100
0010
,  // measure 40
0010
0000
1000
0110
,  // measure 41
0001
0001
0001
0000
1000
0000
0010
0000
,  // measure 42
0100
0100
0100
0000
0001
0000
0000
0000
,  // measure 43
0010
0010
0010
0000
,  // measure 44
1000
0100
0010
0000
,  // measure 45
0001
0001
0001
1000
,  // measure 46
0100
0100
0100
0000
,  // measure 47
0010
0100
0010
0000
,  // measure 48
0001
1000
0001
0000
,  // measure 49
0100
0100
0100
0001
,  // measure 50
1000
1000
1000
0000
,  // measure 51
0100
0000
0000
1001
,  // measure 52
0100
0000
0000
1001
,  // measure 53
0010
0000
1000
0000
,  // measure 54
0100
0000
0001
0000
,  // measure 55
1000
0200
0300
0000
,  // measure 56
0010
0002
0003
0000
,  // measure 57
0100
0020
0030
0000
,  // measure 58
1000
0100
0010
0001
,  // measure 59
2000
0000
0000
0000
,  // measure 60
3000
0000
0000
0000
;
