#TITLE:Kiss You;
#SUBTITLE:;
#ARTIST:One Direction;
#TITLETRANSLIT:;
#SUBTITLETRANSLIT:;
#ARTISTTRANSLIT:;
#CREDIT:;
#BANNER:[Male Vocalists] - Kiss You.png;
#BACKGROUND:[Male Vocalists] - Kiss You-bg.png;
#LYRICSPATH:;
#CDTITLE:[Male Vocalists] - Kiss You-cd.png;
#MUSIC:[Male Vocalists] - Kiss You.ogg;
#OFFSET:0.000;
#SAMPLESTART:34.665;
#SAMPLELENGTH:12.000;
#SELECTABLE:YES;
#BPMS:0.000=180.000,112.000=90.000,144.000=180.000,208.000=90.000;
#STOPS:;
#BGCHANGES:0.000=[Male Vocalists] - Kiss You.avi=1.000=1=0=0,
99999=-nosongbg-=1.000=0=0=0 // don't automatically add -songbackground-
;

//---------------dance-single - ----------------
#NOTES:
     dance-single:
     :
     Hard:
     8:
     0.581,0.706,0.578,0.245,0.230:
0000
0000
0000
0000
,
0000
0000
0000
0000
,
0000
0000
0000
0000
,
0000
0000
0010
0000
1000
0100
1000
0100
,
0010
0000
0001
0100
0001
0000
1000
0100
,
0010
0011
0100
0101
,
0010
0000
1000
0100
1000
0100
0010
0000
,
0100
0000
1100
0000
0010
0100
0010
0000
,
1010
0000
1000
0100
1000
0000
1010
0000
,
0010
0100
0010
0000
0100
0001
1000
0000
,
1001
0000
0001
1000
0100
0000
0110
0000
,
0010
0000
0100
1000
0001
0100
0010
0000
,
0110
0000
0010
0000
1000
0001
0100
0000
,
0110
0000
0100
0000
0001
1000
0100
0000
,
0110
0000
0100
0000
0010
0001
1000
0000
,
1001
0000
0100
0000
0010
1000
0001
0000
,
1001
0000
1000
0100
0010
0000
0011
0000
,
0001
0100
0010
0000
0100
0010
0100
0000
,
0110
0000
0010
1000
0100
0000
0110
0000
,
0001
1000
0100
1000
,
0020
2030
3002
0023
,
0230
0001
0010
0301
,
0020
0032
2003
3020
,
0230
0010
1000
0310
,
2000
3002
0023
0230
,
0320
1000
0001
1030
,
0001
1000
1001
0100
,
0110
0000
0000
0001
1000
0100
0010
0000
,
0100
0000
0110
0000
0010
0001
0000
0001
1000
0000
0000
0000
1001
0000
0000
0000
,
0010
0000
0110
0000
0100
0001
0000
0001
1000
0000
0000
0000
0001
0010
0001
0000
,
0011
0000
0001
1000
0100
0000
1000
0001
0100
0000
0000
0000
0110
0000
0000
0000
,
1001
0000
1000
0010
1000
0000
0001
0010
0001
0000
0000
0000
1001
0000
0000
0000
,
1000
0000
1100
0000
0010
0001
0000
0001
1000
0000
0000
0000
1001
0000
0000
0000
,
0100
0000
0110
0000
0001
1000
0000
0100
0010
0000
0000
0000
0010
0100
0010
0000
,
0110
0000
0010
0001
0010
0000
0100
1000
0100
0000
0000
0000
0110
0000
0000
0000
,
1001
0000
1000
0001
0100
0000
0000
0000
0010
0001
0000
1000
0000
0020
0000
0030
,
1000
0000
1000
0000
0001
0100
0001
0100
,
0010
0000
0000
0202
0000
0303
0000
0000
,
0001
0000
0001
0000
0010
0100
0010
0100
,
1000
0000
0000
2200
0000
3300
0000
0000
,
0001
0000
1000
0000
0010
0100
0001
1000
,
1001
0000
0000
2002
0000
3003
0000
0000
,
0110
0000
1001
0000
1000
0001
0100
0010
,
1000
0110
0110
0110
,
0001
0000
1000
0000
0100
0010
0001
1000
,
0010
0110
0100
0101
,
1001
0000
1001
0000
1000
0100
0010
0001
,
1000
0110
0100
0101
,
0110
0000
1010
0000
1000
0010
0100
0001
,
1000
2002
3003
0010
,
0010
0001
1001
0010
,
0110
0000
0000
0100
0010
1000
0001
0000
,
0100
0000
1100
0000
0010
0001
0000
0001
1000
0000
0000
0000
1000
0001
0100
0000
,
0010
0000
1010
0000
1000
0001
0000
0001
0010
0000
0000
0100
1000
0001
0100
0000
,
0010
0000
1000
0100
1000
0000
0001
0010
0001
0000
0000
0000
1001
0000
0000
0000
,
0110
0000
1000
0100
1000
0000
0001
0010
0001
0000
0000
1000
0001
0100
0010
0000
,
0010
0000
1010
0000
0100
0010
0000
0010
1000
0000
0000
1000
0001
0010
0100
0000
,
0010
0000
0011
0000
0001
1000
0000
1000
0010
0000
0000
0100
0001
1000
0100
0000
,
0110
0000
0010
0001
0010
0000
0100
1000
0001
0000
0000
0000
1001
0000
0000
0000
,
0110
0000
0010
0100
0010
0000
0000
0000
0001
1000
0000
0001
0000
0020
0000
0000
,
0030
0000
0000
0000
;

//---------------dance-single - ----------------
#NOTES:
     dance-single:
     :
     Medium:
     5:
     0.371,0.437,0.363,0.029,0.039:
0000
0000
0000
0000
,
0000
0000
0000
0000
,
0000
0000
0000
0000
,
0000
0000
0000
0000
1000
0100
1000
0000
,
0001
0010
1000
0100
,
0001
0000
0000
0000
0001
0010
0001
0000
,
1000
0100
0001
0010
,
1000
0000
0000
0000
0001
0100
1000
0000
,
1001
0000
0100
0010
0000
0000
1001
0000
,
0010
0100
0000
0000
0010
0100
0010
0000
,
1001
0000
0010
0100
0000
0000
1000
0000
,
0001
0000
0000
0000
1000
0010
1000
0000
,
0001
0001
1000
0001
,
1001
0000
0000
0000
0001
0010
0001
0000
,
1000
1000
0010
0010
,
0100
0000
0000
0000
0010
1000
0010
0000
,
1010
0000
0010
0100
0000
0000
0101
0000
,
1000
0001
0000
0000
0010
0100
0010
0000
,
1001
0000
0001
1000
0000
0000
0010
0000
,
1010
0000
1000
0001
,
0012
0000
1000
0000
,
0103
0010
0010
1000
,
2010
0000
0001
0000
,
3100
0010
0001
1000
,
0012
0000
1000
0000
,
0103
0000
0010
1000
,
0001
0000
1000
0000
,
1001
0000
0100
0000
,
0000
0000
0010
0000
0000
1010
0000
0000
1001
0000
0000
0000
0100
0000
0100
0000
,
0000
0000
0010
0000
0000
0011
0000
0000
1001
0000
0000
0000
0001
0000
0001
0000
,
1000
0100
0001
0100
1000
0000
1001
0000
,
0001
0100
1000
0100
0001
0000
1001
0000
,
0000
0000
0010
0000
0000
1010
0000
0000
1001
0000
0000
0000
0000
0000
0000
0000
,
0000
0000
0010
0000
0000
0100
0000
0000
0110
0000
0000
0000
1000
0000
0000
0000
,
0001
0010
1000
0010
0001
0000
1001
0000
,
1000
0100
0001
0100
1000
0000
0000
0000
,
0001
0000
1000
0000
0001
0010
0001
0000
,
1000
0000
0000
1000
0000
0000
0000
0000
,
0010
0000
0010
0000
0100
1000
0100
0000
,
0001
0000
0000
0001
0000
0000
0000
0000
,
0010
0000
0010
0000
0100
0010
0100
0000
,
0010
0000
0000
0010
0000
0000
0000
0000
,
0001
0000
1000
0000
0001
1000
0001
0000
,
0100
1001
1001
1001
,
1000
0000
1000
0000
1000
0010
1000
0000
,
0010
1010
1000
0000
,
0001
0000
0001
0000
0001
0010
0001
0000
,
0001
0011
0001
0000
,
1000
0000
1000
0000
0010
1000
0010
1000
,
0010
1010
0000
0010
,
0001
0000
1000
0000
,
1001
0000
1000
0000
,
0000
0000
0001
0000
0000
0010
0000
0000
0011
0000
0000
0000
0000
0000
0000
0000
,
0000
0000
1000
0000
0000
0010
0000
0000
1010
0000
0000
0000
0000
0000
0000
0000
,
1000
0010
0001
0010
1000
0000
1001
0000
,
1000
0100
0001
0100
1000
0000
1001
0000
,
0000
0000
1000
0000
0000
0100
0000
0000
1100
0000
0000
0000
0010
0000
1000
0000
,
0000
0000
0001
0000
0000
0010
0000
0000
0011
0000
0000
0000
0100
0000
0000
0000
,
0001
0100
1000
0100
0001
0000
1001
0000
,
0001
0010
1000
0000
1001
0000
0000
0000
;

//---------------dance-single - ----------------
#NOTES:
     dance-single:
     :
     Easy:
     3:
     0.255,0.379,0.127,0.127,0.000: // measure 1
0000
0000
0000
0000
,  // measure 2
0000
0000
0000
0000
,  // measure 3
0000
0000
0000
0000
,  // measure 4
0000
0000
1000
1000
,  // measure 5
0001
0000
0001
0100
,  // measure 6
0001
0000
1000
1000
,  // measure 7
0010
0000
1000
0010
,  // measure 8
1000
0000
0001
0000
,  // measure 9
0010
0000
0100
0000
,  // measure 10
0010
0000
0001
0001
,  // measure 11
1000
0000
0010
0000
,  // measure 12
0100
0000
0010
0010
,  // measure 13
1000
0000
0001
1000
,  // measure 14
0001
0000
1000
1000
,  // measure 15
0100
0000
0010
0001
,  // measure 16
1000
0000
0001
1000
,  // measure 17
0010
0000
0100
0000
,  // measure 18
0010
0000
1000
1000
,  // measure 19
0001
0000
0010
0100
,  // measure 20
1000
0000
0010
1000
,  // measure 21
0020
0000
1000
0000
,  // measure 22
1030
0000
0100
1000
,  // measure 23
0020
0000
0100
0000
,  // measure 24
0130
0000
0001
1000
,  // measure 25
0002
0000
0010
0000
,  // measure 26
0013
0000
0100
1000
,  // measure 27
1001
0000
0100
0000
,  // measure 28
0010
0000
1000
0001
,  // measure 29
1000
1000
1001
0010
,  // measure 30
0001
0001
1001
0010
,  // measure 31
1001
0100
0010
0001
,  // measure 32
1001
0100
0010
1000
,  // measure 33
0001
0010
0022
0033
,  // measure 34
1000
0010
2020
3030
,  // measure 35
0001
0001
2000
3000
,  // measure 36
0001
1000
0020
0030
,  // measure 37
1000
0000
1000
0000
,  // measure 38
0001
0000
0001
0000
,  // measure 39
1000
0000
1000
0000
,  // measure 40
0001
0000
0001
0000
,  // measure 41
0010
0000
0100
0000
,  // measure 42
0010
0000
0010
0000
,  // measure 43
0100
0000
1000
0000
,  // measure 44
0001
0000
1000
0000
,  // measure 45
0001
0001
1000
0000
,  // measure 46
0010
0000
0100
0000
,  // measure 47
0010
0010
1000
0000
,  // measure 48
0001
0000
1000
0000
,  // measure 49
0001
0001
0010
0000
,  // measure 50
0100
0000
1000
0000
,  // measure 51
1001
0000
0100
0000
,  // measure 52
0010
0000
1001
0000
,  // measure 53
1000
1000
1010
0100
,  // measure 54
0001
0001
0011
0100
,  // measure 55
0020
1000
0130
0000
,  // measure 56
0020
0001
0130
1000
,  // measure 57
0001
1000
1001
0000
,  // measure 58
0100
0010
0110
0000
,  // measure 59
0020
1000
0130
0000
,  // measure 60
0020
0001
0130
0000
;

//---------------dance-single - ----------------
#NOTES:
     dance-single:
     :
     Beginner:
     2:
     0.141,0.204,0.020,0.029,0.000:
0000
0000
0000
0000
,
0000
0000
0000
0000
,
0000
0000
0000
0000
,
0000
0000
0000
0000
,
1000
0000
0000
0000
,
0001
0000
0000
0000
,
0010
0000
0000
0000
,
0100
0000
0000
0000
,
1000
0000
0001
0000
,
1000
0000
0000
0000
,
0001
0000
1000
0000
,
0001
0000
0000
0000
,
0100
0000
0010
0000
,
0100
0000
0000
0000
,
0010
0000
0010
0000
,
1000
0000
0000
0000
,
0001
0000
0001
0000
,
1000
0000
1000
0000
,
0010
0000
0100
0000
,
0010
0000
0000
0000
,
2000
0000
0000
3000
,
0000
0000
0000
0000
,
0002
0000
0000
0003
,
0000
0000
0000
0000
,
0200
0000
0000
0300
,
0000
0000
0000
0000
,
0010
0000
0010
0000
,
0100
0000
0100
0000
,
0000
0010
0010
0000
,
0000
0100
0100
0000
,
0010
0010
0010
0000
,
0100
0100
0100
0000
,
1000
1000
1000
0000
,
0001
0001
0001
0000
,
1000
0000
0001
0000
,
1000
0000
0001
0000
,
1000
0000
0000
0000
,
0010
0000
0000
0000
,
0001
0000
0000
0000
,
0010
0000
0000
0000
,
1000
0000
0000
0000
,
0100
0000
0000
0000
,
0010
0000
0000
0000
,
0001
0000
0000
0000
,
1000
0000
0001
0000
,
1000
0000
0001
0000
,
1000
0000
0001
0000
,
1000
0000
0001
0000
,
1000
0000
0010
0000
,
0001
0000
0010
0000
,
1000
0000
1000
0000
,
0001
0000
0001
0000
,
1000
0000
1001
0000
,
0001
0000
1001
0000
,
0010
0010
0010
0000
,
0010
0010
0010
0000
,
0100
0100
0100
0000
,
0010
0010
0010
0000
,
1000
1000
1000
0000
,
0001
0001
0001
0000
;
