#VERSION:0.81;
#TITLE:Kindness;
#SUBTITLE:;
#ARTIST:AcoustiMandoBrony;
#TITLETRANSLIT:;
#SUBTITLETRANSLIT:;
#ARTISTTRANSLIT:;
#GENRE:;
#ORIGIN:;
#CREDIT:;
#BANNER:banner.png;
#BACKGROUND:background.png;
#PREVIEWVID:;
#JACKET:jacket.png;
#CDIMAGE:;
#DISCIMAGE:;
#LYRICSPATH:;
#CDTITLE:;
#MUSIC:Kindness.mp3;
#OFFSET:-0.060;
#SAMPLESTART:63.077;
#SAMPLELENGTH:12.000;
#SELECTABLE:YES;
#BPMS:0.000=160.000;
#STOPS:;
#DELAYS:;
#WARPS:;
#TIMESIGNATURES:0.000=4=4;
#TICKCOUNTS:0.000=4;
#COMBOS:0.000=1;
#SPEEDS:0.000=1.000=0.000=0;
#SCROLLS:0.000=1.000;
#FAKES:;
#LABELS:0.000=Song Start;
#BGCHANGES:;
#KEYSOUNDS:;
#ATTACKS:
;

//---------------dance-single - ----------------
#NOTEDATA:;
#CHARTNAME:;
#STEPSTYPE:dance-single;
#DESCRIPTION:;
#CHARTSTYLE:;
#DIFFICULTY:Hard;
#METER:6;
#RADARVALUES:0.424,0.450,0.250,0.220,0.000,250.000,25.000,22.000,0.000,0.000,0.000,0.000,0.000,0.424,0.450,0.250,0.220,0.000,250.000,25.000,22.000,0.000,0.000,0.000,0.000,0.000;
#CREDIT:;
#OFFSET:-0.060;
#BPMS:0.000=160.000
,232.000=158.000
;
#STOPS:;
#DELAYS:;
#WARPS:;
#TIMESIGNATURES:0.000=4=4
;
#TICKCOUNTS:0.000=4
;
#COMBOS:0.000=1
;
#SPEEDS:0.000=1.000=0.000=0
;
#SCROLLS:0.000=1.000
;
#FAKES:;
#LABELS:0.000=Song Start
;
#NOTES:
// measure 0
0000
0000
0000
0000
,  // measure 1
0000
0000
0000
0000
,  // measure 2
0000
0000
0000
0000
,  // measure 3
0000
0000
0000
0000
,  // measure 4
0000
0000
0000
0000
,  // measure 5
0000
0000
0000
0000
,  // measure 6
0000
0000
0000
0000
,  // measure 7
0000
0000
0000
0000
,  // measure 8
1000
0000
0010
0000
0100
0001
0100
0010
,  // measure 9
1000
0000
0001
0000
0010
0100
0010
0000
,  // measure 10
0001
0000
1000
0000
0100
0001
0100
1000
,  // measure 11
0010
0000
0100
0000
0001
0010
0100
1000
,  // measure 12
0001
0000
0100
0000
0010
0100
0001
1000
,  // measure 13
0100
0000
0010
0000
0100
1000
0010
0000
,  // measure 14
0100
0000
0001
0000
0010
0100
0001
0100
,  // measure 15
1000
0000
0010
0000
0100
0001
1000
0000
,  // measure 16
0020
0000
0000
0000
,  // measure 17
0200
0000
0000
0330
,  // measure 18
1000
0100
0001
0100
1000
0000
0010
0000
,  // measure 19
0100
0001
0010
0000
0100
0000
1000
0001
,  // measure 20
0100
1000
0100
0010
1000
0000
0001
0000
,  // measure 21
0010
0100
0010
0000
0001
0000
1000
0100
,  // measure 22
1000
0010
0100
0001
0010
0000
0100
0000
,  // measure 23
1000
0001
0100
0000
0010
0000
0100
0001
,  // measure 24
0010
0100
1000
0001
0100
0000
0010
0000
,  // measure 25
0100
0001
1000
0000
0100
1000
0010
0100
,  // measure 26
0001
0010
0100
1000
,  // measure 27
0010
0100
0010
0000
1000
0000
0100
0000
,  // measure 28
1000
0001
0100
0010
,  // measure 29
1000
0100
1000
0000
0100
0000
0010
0000
,  // measure 30
0100
1000
0001
0100
0000
0100
0010
0000
,  // measure 31
1000
0100
1000
0000
0010
0000
0100
0001
,  // measure 32
0100
0010
1000
0001
0000
0001
0010
0000
,  // measure 33
0100
1000
0100
0000
0010
0000
0001
0010
,  // measure 34
0100
1000
0000
0010
0000
0100
0000
0001
,  // measure 35
0000
0010
0000
0100
0000
1100
0000
0010
,  // measure 36
0001
0100
0000
0010
0000
1000
0000
0010
,  // measure 37
0000
0100
0000
0001
1000
0100
0001
0100
,  // measure 38
1000
0010
0000
0001
0000
0100
0000
1000
,  // measure 39
0000
0010
0000
0100
0000
0001
0100
0010
,  // measure 40
1000
0100
0000
0010
0000
0001
0000
1000
,  // measure 41
0000
0010
0000
0100
0001
0010
1000
0010
,  // measure 42
0001
0101
1100
0101
,  // measure 43
1002
0010
0100
1003
,  // measure 44
0010
0110
1010
0110
,  // measure 45
0020
2030
3002
0013
,  // measure 46
0100
1100
0101
1100
,  // measure 47
0020
0230
0302
0013
,  // measure 48
0100
0110
0011
0110
,  // measure 49
0100
0000
1000
0000
0001
0100
1000
0100
,  // measure 50
0001
0011
1010
0011
,  // measure 51
2001
0010
0100
3001
,  // measure 52
0010
0011
0110
0011
,  // measure 53
0002
0203
0320
1030
,  // measure 54
0100
0101
1100
0101
,  // measure 55
0200
2300
3020
0032
,  // measure 56
1003
0100
0001
0000
0020
0000
0130
0000
,  // measure 57
2000
3001
0200
0310
,  // measure 58
2000
0000
0001
0000
,  // measure 59
0002
0000
0000
3003
,  // measure 60
1001
0000
0000
0000
;

//---------------dance-single - ----------------
#NOTEDATA:;
#CHARTNAME:;
#STEPSTYPE:dance-single;
#DESCRIPTION:;
#CHARTSTYLE:;
#DIFFICULTY:Beginner;
#METER:1;
#RADARVALUES:0.073,0.060,0.000,0.020,0.000,49.000,0.000,2.000,0.000,0.000,0.000,0.000,0.000,0.073,0.060,0.000,0.020,0.000,49.000,0.000,2.000,0.000,0.000,0.000,0.000,0.000;
#CREDIT:;
#NOTES:
0000
0000
0000
0000
,
0000
0000
0000
0000
,
0000
0000
0000
0000
,
0000
0000
0000
0000
,
0000
0000
0000
0000
,
0000
0000
0000
0000
,
0000
0000
0000
0000
,
0000
0000
0000
0000
,
0001
0000
0000
0000
,
0010
0000
0000
0000
,
0100
0000
0000
0000
,
1000
0000
0000
0000
,
0010
0000
0000
0000
,
0100
0000
0000
0000
,
0001
0000
0000
0000
,
1000
0000
0000
0000
,
0020
0000
0000
0000
,
0030
0000
0000
0000
,
0100
0000
0000
0000
,
0001
0000
0000
0000
,
0010
0000
0000
0000
,
0100
0000
0000
0000
,
1000
0000
0000
0000
,
0010
0000
0000
0000
,
0100
0000
0000
0000
,
0001
0000
0000
0000
,
0010
0000
0000
0000
,
0100
0000
0000
0000
,
1000
0000
0000
0000
,
0001
0000
0000
0000
,
0100
0000
0000
0000
,
0010
0000
0000
0000
,
1000
0000
0000
0000
,
0001
0000
0000
0000
,
1000
0000
0000
0000
,
0010
0000
0000
0000
,
1000
0000
0000
0000
,
0000
0000
0000
0000
,
0001
0000
0000
0000
,
0010
0000
0000
0000
,
0001
0000
0000
0000
,
1000
0000
0000
0000
,
1000
0000
0000
0000
,
1000
0000
0000
0000
,
0010
0000
0000
0000
,
0010
0000
0000
0000
,
0100
0000
0000
0000
,
0100
0000
0000
0000
,
0001
0000
0000
0000
,
0001
0000
0000
0000
,
1000
0000
0000
0000
,
1000
0000
0000
0000
,
0100
0000
0000
0000
,
0100
0000
0000
0000
,
0010
0000
0000
0000
,
0010
0000
0000
0000
,
0001
0000
0000
0000
,
0001
0000
0000
0000
,
2000
0000
0000
0000
,
0000
0000
0000
3000
;

//---------------dance-single - ----------------
#NOTEDATA:;
#CHARTNAME:;
#STEPSTYPE:dance-single;
#DESCRIPTION:;
#CHARTSTYLE:;
#DIFFICULTY:Easy;
#METER:3;
#RADARVALUES:0.206,0.240,0.000,0.080,0.000,136.000,0.000,8.000,0.000,0.000,0.000,0.000,0.000,0.206,0.240,0.000,0.080,0.000,136.000,0.000,8.000,0.000,0.000,0.000,0.000,0.000;
#CREDIT:;
#NOTES:
// measure 0
0000
0000
0000
0000
,  // measure 1
0000
0000
0000
0000
,  // measure 2
0000
0000
0000
0000
,  // measure 3
0000
0000
0000
0000
,  // measure 4
0000
0000
0000
0000
,  // measure 5
0000
0000
0000
0000
,  // measure 6
0000
0000
0000
0000
,  // measure 7
0000
0000
0000
0000
,  // measure 8
1000
0000
0100
0000
,  // measure 9
1000
0000
0000
0000
,  // measure 10
0001
0000
0010
0000
,  // measure 11
0001
0000
0000
0000
,  // measure 12
0100
0000
0010
0000
,  // measure 13
0100
0000
0000
0000
,  // measure 14
0010
0000
1000
0000
,  // measure 15
0010
0000
0000
0000
,  // measure 16
2000
0000
0000
0000
,  // measure 17
0000
0000
0000
3000
,  // measure 18
0010
0000
0100
0000
,  // measure 19
0010
1000
0100
0000
,  // measure 20
0010
0000
0100
0000
,  // measure 21
1000
0001
0100
0000
,  // measure 22
0010
0000
1000
0000
,  // measure 23
0001
0010
0100
0000
,  // measure 24
0001
0000
1000
0000
,  // measure 25
0010
0001
0100
0000
,  // measure 26
0010
0000
1000
0000
,  // measure 27
0100
1000
0001
0100
,  // measure 28
0010
0000
0100
0000
,  // measure 29
0001
0010
0100
0000
,  // measure 30
1000
0000
0010
0000
,  // measure 31
0100
0001
1000
0000
,  // measure 32
0100
0000
0010
0000
,  // measure 33
0001
1000
0010
0000
,  // measure 34
0100
0001
0010
0100
,  // measure 35
1000
0001
0100
0000
,  // measure 36
0010
1000
0100
0001
,  // measure 37
0100
1000
0010
0000
,  // measure 38
0100
0001
0010
0100
,  // measure 39
1000
0001
0100
0000
,  // measure 40
0001
0010
1000
0001
,  // measure 41
1000
0010
0001
0100
,  // measure 42
0000
0010
1000
0100
,  // measure 43
0001
0100
1000
0010
,  // measure 44
0000
0100
0001
1000
,  // measure 45
0100
0010
0200
0300
,  // measure 46
0000
1000
0010
0100
,  // measure 47
0001
0010
0100
1000
,  // measure 48
0000
1000
0001
0100
,  // measure 49
0010
0100
0002
0003
,  // measure 50
0000
0010
1000
0010
,  // measure 51
0100
1000
0010
0100
,  // measure 52
0000
0001
0010
1000
,  // measure 53
0010
0001
0200
0300
,  // measure 54
0000
0010
1000
0100
,  // measure 55
0001
0100
1000
0010
,  // measure 56
0000
0100
0002
0003
,  // measure 57
0020
0030
0200
0300
,  // measure 58
2000
0000
0000
0000
,  // measure 59
0001
0000
0000
3000
,  // measure 60
0100
0000
0000
0000
;

//---------------dance-single - ----------------
#NOTEDATA:;
#CHARTNAME:;
#STEPSTYPE:dance-single;
#DESCRIPTION:;
#CHARTSTYLE:;
#DIFFICULTY:Medium;
#METER:5;
#RADARVALUES:0.356,0.420,0.050,0.450,0.000,199.000,5.000,45.000,0.000,0.000,0.000,0.000,0.000,0.356,0.420,0.050,0.450,0.000,199.000,5.000,45.000,0.000,0.000,0.000,0.000,0.000;
#CREDIT:;
#NOTES:
// measure 0
0000
0000
0000
0000
,  // measure 1
0000
0000
0000
0000
,  // measure 2
0000
0000
0000
0000
,  // measure 3
0000
0000
0000
0000
,  // measure 4
0000
0000
0000
0000
,  // measure 5
0000
0000
0000
0000
,  // measure 6
0000
0000
0000
0000
,  // measure 7
0000
0000
0000
0000
,  // measure 8
0010
1000
0100
1000
,  // measure 9
0001
0100
0010
1000
,  // measure 10
0001
0010
0100
1000
,  // measure 11
0010
0100
0001
0000
,  // measure 12
0001
0010
0100
1000
,  // measure 13
0010
0100
0010
1000
,  // measure 14
0001
0010
0100
0010
,  // measure 15
0001
0100
0010
0000
,  // measure 16
2000
0000
0000
0000
,  // measure 17
0001
0000
0000
3000
,  // measure 18
0010
0100
0001
0100
,  // measure 19
0010
1000
0010
0000
0100
0000
0001
0000
,  // measure 20
1000
0100
0010
0100
,  // measure 21
0001
0100
0001
0000
0100
0000
0010
0000
,  // measure 22
0001
0010
0001
0100
,  // measure 23
0010
1000
0010
0000
0100
0000
0001
0000
,  // measure 24
1000
0100
1000
0010
,  // measure 25
1000
0001
1000
0000
0001
0000
0100
0000
,  // measure 26
0010
1000
0000
1000
,  // measure 27
0010
0100
0010
0000
0100
0000
0001
0000
,  // measure 28
0010
0100
0000
0100
,  // measure 29
1000
0001
1000
0000
0010
0000
0100
0000
,  // measure 30
0001
0010
0000
0010
,  // measure 31
0001
1000
0001
0000
0100
0000
0010
0000
,  // measure 32
1000
0100
0000
0100
,  // measure 33
1000
0010
1000
0000
0001
0000
0100
0000
,  // measure 34
0010
1000
0100
0001
,  // measure 35
0100
0000
1000
0000
0010
0100
0000
0010
,  // measure 36
0100
0001
0010
0100
,  // measure 37
1000
0000
0001
0000
0100
0010
0100
0010
,  // measure 38
0100
0001
0010
0100
,  // measure 39
1000
0000
0001
0000
0100
0010
0000
0100
,  // measure 40
0010
1000
0100
0010
,  // measure 41
0001
0100
1000
0100
0001
0000
1001
0000
,  // measure 42
0000
0020
2030
3200
,  // measure 43
0320
0230
2300
3001
,  // measure 44
0000
0200
0320
0230
,  // measure 45
0302
0023
0130
1001
,  // measure 46
0100
0020
2030
3002
,  // measure 47
0023
0230
2300
3001
,  // measure 48
0000
0200
0320
0230
,  // measure 49
0302
2003
3100
0110
,  // measure 50
0010
0002
0203
2300
,  // measure 51
3200
0302
0023
0130
,  // measure 52
0000
2000
3020
0230
,  // measure 53
0302
2003
3100
0110
,  // measure 54
0001
0020
0032
0203
,  // measure 55
2300
3200
0320
1030
,  // measure 56
0001
0010
0200
0000
,  // measure 57
2300
0000
3002
0000
,  // measure 58
0203
0000
0010
0000
,  // measure 59
0020
0000
0000
0330
,  // measure 60
1001
0000
0000
0000
;
