#TITLE:Katamari on the Rocks;
#SUBTITLE:;
#ARTIST:Yu Miyake;
#TITLETRANSLIT:;
#SUBTITLETRANSLIT:;
#ARTISTTRANSLIT:;
#GENRE:;
#CREDIT:;
#BANNER:[Male Vocalists] - Katamari on the Rocks.png;
#BACKGROUND:[Male Vocalists] - Katamari on the Rocks-bg.png;
#LYRICSPATH:;
#CDTITLE:;
#MUSIC:[Male Vocalists] - Katamari on the Rocks.mp3;
#OFFSET:-0.360;
#SAMPLESTART:49.867;
#SAMPLELENGTH:15.000;
#SELECTABLE:YES;
#BPMS:0.000=160.000
,131.000=159.700
,132.000=160.000
;
#STOPS:
;
#BGCHANGES:;
#KEYSOUNDS:;
#ATTACKS:;

//---------------dance-single - ----------------
#NOTES:
     dance-single:
     :
     Hard:
     7:
     0.516,0.556,0.421,0.294,0.015,296.000,43.000,30.000,0.000,0.000,0.000,0.516,0.556,0.421,0.294,0.015,296.000,43.000,30.000,0.000,0.000,0.000: // measure 0
0000
0000
0000
0000
,  // measure 1
0000
0000
0000
0000
,  // measure 2
0000
0000
0000
0000
,  // measure 3
0000
0000
0000
0000
,  // measure 4
0000
0000
0000
0000
,  // measure 5
1001
0000
0000
0000
0001
0000
0010
0000
0000
0010
0001
0000
0010
0000
0000
0000
,  // measure 6
0110
0000
0000
0000
0100
0000
1000
0000
0000
1000
0100
0000
1000
0000
0000
0000
,  // measure 7
1010
0000
0000
0000
0100
0000
0001
0000
0000
0001
0100
0000
0001
0000
0000
0000
,  // measure 8
0202
0000
0000
0303
,  // measure 9
0110
0000
0000
1001
0000
0000
0110
0000
,  // measure 10
0000
1001
0000
0001
0010
0100
1000
0000
,  // measure 11
1100
0000
0000
0011
0000
0000
1100
0000
,  // measure 12
0000
0101
0000
1000
0100
0010
0001
0000
,  // measure 13
0011
0000
0000
1100
0000
0000
0011
0000
,  // measure 14
0000
1010
0000
0001
0100
0010
1000
0000
,  // measure 15
1010
0000
0000
0101
0000
0000
0011
0000
,  // measure 16
0000
1100
0000
1000
0010
0100
0001
0000
,  // measure 17
2000
0000
0100
0000
0100
0100
0000
0010
,  // measure 18
0000
0010
0000
0010
0010
0000
3010
0000
,  // measure 19
0002
0000
0010
0000
0010
0010
0000
0100
,  // measure 20
0000
0100
0000
0100
0100
0000
0103
0000
,  // measure 21
2000
0000
0010
0000
0010
0010
0000
0100
,  // measure 22
0000
0100
0000
0001
0001
0000
3001
0000
,  // measure 23
0002
0000
0100
0000
0100
0100
0000
0010
,  // measure 24
0000
0010
0000
1000
1000
0000
1003
0000
,  // measure 25
0001
0000
0100
0000
0001
0010
0000
0001
,  // measure 26
0000
0100
0000
0001
1000
0000
0001
0000
,  // measure 27
1000
0000
0010
0000
1000
0100
0000
1000
,  // measure 28
0000
0001
0000
1000
0010
0000
1000
0000
,  // measure 29
0010
0000
0100
0000
0010
1000
0000
0010
,  // measure 30
0000
0001
0000
0010
1000
0000
0010
0000
,  // measure 31
0100
0000
0010
0000
0100
1000
0000
0100
,  // measure 32
0000
0001
0000
0100
0001
0010
0100
1000
,  // measure 33
0001
0000
0010
0000
1000
0010
0100
0001
,  // measure 34
0100
0010
0000
1000
0000
0001
0000
1000
,  // measure 35
0010
0010
0100
0100
0001
0010
0000
0110
,  // measure 36
0000
0100
0000
1000
0100
0000
0010
1000
,  // measure 37
0001
0000
1000
0000
0010
1000
0100
1000
,  // measure 38
0010
0100
0000
0001
0000
0100
0000
0010
,  // measure 39
1000
1000
0100
0100
0010
0001
0000
1001
,  // measure 40
0000
1000
0000
0010
0100
0000
0001
0100
,  // measure 41
0010
0000
1000
0000
0001
0010
0100
1000
,  // measure 42
0100
0010
0000
0001
0000
1000
0000
0001
,  // measure 43
0100
0100
0010
0010
1000
0100
0000
1010
,  // measure 44
0000
0010
0000
0100
0010
0000
0010
0100
,  // measure 45
0001
0000
0100
0000
1000
0100
0001
0100
,  // measure 46
1000
0010
0000
0100
0000
0010
0000
0001
,  // measure 47
1000
1000
0010
0010
0100
0001
0000
2000
,  // measure 48
0000
3200
0000
0320
0000
0032
0000
1003
,  // measure 49
0001
0000
2010
0000
3002
0000
0103
0010
,  // measure 50
0100
0001
0000
1100
0000
1010
0000
0101
,  // measure 51
0012
0103
2100
3010
,  // measure 52
0000
0011
0000
0001
0010
0000
0011
0001
,  // measure 53
0100
0000
0120
0000
2030
0000
3001
1000
,  // measure 54
0010
0100
0000
0110
0000
0101
0000
1100
,  // measure 55
2010
0000
3100
0000
0102
0000
0013
0001
,  // measure 56
0200
0000
0000
0010
0000
0000
0301
1000
,  // measure 57
0100
2000
3002
0203
,  // measure 58
0320
0000
0000
0000
1030
0100
0010
0001
,  // measure 59
1000
1000
0010
0010
0100
0001
0000
0011
,  // measure 60
0000
0001
0000
0010
0100
0000
1000
0100
,  // measure 61
0010
0000
0012
0000
0203
0000
0310
1000
,  // measure 62
0010
0100
0000
0110
0000
1010
0000
0101
,  // measure 63
0100
0001
0100
0001
0010
0001
0000
0020
,  // measure 64
0000
0230
0000
0320
0000
0031
0000
2002
,  // measure 65
0000
0000
0000
0000
,  // measure 66
0000
0000
0000
3003
;

//---------------dance-single - ----------------
#NOTES:
     dance-single:
     :
     Beginner:
     1:
     0.145,0.163,0.049,0.088,0.000,90.000,5.000,9.000,0.000,0.000,0.000,0.145,0.163,0.049,0.088,0.000,90.000,5.000,9.000,0.000,0.000,0.000: // measure 0
0000
0000
0000
0000
,  // measure 1
0000
0000
0000
0000
,  // measure 2
0000
0000
0000
0000
,  // measure 3
0000
0000
0000
0000
,  // measure 4
0000
0000
0000
0000
,  // measure 5
2000
0000
0000
0000
,  // measure 6
3000
0000
0000
0000
,  // measure 7
0002
0000
0000
0000
,  // measure 8
0003
0000
0000
0000
,  // measure 9
0010
0000
0000
0000
,  // measure 10
0100
0000
0000
0000
,  // measure 11
0010
0000
0000
0000
,  // measure 12
0100
0000
0000
0000
,  // measure 13
0001
0000
0000
0000
,  // measure 14
1000
0000
0000
0000
,  // measure 15
0001
0000
0000
0000
,  // measure 16
1000
0000
0000
0000
,  // measure 17
0002
0000
0000
0000
,  // measure 18
0003
0000
0000
0000
,  // measure 19
0020
0000
0000
0000
,  // measure 20
0030
0000
0000
0000
,  // measure 21
0200
0000
0000
0000
,  // measure 22
0300
0000
0000
0000
,  // measure 23
2000
0000
0000
0000
,  // measure 24
3000
0000
0000
0000
,  // measure 25
0001
0000
0000
0000
,  // measure 26
0010
0000
0000
0000
,  // measure 27
0100
0000
0000
0000
,  // measure 28
1000
0000
0000
0000
,  // measure 29
1000
0000
0000
0000
,  // measure 30
0100
0000
0000
0000
,  // measure 31
0010
0000
0000
0000
,  // measure 32
0001
0000
0010
0000
,  // measure 33
0110
0000
0100
0000
,  // measure 34
0010
0000
0000
0000
,  // measure 35
1000
1000
1000
1000
,  // measure 36
1000
0000
0000
0000
,  // measure 37
1001
0000
0001
0000
,  // measure 38
1000
0000
0000
0000
,  // measure 39
0010
0010
0010
0010
,  // measure 40
0010
0000
0000
0000
,  // measure 41
0110
0000
0010
0000
,  // measure 42
0100
0000
0000
0000
,  // measure 43
0001
0001
0001
0001
,  // measure 44
0001
0000
0000
0000
,  // measure 45
1001
0000
1000
0000
,  // measure 46
0001
0000
0000
0000
,  // measure 47
0100
0100
0100
0100
,  // measure 48
0200
0000
0300
0000
,  // measure 49
0001
0000
0010
0000
,  // measure 50
0001
0000
0100
0000
,  // measure 51
0001
0000
1000
0000
,  // measure 52
0001
0001
0001
0000
,  // measure 53
1000
0000
0100
0000
,  // measure 54
1000
0000
0010
0000
,  // measure 55
1000
0000
0001
0000
,  // measure 56
1000
1000
1000
0000
,  // measure 57
0010
0000
0100
0000
,  // measure 58
0010
0000
1000
0000
,  // measure 59
0010
0000
0001
0000
,  // measure 60
0010
0010
0010
0000
,  // measure 61
0100
0000
0001
0000
,  // measure 62
0100
0000
1000
0000
,  // measure 63
0100
0000
0010
0000
,  // measure 64
0100
0000
0000
0000
0000
0000
0000
2002
,  // measure 65
0000
0000
0000
0000
,  // measure 66
0000
0000
0000
3003
;

//---------------dance-single - ----------------
#NOTES:
     dance-single:
     :
     Easy:
     4:
     0.302,0.360,0.039,0.284,0.000,183.000,4.000,29.000,0.000,0.000,0.000,0.302,0.360,0.039,0.284,0.000,183.000,4.000,29.000,0.000,0.000,0.000: // measure 0
0000
0000
0000
0000
,  // measure 1
0000
0000
0000
0000
,  // measure 2
0000
0000
0000
0000
,  // measure 3
0000
0000
0000
0000
,  // measure 4
0000
0000
0000
0000
,  // measure 5
1000
0100
1000
0000
,  // measure 6
0001
0010
0001
0000
,  // measure 7
0100
0010
0100
0000
,  // measure 8
2002
0000
0000
3003
,  // measure 9
1000
0000
0000
0100
0000
0000
0010
0000
,  // measure 10
0000
0001
0000
0000
0010
0000
0100
0000
,  // measure 11
0010
0000
0000
0001
0000
0000
0100
0000
,  // measure 12
0000
0001
0000
0000
1000
0000
0001
0000
,  // measure 13
0100
0000
0000
0010
0000
0000
1000
0000
,  // measure 14
0000
0001
0000
0000
0100
0000
0001
0000
,  // measure 15
0010
0000
0000
0001
0000
0000
0100
0000
,  // measure 16
0000
0010
0000
0000
0100
0000
0010
0000
,  // measure 17
2000
0000
0000
0000
0000
0000
0000
0200
,  // measure 18
0000
0000
3300
0000
,  // measure 19
0002
0000
0000
0000
0000
0000
0000
0020
,  // measure 20
0000
0000
0033
0000
,  // measure 21
0200
0000
0000
0000
0000
0000
0000
0020
,  // measure 22
0000
0000
0330
0000
,  // measure 23
0002
0000
0000
0000
0000
0000
0000
2000
,  // measure 24
0000
0000
3003
0000
,  // measure 25
1000
0000
0100
0000
1000
0000
0000
0100
,  // measure 26
0000
0100
0010
0001
,  // measure 27
0010
0000
0001
0000
0100
0000
0000
0010
,  // measure 28
0000
0100
1000
0100
,  // measure 29
0010
0000
0100
0000
0010
0000
0000
0100
,  // measure 30
0000
0010
0001
0010
,  // measure 31
2000
0000
0100
0000
0010
0000
0000
3010
,  // measure 32
0000
0100
0010
0001
,  // measure 33
1001
1000
0010
0100
,  // measure 34
0010
1000
0010
0100
,  // measure 35
0010
0001
0010
0100
,  // measure 36
0010
0001
0010
0000
,  // measure 37
0001
1000
0100
1000
,  // measure 38
0001
1000
0100
1000
,  // measure 39
0001
0100
0010
0100
,  // measure 40
0001
0100
0010
0000
,  // measure 41
1000
0010
0001
0010
,  // measure 42
1000
0010
0001
0010
,  // measure 43
1000
0100
0010
0001
,  // measure 44
0010
0100
0010
0000
,  // measure 45
0010
1000
0010
0100
,  // measure 46
0010
0001
0010
0100
,  // measure 47
0010
1000
0010
0100
,  // measure 48
0001
0010
0100
1000
,  // measure 49
1000
0002
0203
0300
,  // measure 50
0000
0000
0000
1000
0000
0001
0000
1000
,  // measure 51
0002
0013
0200
1300
,  // measure 52
0000
1000
0000
0010
1000
0000
0010
0000
,  // measure 53
1000
0200
0320
0030
,  // measure 54
0000
0000
0000
0010
0000
0100
0000
0010
,  // measure 55
0200
0301
0020
1030
,  // measure 56
0220
0000
0000
0330
,  // measure 57
1000
0002
0023
0230
,  // measure 58
2300
0000
3010
0100
,  // measure 59
0001
0100
0001
0010
,  // measure 60
0001
1000
0001
0000
,  // measure 61
1000
0020
0230
0300
,  // measure 62
0000
0000
0000
0001
0000
0100
0000
0001
,  // measure 63
0100
0000
0010
0000
0001
0000
0000
1000
,  // measure 64
0000
0000
0100
0000
0010
0000
0000
2002
,  // measure 65
0000
0000
0000
0000
,  // measure 66
0000
0000
0000
3003
;

//---------------dance-single - ----------------
#NOTES:
     dance-single:
     :
     Medium:
     5:
     0.407,0.425,0.127,0.323,0.034,245.000,13.000,33.000,0.000,0.000,0.000,0.407,0.425,0.127,0.323,0.034,245.000,13.000,33.000,0.000,0.000,0.000: // measure 0
0000
0000
0000
0000
,  // measure 1
0000
0000
0000
0000
,  // measure 2
0000
0000
0000
0000
,  // measure 3
0000
0000
0000
0000
,  // measure 4
0000
0000
0000
0000
,  // measure 5
1001
0000
0000
0000
0000
0000
1000
0000
0000
0100
0000
0000
1000
0000
0000
0000
,  // measure 6
1100
0000
0000
0000
0000
0000
0010
0000
0000
0001
0000
0000
0010
0000
0000
0000
,  // measure 7
0011
0000
0000
0000
0000
0000
0010
0000
0000
0100
0000
0000
0010
0000
0000
0000
,  // measure 8
0220
0000
0000
0330
,  // measure 9
0001
0000
0000
0010
0000
0000
0001
0000
,  // measure 10
0000
0100
0000
0001
0010
0100
1000
0000
,  // measure 11
1000
0000
0000
0010
0000
0000
1000
0000
,  // measure 12
0000
0100
0000
1000
0100
0010
0001
0000
,  // measure 13
0010
0000
0000
0100
0000
0000
1000
0000
,  // measure 14
0000
0100
0000
0010
0001
0010
0100
0000
,  // measure 15
0001
0000
0000
1000
0000
0000
0001
0000
,  // measure 16
0000
0100
0000
0001
0100
0010
1000
0000
,  // measure 17
0002
0000
0100
0000
0100
0000
0000
0010
,  // measure 18
0000
0010
0000
0000
0100
0000
0103
0000
,  // measure 19
2000
0000
0010
0000
0010
0000
0000
0100
,  // measure 20
0000
0100
0000
0000
0010
0000
3010
0000
,  // measure 21
0020
0000
0100
0000
0100
0000
0000
1000
,  // measure 22
0000
1000
0000
0000
0100
0000
0130
0000
,  // measure 23
0200
0000
0010
0000
0010
0000
0000
0001
,  // measure 24
0000
0001
0000
0000
0010
0000
0310
0000
,  // measure 25
0110
0000
0000
0000
0000
0000
0100
0000
0000
0001
0000
0000
0100
0000
0000
0000
,  // measure 26
0101
0000
0000
0000
0000
0000
0010
0000
0000
1000
0000
0000
0010
0000
0000
0000
,  // measure 27
1010
0000
0000
0000
0000
0000
0100
0000
0000
1000
0000
0000
0100
0000
0000
0000
,  // measure 28
1100
0000
0000
0000
0000
0000
0010
0000
0000
0001
0000
0000
0010
0000
0000
0000
,  // measure 29
0011
0000
0001
0000
0100
0001
0000
0010
,  // measure 30
0000
0010
0000
0001
0100
0000
0001
0000
,  // measure 31
1000
0000
0010
0000
1000
0010
0000
0100
,  // measure 32
0000
0100
0000
0010
1000
0000
0010
1000
,  // measure 33
0002
0000
0000
0000
0000
0013
0100
1000
,  // measure 34
0100
0010
0000
0001
0000
0010
0000
0100
,  // measure 35
1000
0000
0010
0000
0100
0001
0000
0200
,  // measure 36
0000
0000
0010
0000
0310
0000
0000
0100
,  // measure 37
0020
0000
0000
0000
0000
1030
0010
0100
,  // measure 38
0010
1000
0000
0001
0000
1000
0000
0001
,  // measure 39
0010
0000
0001
0000
0100
0010
0000
2000
,  // measure 40
0000
0000
0001
0000
3001
0000
0000
0001
,  // measure 41
2000
0000
0000
0000
0000
3010
0100
0001
,  // measure 42
0100
0010
0000
1000
0000
0010
0000
0100
,  // measure 43
0001
0000
1000
0000
0100
0010
0000
0200
,  // measure 44
0000
0000
0010
0000
0310
0000
0000
0010
,  // measure 45
0200
0000
0000
0000
0000
0310
1000
0100
,  // measure 46
1000
0010
0000
0100
0000
0001
0000
1000
,  // measure 47
0001
0000
0100
0000
0001
0010
0000
0001
,  // measure 48
0000
0010
0000
0100
0000
1000
0000
1000
,  // measure 49
0010
0200
0302
0013
,  // measure 50
0001
0000
0010
0001
0000
0100
0000
0010
,  // measure 51
2000
3100
0020
0031
,  // measure 52
0100
0010
0000
0100
0010
0000
0100
0000
,  // measure 53
1000
0002
0203
0310
,  // measure 54
1000
0000
0010
0100
0000
0001
0000
0100
,  // measure 55
0020
0000
1030
0000
0200
0000
0310
0100
,  // measure 56
2000
0001
0001
3001
,  // measure 57
1001
0002
0203
0320
,  // measure 58
2030
0000
0000
0000
3001
0010
0100
1000
,  // measure 59
0200
0000
0000
0300
,  // measure 60
0000
0110
0000
0010
0100
0000
0110
0000
,  // measure 61
1000
0002
0203
0301
,  // measure 62
0010
0000
0100
1000
0000
0010
0000
0100
,  // measure 63
0002
0000
0023
0000
0031
0010
0000
0100
,  // measure 64
0000
1000
0000
0100
0000
0010
0000
2002
,  // measure 65
0000
0000
0000
0000
,  // measure 66
0000
0000
0000
3003
;
