#TITLE:悲しみのスコール;
#SUBTITLE:;
#ARTIST:総史;
#TITLETRANSLIT:Kanashimi no SQUALL;
#SUBTITLETRANSLIT:;
#ARTISTTRANSLIT:Sasho;
#CREDIT:;
#BANNER:Kanashimi no SQUALL.png;
#BACKGROUND:Kanashimi no SQUALL-bg.png;
#LYRICSPATH:;
#CDTITLE:;
#MUSIC:Kanashimi no SQUALL.mp3;
#OFFSET:-0.204;
#SAMPLESTART:64.140;
#SAMPLELENGTH:18.820;
#SELECTABLE:YES;
#BPMS:0.000=180.000;
#STOPS:;
#BGCHANGES:;

//---------------dance-single - ----------------
#NOTES:
     dance-single:
     :
     Hard:
     9:
     0.852,0.883,0.429,0.720,0.115: // measure 1
0000
0000
0000
0000
,  // measure 2
0000
0000
0000
0000
,  // measure 3
0000
0000
0000
0000
,  // measure 4
0000
0000
0000
0000
,  // measure 5
1000
0100
0010
0100
2000
0000
0001
3001
,  // measure 6
0000
1000
0010
0100
0101
0000
1100
0000
,  // measure 7
0001
0000
0010
0000
0100
0000
1000
0001
1000
0000
0010
0000
0100
0000
0001
1000
,  // measure 8
0001
0010
1000
0010
0200
0000
0310
0000
,  // measure 9
0001
0100
0010
0100
0001
0000
0010
0100
,  // measure 10
0000
1000
0100
0010
0001
0001
1000
1000
,  // measure 11
0001
0000
0101
0000
1000
0100
1000
0001
,  // measure 12
1000
0010
0101
0000
1100
0000
1001
0000
,  // measure 13
1000
0010
0100
0010
1000
0000
0100
0010
,  // measure 14
0000
0001
0010
0100
1000
1000
0001
0001
,  // measure 15
1000
0000
1010
0000
0001
0010
0001
1000
,  // measure 16
0010
0100
0001
0000
1010
0000
0011
0000
,  // measure 17
1002
0000
0103
0000
0001
0010
1000
0010
,  // measure 18
0200
1300
1100
0101
,  // measure 19
1002
0000
0013
0000
0001
0100
1000
0100
,  // measure 20
0020
1030
1100
0101
,  // measure 21
2000
0000
3100
0100
0002
0000
0103
0100
,  // measure 22
2000
3001
0101
1100
,  // measure 23
0001
0010
0100
0000
1000
0010
0100
0000
,  // measure 24
0001
0000
1000
0000
0010
0100
0010
0100
0010
0000
2002
0000
0000
0000
3003
0000
,  // measure 25
2000
0000
3001
2000
3100
0022
0000
0033
,  // measure 26
0002
0000
1003
0002
0103
2020
0000
3030
,  // measure 27
1000
0100
0010
0001
1000
0010
0100
0001
,  // measure 28
1000
0000
0010
0000
0001
0000
0010
0000
1000
0000
2002
0000
3003
0000
0001
0100
,  // measure 29
0002
0000
1003
0002
0013
2200
0000
3300
,  // measure 30
2000
0000
3001
2000
3010
0202
0000
0303
,  // measure 31
0001
0010
0100
1000
0001
0100
0010
1000
,  // measure 32
0001
0000
0100
0000
1000
0000
0100
0000
0001
0000
2002
0000
3003
0000
1000
0010
,  // measure 33
2000
0000
3001
0000
1000
0100
0001
0100
,  // measure 34
0020
0130
1100
0101
,  // measure 35
0002
0000
0103
0000
0001
0010
1000
0010
,  // measure 36
0100
1100
0101
1100
,  // measure 37
1002
0000
0013
0010
0200
0000
1300
0000
,  // measure 38
0020
0130
0002
1003
,  // measure 39
0200
0000
1300
0000
0001
0010
1000
0010
,  // measure 40
0001
0000
0000
0000
0100
0010
0100
0010
0100
0000
2002
0000
0000
0000
3003
0000
,  // measure 41
0002
0000
1003
0000
0001
0010
1000
0010
,  // measure 42
0200
0310
0011
1010
,  // measure 43
2000
0000
3010
0000
1000
0100
0001
0100
,  // measure 44
0010
0000
0000
0000
0001
1000
0001
1000
0001
0000
0220
0000
0000
0000
0330
0000
,  // measure 45
2000
0000
0010
0000
3100
0000
1000
0100
,  // measure 46
0020
0000
0031
0000
1000
0100
0001
0100
,  // measure 47
0010
0000
1001
0000
0001
0100
0010
0000
,  // measure 48
1000
0000
0100
0000
0010
0001
1000
0010
0100
0000
2002
0000
0000
0000
3003
0000
,  // measure 49
0010
1000
0100
0010
0001
0100
0010
1000
,  // measure 50
0100
0010
0001
0100
0010
1000
0001
0100
,  // measure 51
0001
0010
0100
1000
0010
0100
0001
0010
,  // measure 52
0100
1000
0010
0100
0002
0000
1003
0000
,  // measure 53
0001
0010
0100
1000
0100
0010
0001
0100
,  // measure 54
0010
1000
0010
0100
0001
0010
0100
0000
,  // measure 55
1000
0100
0001
0100
1000
0010
0001
0010
,  // measure 56
2000
3001
1100
0101
,  // measure 57
1000
0100
0001
1000
0010
0001
1000
0010
,  // measure 58
0001
1000
0100
0001
1000
0100
0010
0001
,  // measure 59
1000
0010
0001
1000
0100
0001
1000
0100
,  // measure 60
0001
0000
0100
0000
1000
0001
1000
0001
1000
0000
0220
0000
0000
0000
0330
0000
,  // measure 61
0001
0010
1000
0001
0100
1000
0001
1000
,  // measure 62
0001
0000
0101
0000
2000
0000
0100
3100
,  // measure 63
1000
0000
0010
0000
0110
0000
0000
0000
0101
0000
0000
0000
0001
1000
0001
0000
,  // measure 64
0010
0000
0100
0000
1100
0000
0000
0000
1001
0000
0000
0000
0001
0100
0001
0000
,  // measure 65
1000
1000
0020
0100
0130
0002
0013
2000
,  // measure 66
3010
0010
0002
1000
1003
0002
0103
2000
,  // measure 67
3100
0100
0020
1030
0001
0001
0200
0310
,  // measure 68
1000
1000
0200
0301
0001
0200
0310
0002
,  // measure 69
1003
1000
0200
0010
0310
0002
0103
2000
,  // measure 70
3100
0100
0002
1000
1003
0002
0013
2000
,  // measure 71
3010
0010
0200
1300
0001
0001
0020
0130
,  // measure 72
1000
0000
1000
0000
0020
0000
0031
0000
0020
0000
0130
0001
1000
0001
1000
0001
,  // measure 73
1000
0100
0002
0103
1000
0010
0200
1300
,  // measure 74
0100
0010
2000
3100
0001
0100
0020
0031
,  // measure 75
1000
0010
0002
0013
0100
0001
2000
3001
,  // measure 76
0100
1000
0200
0310
1000
0100
0002
0103
,  // measure 77
0010
0001
2000
3010
0100
1000
0200
0301
,  // measure 78
0100
0010
2000
3010
0001
0010
0200
0301
,  // measure 79
1000
0000
0100
0000
0011
0000
0000
0000
0101
0000
0000
0000
0001
1000
0001
0000
,  // measure 80
0100
0000
0010
0000
1010
0000
0000
0000
0110
0000
0000
0000
0100
0001
0100
0000
,  // measure 81
0001
0100
0010
0100
0002
0000
1000
1003
,  // measure 82
0000
0001
0010
0100
1100
0000
0101
0000
,  // measure 83
1000
0010
0100
0010
2000
0000
0001
3001
,  // measure 84
0000
0000
1000
0000
0100
0000
0010
0000
0001
0000
0001
0000
0001
0000
1000
0001
,  // measure 85
1000
0010
0100
0010
2000
0000
0001
3001
,  // measure 86
0000
1000
0100
0010
0011
0000
1010
0000
,  // measure 87
0001
0100
0010
0100
0002
0000
1000
1003
,  // measure 88
0000
0000
0001
0000
0010
0000
0100
0000
1000
0000
0010
0100
0010
0100
0010
0100
,  // measure 89
0001
0100
1000
0100
0010
1000
0001
0010
,  // measure 90
1000
0010
0100
1000
0001
0100
1010
0000
,  // measure 91
0001
0010
1000
0010
0100
1000
0001
0100
,  // measure 92
1000
0100
0010
1000
0001
1000
0011
0000
,  // measure 93
1000
0010
0001
0010
0100
0001
1000
0100
,  // measure 94
0001
0100
0010
0001
1000
0010
0101
0000
,  // measure 95
1000
0000
0100
0000
0001
0000
0100
0000
0010
0000
0001
1000
0001
1000
0001
1000
,  // measure 96
0010
0000
0010
0000
1000
0100
0010
0001
1000
0000
2002
0000
0000
0000
0000
0000
,  // measure 97
3003
0000
0000
0000
;

//---------------dance-single - ----------------
#NOTES:
     dance-single:
     :
     Easy:
     5:
     0.392,0.478,0.008,0.123,0.000: // measure 1
0000
0000
0000
0000
,  // measure 2
0000
0000
0000
0000
,  // measure 3
0000
0000
0000
0000
,  // measure 4
0000
0000
0000
0000
,  // measure 5
1000
0010
0100
0001
,  // measure 6
1000
0100
0010
0010
,  // measure 7
0001
0100
0010
1000
,  // measure 8
0001
0001
1000
1001
,  // measure 9
0001
0100
0010
0000
,  // measure 10
1000
0010
0100
0001
,  // measure 11
1000
0000
0100
0000
,  // measure 12
0010
0001
0001
0001
,  // measure 13
1000
0010
0100
0000
,  // measure 14
0001
0100
0010
1000
,  // measure 15
0100
0000
0010
0000
,  // measure 16
0001
1000
0010
0010
,  // measure 17
0010
0000
1000
0100
,  // measure 18
0010
0000
0001
0001
,  // measure 19
0001
0000
0100
0010
,  // measure 20
1000
0000
0100
0010
,  // measure 21
0002
0003
2000
3000
,  // measure 22
0020
0030
0100
0100
,  // measure 23
0001
0100
0010
1000
,  // measure 24
0001
0000
1000
0000
0001
0200
0000
0300
,  // measure 25
0001
0000
0000
0010
0000
0010
0000
0000
,  // measure 26
0001
0000
0000
1000
0000
1000
0000
0000
,  // measure 27
0001
0100
0010
1000
,  // measure 28
0001
0000
0010
0000
0100
1000
0000
0000
,  // measure 29
0010
0000
0000
1000
0000
1000
0000
0000
,  // measure 30
0100
0000
0000
1000
0000
1000
0000
0000
,  // measure 31
0001
1000
0010
0100
,  // measure 32
0001
0000
1000
0000
0100
0020
0000
0030
,  // measure 33
0001
0100
0010
0100
,  // measure 34
0001
0010
0100
0100
,  // measure 35
1000
0010
0100
0010
,  // measure 36
1000
0001
0001
0001
,  // measure 37
2000
3100
0002
0103
,  // measure 38
2000
3010
0002
0013
,  // measure 39
2000
3001
0100
0010
,  // measure 40
0100
0000
0001
0000
0010
0200
0000
0300
,  // measure 41
1000
0010
0100
0010
,  // measure 42
1000
0100
0010
0010
,  // measure 43
0001
0100
0010
0100
,  // measure 44
0001
0000
1000
0000
0010
0200
0000
0300
,  // measure 45
0001
0010
0100
1000
,  // measure 46
0001
0100
0010
1000
,  // measure 47
0001
0010
1000
0010
,  // measure 48
0001
0000
0100
0000
0010
2000
0000
3000
,  // measure 49
0001
0001
0001
0010
,  // measure 50
0010
0010
0100
0100
,  // measure 51
1000
1000
1000
0010
,  // measure 52
0010
0010
0200
0300
,  // measure 53
0001
0001
0001
1000
,  // measure 54
1000
1000
0100
0100
,  // measure 55
0010
0001
0100
0010
,  // measure 56
1000
1000
0001
0001
,  // measure 57
1000
1000
1000
0010
,  // measure 58
0010
0010
0100
0001
,  // measure 59
0010
0010
0010
0100
,  // measure 60
1000
0000
0001
0000
0100
0020
0000
0030
,  // measure 61
1000
1000
1000
0001
,  // measure 62
0001
0000
0100
0100
,  // measure 63
0010
1000
1000
1000
,  // measure 64
0000
0001
0001
0001
,  // measure 65
1000
0100
0010
0001
,  // measure 66
0010
0100
1000
0001
,  // measure 67
1000
0010
0100
0001
,  // measure 68
0100
0010
1000
0001
,  // measure 69
1000
0100
0001
0100
,  // measure 70
0010
0001
1000
0001
,  // measure 71
1000
0010
0001
0010
,  // measure 72
0100
0001
1000
0001
,  // measure 73
1000
1000
0100
0100
,  // measure 74
0010
0010
0001
0001
,  // measure 75
1000
1000
0010
0010
,  // measure 76
0100
0100
0001
0001
,  // measure 77
1000
1000
0100
0100
,  // measure 78
0001
0001
0100
0100
,  // measure 79
1000
0001
0001
0001
,  // measure 80
0100
0010
0010
0010
,  // measure 81
1000
0000
0010
0000
,  // measure 82
0100
0001
0010
0001
,  // measure 83
0100
0000
0010
0000
,  // measure 84
1000
0100
0010
0100
,  // measure 85
1000
0000
0001
0000
,  // measure 86
1000
0010
0001
0010
,  // measure 87
1000
0000
0001
0000
,  // measure 88
1000
0100
0001
0100
,  // measure 89
1000
1000
0010
0010
,  // measure 90
0100
0100
0001
0001
,  // measure 91
1000
1000
0100
0100
,  // measure 92
0010
0010
0001
0001
,  // measure 93
1000
1000
0010
0010
,  // measure 94
0001
0001
0010
0010
,  // measure 95
1000
1000
0100
0100
,  // measure 96
0010
0000
0001
1000
0001
2000
0000
0000
,  // measure 97
3000
0000
0000
0000
;

//---------------dance-single - ----------------
#NOTES:
     dance-single:
     :
     Medium:
     8:
     0.676,0.625,0.314,0.399,0.000: // measure 1
0000
0000
0000
0000
,  // measure 2
0000
0000
0000
0000
,  // measure 3
0000
0000
0000
0000
,  // measure 4
0000
0000
0000
0000
,  // measure 5
1000
0100
1000
0000
0100
0000
0010
0001
,  // measure 6
0000
0010
0100
0000
2000
0000
3001
0000
,  // measure 7
1000
0010
1000
0000
0001
0010
0001
0000
,  // measure 8
1000
0100
1000
0001
0200
0000
0310
0000
,  // measure 9
1000
0001
1000
0000
0100
0000
1000
0010
,  // measure 10
0000
0010
1000
0000
0100
0010
0100
0000
,  // measure 11
1000
0000
0010
0000
0100
0001
0100
0000
,  // measure 12
0010
1000
0010
0000
1100
0000
0101
0000
,  // measure 13
0001
1000
0001
0000
0010
0000
0001
0100
,  // measure 14
0000
0100
0001
0000
0010
0100
0010
0000
,  // measure 15
0001
0000
0100
0000
0010
1000
0010
0000
,  // measure 16
0100
0001
0100
0000
0011
0000
1010
0000
,  // measure 17
2001
0000
3100
0000
1000
0010
1000
0000
,  // measure 18
0020
0130
0101
1100
,  // measure 19
1002
0000
0103
0000
0001
0010
0001
0000
,  // measure 20
0020
0130
1100
0101
,  // measure 21
2000
3010
0002
0013
,  // measure 22
2000
3010
0110
1001
,  // measure 23
1000
0100
1000
0000
0001
0100
0001
0000
,  // measure 24
1000
0000
0001
0001
0001
2002
0000
3003
,  // measure 25
0002
0000
0000
0023
0000
0000
0030
0000
,  // measure 26
0200
0000
0000
2300
0000
0000
3000
0000
,  // measure 27
1000
0010
1000
0000
1000
0001
1000
0000
,  // measure 28
1000
0010
1000
0001
0010
0200
0000
0300
,  // measure 29
2000
0000
0000
3200
0000
0000
0300
0000
,  // measure 30
0020
0000
0000
0032
0000
0000
0003
0000
,  // measure 31
0001
0100
0001
0000
0001
1000
0001
0000
,  // measure 32
0001
0100
0001
1000
0100
0020
0000
0030
,  // measure 33
0002
0000
1003
0000
0010
0100
0010
0000
,  // measure 34
2000
3001
1100
0101
,  // measure 35
2000
0000
3001
0000
0010
0100
0010
0000
,  // measure 36
0001
1100
0101
1100
,  // measure 37
0002
0013
0200
1300
,  // measure 38
0002
0103
0020
1030
,  // measure 39
0002
0000
1003
0000
0010
0100
0010
0000
,  // measure 40
1000
0000
0001
0001
0001
2002
0000
3003
,  // measure 41
2000
0000
3001
0000
0100
0010
0100
0000
,  // measure 42
0002
1003
0011
1010
,  // measure 43
0002
0000
1003
0000
0100
0010
0100
0000
,  // measure 44
1000
0000
0001
0001
0001
2002
0000
3003
,  // measure 45
2000
0010
3100
1001
,  // measure 46
0002
0010
0103
1001
,  // measure 47
0001
0100
0010
0000
1000
0010
0100
0000
,  // measure 48
0001
1000
0001
0001
0001
2002
0000
3003
,  // measure 49
1000
0010
1000
0010
1000
0010
1000
0010
,  // measure 50
1000
0010
1000
0010
1000
0010
1000
0000
,  // measure 51
0001
0100
0001
0100
0001
0100
0001
0100
,  // measure 52
0001
0100
0001
0100
0002
0000
1003
0000
,  // measure 53
0001
0010
0001
0010
0001
0010
0001
0010
,  // measure 54
0001
0010
0001
0010
0001
0010
0001
0000
,  // measure 55
1000
0100
1000
0100
1000
0100
1000
0100
,  // measure 56
2000
3001
0101
1100
,  // measure 57
0001
0100
0001
0100
0010
0100
0010
0100
,  // measure 58
0010
1000
0010
1000
0001
1000
0001
1000
,  // measure 59
0100
1000
0100
1000
0100
0010
0100
0010
,  // measure 60
0001
0000
1000
1000
1000
2002
0000
3003
,  // measure 61
1000
0010
1000
0010
0100
0001
0100
0001
,  // measure 62
2000
3001
0200
0310
,  // measure 63
1000
0011
1010
0011
,  // measure 64
1000
0101
1100
0101
,  // measure 65
1000
0010
1000
0010
0010
1000
0000
0000
,  // measure 66
0001
0010
0001
0010
0010
0001
0000
0000
,  // measure 67
1000
0100
0001
0000
0001
0100
1000
0000
,  // measure 68
0001
1000
0001
0100
0100
0020
0000
0130
,  // measure 69
0001
0100
0001
0100
0100
0001
0000
0000
,  // measure 70
1000
0100
1000
0100
0100
1000
0000
0000
,  // measure 71
0001
0010
1000
0000
1000
0010
0001
0000
,  // measure 72
1000
0001
1000
0001
0100
0010
0010
0010
,  // measure 73
1000
0010
1000
0010
1000
0010
1000
0010
,  // measure 74
0100
0001
0100
0001
0100
0001
0100
0001
,  // measure 75
1000
0100
1000
0100
1000
0100
1000
0100
,  // measure 76
0010
0001
0010
0001
0010
0001
0010
0001
,  // measure 77
1000
0010
1000
0010
0100
0001
0100
0001
,  // measure 78
1000
0100
1000
0100
0010
0001
0010
0001
,  // measure 79
1000
0101
1100
0101
,  // measure 80
1000
0011
1010
0011
,  // measure 81
1000
0100
1000
0000
0100
0000
0010
0001
,  // measure 82
0000
0010
0100
0000
2000
0000
3001
0000
,  // measure 83
0001
0010
0001
0000
0010
0000
0100
1000
,  // measure 84
0000
0100
0010
0000
0001
0001
0001
0001
,  // measure 85
1000
0100
1000
0000
0100
0000
0010
0001
,  // measure 86
0000
0010
0100
0000
2000
0000
3001
0000
,  // measure 87
0001
0010
0001
0000
0010
0000
0100
1000
,  // measure 88
0000
0100
0010
0000
0002
0000
1003
0000
,  // measure 89
0001
0100
0001
0100
0001
0100
0001
0100
,  // measure 90
0001
1000
0001
1000
0001
1000
0001
1000
,  // measure 91
0010
1000
0010
1000
0010
1000
0010
1000
,  // measure 92
0010
0100
0010
0100
0010
0100
0010
0100
,  // measure 93
0001
0100
0001
0100
0001
0100
0001
0100
,  // measure 94
0001
0010
0001
0010
0001
0010
0001
0010
,  // measure 95
0100
0010
0100
0010
0100
0010
0100
0010
,  // measure 96
0100
1000
0001
0001
0001
2002
0000
0000
,  // measure 97
3003
0000
0000
0000
;
