#TITLE:It's Only Us;
#SUBTITLE:;
#ARTIST:Robbie Williams;
#TITLETRANSLIT:;
#SUBTITLETRANSLIT:;
#ARTISTTRANSLIT:;
#CREDIT:;
#BANNER:;
#BACKGROUND:;
#LYRICSPATH:;
#CDTITLE:;
#MUSIC:It's Only Us.mp3;
#OFFSET:-11.070;
#SAMPLESTART:66.730;
#SAMPLELENGTH:12.690;
#SELECTABLE:YES;
#DISPLAYBPM:174.000;
#BPMS:0.000=175.000,20.000=164.000,24.000=174.000,40.000=173.200,72.000=167.000,80.000=169.000,84.000=165.000,88.000=173.100,120.000=173.300,144.000=172.000,160.000=173.000,192.000=169.000,208.000=170.000,216.000=173.000,224.000=174.000,272.000=178.000,284.000=176.000,287.000=157.000,288.000=135.000;
#STOPS:;
#BGCHANGES:;

//---------------dance-single - ----------------
#NOTES:
     dance-single:
     :
     Hard:
     8:
     0.532,0.573,0.310,0.249,0.000: // measure 1
1000
0000
0001
0000
1000
0100
0000
1000
,  // measure 2
0000
0100
0000
0010
0000
0001
0000
2000
,  // measure 3
0002
0000
0000
0000
,  // measure 4
3003
0000
0000
0000
1000
0001
0000
1000
,  // measure 5
0100
0000
0010
0000
0100
0010
0000
2002
,  // measure 6
3003
0000
0000
0000
1000
0001
1000
0000
,  // measure 7
0001
0100
0010
0000
1000
0001
0010
0000
,  // measure 8
0100
0000
0010
0000
0001
0100
0010
0000
,  // measure 9
1000
0000
0001
0200
0000
1000
0000
0010
,  // measure 10
0000
0301
0000
0001
1000
0000
1001
0000
,  // measure 11
0001
0010
0100
1000
0100
0020
0000
0001
,  // measure 12
0000
0100
0000
1000
0000
0100
0000
0031
,  // measure 13
0100
0010
1000
0000
0100
0010
0001
0000
,  // measure 14
1000
0001
1000
0001
0100
0010
0100
0000
,  // measure 15
0001
0000
1000
0100
0000
0010
0001
0000
,  // measure 16
1000
0000
0001
0000
0100
0010
0100
0000
,  // measure 17
0001
0000
1000
0010
0000
0101
0000
1001
,  // measure 18
0000
1100
0000
1000
0100
0010
0001
0000
,  // measure 19
2002
0000
0000
0000
,  // measure 20
3003
0000
0000
0001
0000
1000
0001
0000
,  // measure 21
0220
0000
0000
0330
,  // measure 22
0010
1000
0000
0001
0000
1000
0001
0000
,  // measure 23
1000
0000
0100
0000
0010
0001
0000
1001
,  // measure 24
0000
0011
0000
1100
0000
1010
0000
0100
,  // measure 25
0001
0000
1000
0000
0001
0100
1000
0000
,  // measure 26
0001
0000
1000
0000
0001
0010
1000
0000
,  // measure 27
0010
0000
0001
0000
1000
0000
0010
1000
,  // measure 28
0000
1001
0000
0101
0000
0011
0000
1000
,  // measure 29
0001
0000
1000
0000
0010
0100
0010
0000
,  // measure 30
1000
0100
0010
0001
0100
0010
1000
0001
,  // measure 31
0010
0000
1001
0000
1000
0010
0100
0001
,  // measure 32
0000
1010
0000
0101
0000
0011
0000
1000
,  // measure 33
0100
0001
0100
0000
1000
0001
0100
0000
,  // measure 34
1000
0000
0010
0000
0100
0001
1000
0100
,  // measure 35
0010
0100
0001
0100
1000
0001
1000
0010
,  // measure 36
1000
0100
0010
0001
1000
0010
0100
0001
,  // measure 37
1000
0000
0001
0010
0100
0001
0100
0000
,  // measure 38
0010
0000
0001
0100
1000
0100
0010
0000
,  // measure 39
1000
0100
0010
0002
0000
0010
0000
1000
,  // measure 40
0000
0103
0000
0100
0101
0000
1001
0000
,  // measure 41
1000
0100
0010
0001
0100
0020
0000
1000
,  // measure 42
0000
0100
0000
0001
0000
0100
0000
1030
,  // measure 43
0010
1000
0100
1000
0010
0100
0001
0100
,  // measure 44
0001
0010
0001
1000
0100
0010
0001
0000
,  // measure 45
1000
0100
0010
0100
0000
0010
0001
0000
,  // measure 46
1000
0010
0100
0000
0001
0100
0010
0000
,  // measure 47
0100
0001
0010
0200
0000
0001
0000
0010
,  // measure 48
0000
1300
0000
1000
0001
0000
1010
0000
,  // measure 49
2002
0000
0000
0000
,  // measure 50
0000
0003
3020
0130
,  // measure 51
0220
0000
0000
0000
,  // measure 52
0330
0000
0100
0010
0100
0000
0010
1000
,  // measure 53
2002
0000
0000
0000
,  // measure 54
0000
0000
0000
3003
,  // measure 55
0220
0330
2002
3003
,  // measure 56
1100
0011
0101
1001
,  // measure 57
1000
0100
1000
0001
1000
0001
0100
0000
,  // measure 58
0010
0100
0001
0010
0200
0000
0001
0000
,  // measure 59
1300
0100
0010
0001
1000
0010
1000
0000
,  // measure 60
0001
0100
0010
0100
0002
0000
0010
0000
,  // measure 61
1003
0100
0001
0100
0010
0001
0100
0000
,  // measure 62
0001
0100
1000
0100
0010
1000
0001
0000
,  // measure 63
1000
0100
0010
0001
0100
0010
1000
0001
,  // measure 64
1000
1100
0000
0010
0001
0100
0101
0000
,  // measure 65
1001
0000
0001
1000
0100
0020
0000
0001
,  // measure 66
0000
1000
0000
0100
0000
0001
0000
0130
,  // measure 67
1000
0001
0100
0000
0010
0100
0001
0000
,  // measure 68
1000
0010
0100
0001
0010
0100
0010
0000
,  // measure 69
0001
0010
0001
1000
0010
0100
0001
0000
,  // measure 70
1000
0100
0001
0100
1000
0010
0100
0001
,  // measure 71
0010
0001
1000
0100
0010
0001
1000
0010
,  // measure 72
0100
0001
1000
0001
0100
0000
1010
0000
,  // measure 73
2002
0000
0000
0000
,  // measure 74
0000
0000
0000
3003
,  // measure 75
1001
0000
0000
0000
;

//---------------dance-single - ----------------
#NOTES:
     dance-single:
     :
     Beginner:
     1:
     0.134,0.191,0.103,0.000,0.000: // measure 1
1000
0000
0000
0000
,  // measure 2
0000
0000
0000
0000
,  // measure 3
0001
0000
0000
0000
,  // measure 4
0000
0000
0000
0000
,  // measure 5
0100
0000
0000
0000
,  // measure 6
0010
0000
0000
0000
,  // measure 7
1001
0000
0000
0000
,  // measure 8
0000
0000
0000
0000
,  // measure 9
1000
0000
0001
0000
,  // measure 10
1000
0000
0000
0000
,  // measure 11
1001
0000
0001
0000
,  // measure 12
0010
0000
0001
0000
,  // measure 13
0100
0000
0000
0000
,  // measure 14
0010
0000
0100
0000
,  // measure 15
0010
0000
0000
0000
,  // measure 16
1000
0000
0001
0000
,  // measure 17
1000
0000
0000
0000
,  // measure 18
0001
0000
1000
0000
,  // measure 19
1001
0000
0000
0000
,  // measure 20
0000
0000
0000
0000
,  // measure 21
1001
0000
0000
0000
,  // measure 22
0000
0000
0000
0000
,  // measure 23
1000
0000
0100
0000
,  // measure 24
1000
0000
0100
0000
,  // measure 25
1000
0000
0000
0000
,  // measure 26
0000
0000
0000
0000
,  // measure 27
0001
0000
0100
0000
,  // measure 28
0001
0000
0100
0000
,  // measure 29
0001
0000
0000
0000
,  // measure 30
1000
0000
0001
0000
,  // measure 31
1000
0000
0100
0000
,  // measure 32
0010
0000
0001
0000
,  // measure 33
0100
0000
0000
0000
,  // measure 34
0000
0000
0000
0000
,  // measure 35
0001
0000
1000
0000
,  // measure 36
0001
0000
0000
0000
,  // measure 37
1001
0000
0000
0000
,  // measure 38
1000
0000
0100
0000
,  // measure 39
0010
0000
0000
0000
,  // measure 40
0100
0000
0010
0000
,  // measure 41
0001
0000
1000
0000
,  // measure 42
0001
0000
1000
0000
,  // measure 43
0001
0000
0000
0000
,  // measure 44
0100
0000
0000
0000
,  // measure 45
0010
0000
0100
0000
,  // measure 46
0010
0000
0000
0000
,  // measure 47
1000
0000
0001
0000
,  // measure 48
1000
0000
0100
0000
,  // measure 49
0110
0000
0000
0000
,  // measure 50
0000
0000
0000
0000
,  // measure 51
1001
0000
0000
0000
,  // measure 52
0000
0000
0000
0000
,  // measure 53
0110
0000
0000
0000
,  // measure 54
0000
0000
0000
0000
,  // measure 55
1000
0000
0001
0000
,  // measure 56
1000
0000
0001
0000
,  // measure 57
1001
0000
0000
0000
,  // measure 58
0000
0000
0001
0000
,  // measure 59
0001
0000
0100
0000
,  // measure 60
0001
0000
1000
0000
,  // measure 61
0100
0000
0000
0000
,  // measure 62
0000
0000
0010
0000
,  // measure 63
0010
0000
0100
0000
,  // measure 64
0110
0000
0000
0000
,  // measure 65
1001
0000
1000
0000
,  // measure 66
0001
0000
0100
0000
,  // measure 67
0010
0000
0000
0000
,  // measure 68
0100
0000
0010
0000
,  // measure 69
0100
0000
0001
0000
,  // measure 70
1000
0000
0100
0000
,  // measure 71
0010
0000
0000
0000
,  // measure 72
0001
0000
1000
1000
,  // measure 73
1000
0000
0000
0000
,  // measure 74
0000
0000
0000
0000
,  // measure 75
1001
0000
0000
0000
;

//---------------dance-single - ----------------
#NOTES:
     dance-single:
     :
     Easy:
     4:
     0.272,0.446,0.138,0.146,0.000: // measure 1
1000
0000
0001
0000
,  // measure 2
0100
0010
0100
0010
,  // measure 3
0200
0000
0000
0000
,  // measure 4
0300
0000
0010
0000
,  // measure 5
0100
0000
0001
0000
,  // measure 6
1001
0000
0010
0100
,  // measure 7
1001
0000
1000
0100
,  // measure 8
0010
0100
1000
0000
,  // measure 9
0001
0000
1000
0010
,  // measure 10
1000
0000
0001
0000
,  // measure 11
1001
0000
1000
0100
,  // measure 12
0010
0001
0010
0100
,  // measure 13
1000
0000
0001
0000
,  // measure 14
1000
0000
0001
0100
,  // measure 15
0010
0100
0001
0000
,  // measure 16
1000
0000
0001
1000
,  // measure 17
0100
1000
0001
0000
,  // measure 18
1000
0010
0100
0000
,  // measure 19
2002
0000
0000
0000
,  // measure 20
3003
0000
0000
0000
,  // measure 21
0220
0000
0000
0000
,  // measure 22
0330
0000
0000
0000
,  // measure 23
1001
0000
0001
0000
,  // measure 24
1000
0000
0001
0010
,  // measure 25
0100
0000
0010
0000
,  // measure 26
0001
1000
0001
0000
,  // measure 27
1000
0000
0010
0000
,  // measure 28
0100
0010
1000
0010
,  // measure 29
0100
0000
0001
0000
,  // measure 30
1000
0000
0100
0000
,  // measure 31
1000
0000
0001
0000
,  // measure 32
0010
0001
0100
0010
,  // measure 33
1000
0000
0001
0000
,  // measure 34
1000
0100
0010
0001
,  // measure 35
1000
0000
0001
0100
,  // measure 36
0001
0000
0110
0000
,  // measure 37
1000
0001
1000
0000
,  // measure 38
0001
0100
0001
0000
,  // measure 39
1000
0010
0100
0010
,  // measure 40
1000
0100
0010
0000
,  // measure 41
0100
0010
0100
0000
,  // measure 42
0010
0001
0010
0001
,  // measure 43
1000
0000
0001
0000
,  // measure 44
1000
0010
0100
0001
,  // measure 45
0010
0100
1000
0000
,  // measure 46
0001
0100
0010
0100
,  // measure 47
0001
1000
0100
0010
,  // measure 48
0001
1000
0001
1000
,  // measure 49
2002
0000
0000
0000
,  // measure 50
3003
0000
0000
0000
,  // measure 51
0220
0000
0000
0000
,  // measure 52
0330
0000
0000
0000
,  // measure 53
2002
0000
0000
0000
,  // measure 54
3003
0000
0000
0000
,  // measure 55
0220
0330
2002
3003
,  // measure 56
1000
0010
0100
0001
,  // measure 57
1001
0000
1000
0000
,  // measure 58
0100
1000
0001
0100
,  // measure 59
0001
0000
1000
0000
,  // measure 60
0001
0000
0010
0001
,  // measure 61
0100
0000
0010
0000
,  // measure 62
1000
0010
0100
0010
,  // measure 63
1000
0000
0001
0000
,  // measure 64
1001
0000
1000
0100
,  // measure 65
1000
0001
0100
0000
,  // measure 66
0010
0100
0001
0010
,  // measure 67
0100
0000
0010
0000
,  // measure 68
0001
1000
0001
0000
,  // measure 69
1000
0010
0100
0001
,  // measure 70
1000
0000
0001
1000
,  // measure 71
0100
0010
0100
1000
,  // measure 72
0001
1000
0010
0100
,  // measure 73
0220
0000
0000
0000
,  // measure 74
0000
0000
0000
0330
,  // measure 75
0110
0000
0000
0000
;

//---------------dance-single - ----------------
#NOTES:
     dance-single:
     :
     Medium:
     6:
     0.429,0.573,0.249,0.189,0.000: // measure 1
1000
0000
0100
0000
1000
0100
0000
0010
,  // measure 2
0000
0001
0000
1000
0000
0010
0000
0200
,  // measure 3
0020
0000
0000
0000
,  // measure 4
0330
0000
0000
0000
1000
0001
0000
1000
,  // measure 5
0001
0000
0100
0000
0010
0100
0000
0220
,  // measure 6
0330
0000
1010
0101
,  // measure 7
1001
0000
1000
0000
0010
0100
0010
0000
,  // measure 8
0100
0000
0001
0000
1000
0100
1000
0000
,  // measure 9
0001
0000
1000
0100
0000
0010
0000
0100
,  // measure 10
0000
0010
0001
0000
1100
0000
1001
0000
,  // measure 11
0101
0000
0100
0000
0010
1000
0000
0001
,  // measure 12
0000
1000
0000
0100
0000
0010
0000
0001
,  // measure 13
1000
0000
0001
0000
0100
0001
0100
0000
,  // measure 14
0010
0000
1000
0000
0001
1000
0001
0000
,  // measure 15
1000
0000
0100
1000
0000
1000
0001
0000
,  // measure 16
0100
0001
1000
0010
,  // measure 17
0100
0000
0010
1000
0000
0001
0000
1000
,  // measure 18
0000
0001
0010
0000
1100
0000
0011
0000
,  // measure 19
2002
0000
0000
0000
,  // measure 20
3003
0000
0000
0000
,  // measure 21
0220
0000
0000
0330
,  // measure 22
0010
0100
0000
0010
0000
0100
0010
0000
,  // measure 23
1000
0000
0001
0000
1000
0001
0000
1000
,  // measure 24
0000
0001
0000
0100
0000
0010
0000
0100
,  // measure 25
0010
0100
0001
1000
,  // measure 26
0100
0000
0010
0000
0100
0010
0100
0000
,  // measure 27
0010
0000
0001
0000
1000
0000
0010
0100
,  // measure 28
0000
0001
0000
1000
0000
0001
0000
0010
,  // measure 29
0100
0000
0010
0000
0001
1000
0001
0000
,  // measure 30
1000
0010
1000
0000
0001
0100
0001
0000
,  // measure 31
1000
0000
0100
0000
0010
0000
0100
0010
,  // measure 32
0000
0001
0000
0100
0000
0010
0000
1000
,  // measure 33
0001
0000
1000
0000
0010
0100
0010
0000
,  // measure 34
1000
0000
0100
0000
0010
0001
0000
1000
,  // measure 35
0001
0000
0100
0000
0010
1000
0000
0001
,  // measure 36
0100
0000
0001
0000
1000
0001
1000
0000
,  // measure 37
0110
0000
0010
2000
0000
0000
0010
0000
,  // measure 38
0100
0000
3001
0000
0001
1000
0001
0000
,  // measure 39
1000
0000
0100
0020
0000
0001
0000
0100
,  // measure 40
0000
0031
0000
1000
0100
0000
1001
0000
,  // measure 41
1000
0000
0010
0000
0100
0001
0000
0010
,  // measure 42
0000
0001
0000
0100
0000
0010
0000
1000
,  // measure 43
0100
0000
0010
0000
0100
0010
0100
0000
,  // measure 44
1000
0000
0001
0000
1000
0010
0100
0000
,  // measure 45
0001
0000
0100
0001
0000
0001
1000
0000
,  // measure 46
0001
0000
1000
0000
0100
1000
0100
0000
,  // measure 47
0010
0000
0001
1000
0000
0010
0000
0100
,  // measure 48
0000
0001
0010
0000
1100
0000
0011
0000
,  // measure 49
2002
0000
0000
0000
,  // measure 50
3003
0000
0001
0100
,  // measure 51
0220
0000
0000
0000
,  // measure 52
0330
0000
0010
1000
,  // measure 53
2002
0000
0000
0000
,  // measure 54
3003
0000
0000
0000
,  // measure 55
0220
0330
2002
3003
,  // measure 56
1010
0101
0011
1100
,  // measure 57
1001
0000
0001
0000
0100
0001
0100
0000
,  // measure 58
0001
1000
0100
0010
,  // measure 59
0100
0000
1000
0000
0010
0100
0001
0000
,  // measure 60
0010
0000
0100
0000
0010
0001
1000
0000
,  // measure 61
0001
0000
1000
0000
0100
1000
0100
0000
,  // measure 62
1000
0001
0010
0100
,  // measure 63
0010
0000
0001
0000
1000
0010
0100
0000
,  // measure 64
0001
1000
0000
0001
1000
0001
1000
0000
,  // measure 65
0001
0000
0010
0000
0100
1000
0000
0100
,  // measure 66
0000
0010
0000
0001
0000
1000
0000
0001
,  // measure 67
0100
0000
0010
0000
1000
0001
1000
0000
,  // measure 68
0001
0000
0010
0000
0100
1000
0100
0000
,  // measure 69
1000
0000
0001
0010
0000
0100
1000
0000
,  // measure 70
0001
0000
1000
0000
0010
0100
0010
0000
,  // measure 71
1000
0000
0100
1000
0000
0010
0000
0100
,  // measure 72
0000
0001
0010
0000
0110
0000
1001
0000
,  // measure 73
0220
0000
0000
0000
,  // measure 74
0000
0000
0000
0330
,  // measure 75
0110
0000
0000
0000
;
