#TITLE:How We Kill Stars;
#SUBTITLE:;
#ARTIST:Shaka Ponk;
#TITLETRANSLIT:;
#SUBTITLETRANSLIT:;
#ARTISTTRANSLIT:;
#GENRE:Electronic Rock;
#CREDIT:Frozen_Heat/Azn_Punk_07/GuardianFrozen;
#MENUCOLOR:#d52800;
#METERTYPE:DDR;
#BANNER:[Male Vocalists] - How We Kill Stars.png;
#BACKGROUND:[Male Vocalists] - How We Kill Stars-bg.png;
#LYRICSPATH:[Male Vocalists] - How We Kill Stars.lrc;
#CDTITLE:!cdtitle.png;
#MUSIC:[Male Vocalists] - How We Kill Stars.mp3;
#OFFSET:-0.050;
#SAMPLESTART:65.720;
#SAMPLELENGTH:14.960;
#SELECTABLE:YES;
#LISTSORT:;
#DISPLAYBPM:128.000;
#BPMS:0.000=128.000;
#STOPS:;
#BGCHANGES:;
#ATTACKS:;

//---------------dance-single - ----------------
#NOTES:
     dance-single:
     :
     Hard:
     8:
     0.564,0.529,0.092,0.420,0.231: // measure 1
0000
0000
0000
0000
,  // measure 2
0100
0000
1000
0000
0100
0000
0010
0001
,  // measure 3
0100
0000
0001
0000
0010
0001
0100
0001
,  // measure 4
1000
0010
0100
0010
2000
0000
3100
0010
,  // measure 5
0002
0000
0103
0010
1000
0010
0100
0001
,  // measure 6
1000
0100
0010
0001
0200
0000
0301
1000
,  // measure 7
0020
0000
0130
0001
0010
0001
1000
0100
,  // measure 8
2000
0000
3001
0100
0020
0000
1030
0001
,  // measure 9
0010
0000
0001
0000
1000
0000
0001
0000
0200
0000
0000
0010
0300
0000
0010
0000
,  // measure 10
2000
0000
3100
0010
0001
0100
0010
1000
,  // measure 11
0002
0000
0000
0010
0003
0000
0010
0000
0200
0000
0000
0000
0310
0000
0001
0000
,  // measure 12
1000
1000
0001
0100
0002
0000
0103
0010
,  // measure 13
0002
0000
1003
0100
0002
0000
0013
0100
,  // measure 14
1000
0000
0001
0000
0001
0000
0100
0000
0010
0000
0000
0010
0000
0000
1000
0000
,  // measure 15
0100
0000
0000
0100
0000
0000
0010
0000
0001
0000
0000
0000
0100
0000
0001
0000
,  // measure 16
0200
0000
0310
1000
0020
0000
1030
0001
,  // measure 17
2000
0000
3100
0010
0001
0010
0100
1000
,  // measure 18
0001
0100
0001
0010
0100
1000
0010
0100
,  // measure 19
0002
0000
1003
1000
0100
0110
0000
0000
,  // measure 20
0002
0000
0100
0000
0023
0000
0130
1000
,  // measure 21
0002
0000
0100
0000
1003
1000
0001
0100
,  // measure 22
0020
0000
0100
0000
2030
0000
3100
0010
,  // measure 23
0200
0000
1000
0000
0310
0001
0100
0001
,  // measure 24
2000
0000
0001
0000
3020
0000
0130
0001
,  // measure 25
0200
0000
0010
0000
0301
0001
0010
0100
,  // measure 26
2000
0000
0100
0000
3002
0000
1003
0100
,  // measure 27
0020
0000
1000
0000
0130
0100
0010
0010
,  // measure 28
0001
0000
0100
0001
0000
0000
0010
0000
0100
0000
1000
0010
0000
0010
0100
0000
,  // measure 29
0000
0001
0100
0000
0100
0010
0000
0010
1000
0000
1000
0100
0000
0100
0010
0000
,  // measure 30
0001
0000
0100
0010
0000
0000
1000
0000
0100
0000
0010
0001
0000
0001
1000
0000
,  // measure 31
0000
0010
0100
0000
0100
0001
0000
0001
1000
0000
1000
0100
0000
0100
1000
0000
,  // measure 32
0001
0000
0100
0010
0000
1000
0001
0000
0100
0000
0001
0010
0000
0010
0100
0000
,  // measure 33
0000
1000
0001
0000
0001
0100
0000
0100
1000
0000
1000
0100
0000
0100
0010
0000
,  // measure 34
1000
0000
0001
0100
0000
0001
0010
0000
0100
0000
1000
0001
0000
0001
1000
0000
,  // measure 35
0000
1000
0100
0000
0100
0001
0000
0001
0100
0000
0100
0010
0000
0010
0001
0000
,  // measure 36
0020
0000
0000
0000
0001
0000
0130
0000
0200
0000
0000
0000
1000
0000
0310
0001
,  // measure 37
1000
0000
0000
0010
0100
0000
0001
0000
0020
0000
0000
0000
0100
0000
0000
0000
,  // measure 38
0032
0000
0000
0000
0100
0000
1003
0000
2000
0000
0000
0000
0100
0000
3001
0010
,  // measure 39
0200
0000
0000
1300
0001
0000
0100
0000
0020
0000
0000
0000
0130
0000
0001
0000
,  // measure 40
2000
0000
0000
0000
0100
0000
3010
0000
0002
0000
0000
0000
0013
0000
1000
0001
,  // measure 41
0100
0000
0000
0010
0100
0000
0001
0000
0200
0000
0000
0000
1000
0000
0000
0000
,  // measure 42
0302
0000
0000
0000
0010
0000
0103
0000
2000
0000
0000
0000
3010
0000
0001
0010
,  // measure 43
0100
0000
0000
0010
0001
0000
0010
0000
0200
0000
0000
0000
1000
0000
0000
0000
,  // measure 44
0301
0000
0000
0000
0011
0000
0000
0000
0010
0000
0000
0100
0000
0000
1000
0000
,  // measure 45
0001
0000
0000
0000
0101
0000
0000
0000
0010
0000
0000
0100
0000
0000
0001
0000
,  // measure 46
1000
0000
0000
0000
1010
0000
0000
0000
0001
0000
0000
0010
0000
0000
0100
0000
,  // measure 47
0001
0000
0000
0000
0011
0000
0000
0000
1000
0000
0000
0010
0000
0000
0100
0000
,  // measure 48
2000
0000
0000
0000
3200
0000
0000
0000
0301
0000
0000
0010
0000
0000
1000
0000
,  // measure 49
0020
0000
0000
0000
0032
0000
0000
0000
0103
0000
0000
0010
0000
0000
1000
0000
,  // measure 50
0200
0000
0000
0000
0302
0000
0000
0000
0103
0000
0000
1000
0000
0000
0010
0000
,  // measure 51
0002
0000
0023
0100
0130
0000
0110
0000
,  // measure 52
1010
0000
1000
0100
0010
0100
1000
0001
,  // measure 53
0010
0000
0100
0010
0001
1000
0010
0100
,  // measure 54
0101
0000
0001
0010
0100
0010
0001
1000
,  // measure 55
0100
0000
0010
0100
1000
0001
0100
0010
,  // measure 56
1010
0000
0000
0000
0100
0000
0001
0000
0001
0000
0000
1000
0000
0000
0001
0000
,  // measure 57
0010
0000
0100
0000
0010
0000
0001
0000
1000
0000
0000
0001
0000
0000
1000
0000
,  // measure 58
0010
0000
0100
0001
0010
0001
1000
0100
,  // measure 59
0010
0010
0100
1000
0001
0000
0101
0000
,  // measure 60
1001
0000
0100
0000
0010
0000
0100
1000
,  // measure 61
0010
0000
0100
0000
0001
0010
0100
1000
,  // measure 62
0001
0000
0100
0000
0010
0000
1000
0001
,  // measure 63
0010
0000
0100
0000
0010
0100
1000
0100
,  // measure 64
0010
0000
0000
0000
;

//---------------dance-single - ----------------
#NOTES:
     dance-single:
     :
     Medium:
     6:
     0.428,0.397,0.193,0.420,0.029:
0000
0000
0000
0000
,
0001
0000
0001
0000
0001
0000
0001
0100
,
0010
0010
1010
0101
,
1000
0000
0100
1000
0100
0000
0100
0010
,
0100
0000
0100
1000
0100
0000
1100
0000
,
0001
0000
0001
0100
0001
0000
0010
0001
,
0010
0000
0001
0100
0001
0000
0010
0000
,
0110
0000
1000
0010
1000
0000
0001
1000
,
0001
0010
0100
0110
,
0010
0000
0001
1000
0100
0000
1000
0001
,
0100
0010
1000
0000
,
0001
0010
0100
0010
0001
0000
1000
0000
,
0010
0000
0100
0010
0100
0000
0001
0000
,
1000
0100
0010
0100
1000
0000
0001
0000
,
1000
0000
0010
0100
0010
0000
1000
0000
,
1100
0000
0001
0000
0101
0000
1000
0100
,
0010
0000
0001
0100
0010
0000
0010
0000
,
1010
0100
0101
1000
,
1100
0000
0011
0000
1000
0001
0000
0000
,
2000
0000
3200
0000
,
0320
0000
0031
1000
,
0002
0000
0203
0000
,
0320
0000
1030
0001
,
2000
0000
3020
0000
,
0032
0000
0023
1000
,
0230
0000
0302
0000
,
0023
0000
0230
0010
,
1300
0000
0100
0000
0010
0000
0100
0010
,
0001
0000
1000
0000
0001
0000
0100
0010
,
1000
0000
0100
0000
0010
0000
0001
1000
,
0100
0000
1000
0000
0001
0100
0010
0100
,
0001
0000
1000
0000
0100
0000
0010
0001
,
0100
0000
0010
0000
1000
0100
0010
0000
,
0001
0000
1000
0000
0010
0000
0100
0010
,
1000
0000
0100
0000
0010
0001
1000
0001
,
0200
0000
0300
0010
0020
0000
0030
1000
,
2000
0000
3001
0100
0002
0000
0023
0000
,
0230
0000
0300
0010
0020
0000
0030
0001
,
0002
0000
1003
0010
2000
0000
3200
0000
,
0320
0000
0030
0100
0200
0000
0300
1000
,
2000
0000
3001
0100
0020
0000
0230
0000
,
0302
0000
0003
0010
0020
0000
0030
0001
,
0002
0003
1001
0110
,
2000
0000
0000
0000
3100
0000
0000
0000
2000
0000
0000
0001
3000
0000
0000
0000
,
0002
0000
0000
0000
1003
0000
0000
0000
0002
0000
0000
0010
0003
0000
0000
0000
,
0020
0000
0000
0000
0031
0000
0000
0000
0020
0000
0000
0100
0030
0000
0000
0000
,
0200
0000
0000
0000
0301
0000
0000
0000
0200
0000
0000
1000
0300
0000
0000
0000
,
2000
0000
0000
0000
3000
0000
0000
0000
0101
0000
0000
1001
0000
0000
0000
0000
,
0002
0000
0000
0000
0003
0000
0000
0000
1100
0000
0000
0110
0000
0000
0000
0000
,
0020
0000
0000
0000
0030
0000
0000
0000
1001
0000
0000
0110
0000
0000
0000
0000
,
0200
0000
0310
0010
1001
0000
0000
0000
,
0002
0000
0003
0010
0002
0000
0103
0010
,
1000
0000
0100
0010
0001
0000
0110
0000
,
2000
0000
3000
0100
2000
0000
3010
0100
,
0001
0000
0010
0100
1000
0001
1000
0000
,
0020
0000
1030
0001
0010
0000
0001
1000
,
0010
0100
0001
1000
0100
0010
0001
0000
,
0200
0000
0310
1000
0100
0000
0010
0001
,
0100
0010
1000
0100
0010
0000
0110
0000
,
1000
0000
1000
0000
1000
0000
1000
0001
,
0100
0000
0100
0000
0100
0001
0010
0001
,
0100
0000
0100
0000
0100
0000
0100
0001
,
0010
0000
0010
0000
0010
0100
0010
0001
,
1001
0000
0000
0000
;

//---------------dance-single - ----------------
#NOTES:
     dance-single:
     :
     Beginner:
     2:
     0.132,0.185,0.151,0.134,0.000:
0000
0000
0000
0000
,
1000
0000
0000
0000
,
0001
0000
0000
0000
,
0010
0000
0010
0000
,
0010
0000
0000
0000
,
0100
0000
0100
0000
,
0100
0000
0000
0000
,
1000
0000
0000
0000
,
0001
0000
0000
0000
,
1000
0000
1000
0000
,
0001
0000
0001
0000
,
1001
0000
0000
0000
,
0000
0000
0000
0000
,
0110
0000
0000
0000
,
0000
0000
0000
0000
,
0001
0000
0001
0000
,
1000
0000
1000
0000
,
1001
0000
0000
0000
,
0110
0000
0000
0000
,
0002
0003
0000
0000
,
2000
3000
0000
0000
,
0200
0300
0000
0000
,
0020
0030
0000
0000
,
0200
0300
0000
0000
,
2000
3000
0000
0000
,
0002
0003
0000
0000
,
0020
0030
0000
0000
,
1000
0000
1000
0000
,
1000
0000
0000
0000
,
0001
0000
0001
0000
,
0001
0000
0000
0000
,
0100
0000
0100
0000
,
0100
0000
0000
0000
,
0010
0000
0010
0000
,
0010
0000
0000
0000
,
1001
0000
0000
0000
,
0110
0000
0000
0000
,
1001
0000
0000
0000
,
0110
0000
0000
0000
,
1001
0000
0000
0000
,
0110
0000
0000
0000
,
1001
0000
0000
0000
,
0110
0000
0110
0000
,
0002
0003
0000
0000
,
2000
3000
0000
0000
,
2000
3000
0000
0000
,
0002
0003
0000
0000
,
0020
0030
0000
0000
,
0020
0030
0000
0000
,
0200
0300
0000
0000
,
0200
0300
0000
0000
,
1000
0000
1000
0000
,
0001
0000
0001
0000
,
0100
0000
0100
0000
,
0010
0000
0010
0000
,
1001
0000
0000
0000
,
0110
0000
0000
0000
,
1001
0000
0000
0000
,
0110
0000
0000
0000
,
0001
0000
0000
0000
,
1000
0000
0000
0000
,
0100
0000
0000
0000
,
0010
0000
0000
0000
,
0110
0000
0000
0000
;

//---------------dance-single - ----------------
#NOTES:
     dance-single:
     :
     Easy:
     4:
     0.398,0.450,0.277,0.814,0.000:
0000
0000
0000
0000
,
1000
1000
1000
0000
,
0001
0001
0001
0000
,
0002
0003
0200
0300
,
0020
0030
1000
0001
,
2000
3000
0002
0003
,
0020
0030
0100
0010
,
0002
0003
0200
0300
,
0020
0030
1000
0001
,
0200
0300
0020
0030
,
2000
3000
0200
0300
,
0001
0001
0002
0103
,
0200
0310
0020
1030
,
1000
0001
2000
3100
,
0200
0310
0020
0031
,
1001
1000
1001
0010
,
0110
0100
0110
0001
,
2000
3100
0002
0103
,
1001
0010
0110
0000
,
2000
3000
0002
0003
,
0200
0300
0020
0030
,
2000
3000
0002
0003
,
0020
0030
0200
0300
,
0020
0030
0002
0003
,
2000
3000
0020
0030
,
0200
0300
0020
0030
,
2000
3000
0002
0003
,
2000
3010
0020
0130
,
0200
0301
0002
1003
,
2000
3100
0200
0310
,
0020
0031
0002
1003
,
2000
3001
0002
0103
,
0200
0310
0020
1030
,
2000
3100
0200
0310
,
0020
0031
0002
1003
,
2002
3003
0220
0330
,
1001
0010
0220
0330
,
0220
0330
2002
3003
,
0110
1000
2002
3003
,
2002
3003
0220
0330
,
1001
0100
0220
0330
,
0220
0330
2002
3003
,
1001
0010
0220
0330
,
0001
0100
0001
0100
,
0010
1000
0010
1000
,
0001
0010
0001
0010
,
0100
1000
0100
1000
,
0002
0000
0010
0013
,
2000
0000
0010
3010
,
0002
0000
0100
0103
,
2000
0100
3200
0310
,
0012
0103
0102
0103
,
0010
0010
0102
0013
,
2100
3010
2010
3100
,
0100
0100
2010
3100
,
0002
0100
2003
0100
,
3002
0010
2003
0010
,
3002
0203
0320
2030
,
3002
1003
1001
0110
,
0001
0001
0100
0100
,
0010
0010
1000
1001
,
1000
1000
0100
0100
,
0010
0010
1001
0010
,
1001
0000
0000
0000
;
