#VERSION:0.81;
#TITLE:Hooveristic Trooper;
#SUBTITLE:;
#ARTIST:DJ Noriken;
#TITLETRANSLIT:;
#SUBTITLETRANSLIT:;
#ARTISTTRANSLIT:;
#GENRE:;
#ORIGIN:;
#CREDIT:;
#BANNER:Hooveristic Troopers.png;
#BACKGROUND:Hooveristic Troopers BG.png;
#PREVIEWVID:;
#JACKET:Hooveristic Troopers Jacket.png;
#CDIMAGE:;
#DISCIMAGE:;
#LYRICSPATH:;
#CDTITLE:;
#MUSIC:Hooveristic Trooper [HD] 2.mp3;
#OFFSET:-0.021;
#SAMPLESTART:68.179;
#SAMPLELENGTH:12.000;
#SELECTABLE:YES;
#BPMS:0.000=170.000;
#STOPS:;
#DELAYS:;
#WARPS:;
#TIMESIGNATURES:0.000=4=4;
#TICKCOUNTS:0.000=4;
#COMBOS:0.000=1;
#SPEEDS:0.000=1.000=0.000=0;
#SCROLLS:0.000=1.000;
#FAKES:;
#LABELS:0.000=Song Start;
#BGCHANGES:;
#KEYSOUNDS:;
#ATTACKS:
;

//---------------dance-single - ----------------
#NOTEDATA:;
#CHARTNAME:;
#STEPSTYPE:dance-single;
#DESCRIPTION:;
#CHARTSTYLE:;
#DIFFICULTY:Hard;
#METER:9;
#RADARVALUES:0.664,0.636,0.066,0.066,0.158,614.000,9.000,9.000,0.000,0.000,0.000,0.000,0.000,0.664,0.636,0.066,0.066,0.158,614.000,9.000,9.000,0.000,0.000,0.000,0.000,0.000;
#CREDIT:;
#NOTES:
0000
0000
0000
0000
,
0000
0000
0000
0000
,
0000
0000
0000
0000
,
0000
0000
0000
0000
,
0000
0000
0000
0000
,
0000
0000
0000
0000
,
0000
0000
0000
0000
,
0000
0000
0000
0000
,
0000
0000
0001
0100
0010
0100
0001
0010
,
0100
0010
1000
0010
0001
0100
0010
1000
,
0100
0001
1000
0010
0001
0000
0000
1000
,
0010
0100
0002
0000
1003
0000
0001
1000
,
0001
0000
0000
1000
0100
0010
0100
0001
,
1000
0010
0000
0000
0000
0001
0100
1000
,
0100
0001
0000
0000
0000
0000
1000
0000
,
0010
0000
0100
0000
0001
1000
0001
1000
,
0000
0000
1000
0010
0001
0010
1000
0100
,
0001
0100
1000
0010
1000
0010
0100
0001
,
0100
0001
0001
0010
1000
0010
0001
0100
,
1000
0100
0001
0010
0001
0010
0100
1000
,
0100
1000
1000
0010
0100
0001
1000
0100
,
0010
0001
1000
0010
0001
0010
0100
1000
,
0100
0001
0001
0010
0100
1000
0001
0100
,
0010
1000
0010
0010
0001
0001
0100
0100
,
1000
1000
0001
0100
0010
1000
0001
0010
,
0100
1000
0001
0100
1000
0100
0010
0001
,
0010
1000
1000
0010
0001
1000
0100
0001
,
0010
1000
0001
0100
0001
0100
1000
0100
,
1000
0100
0001
0100
1000
0001
0010
1000
,
0100
0001
1000
0010
1000
0010
0001
0010
,
0001
0010
1000
0100
0010
0001
1000
0010
,
0100
0001
0010
0010
1000
1000
0100
0100
,
0001
0001
1000
0010
0100
0001
1000
0100
,
0010
0001
1000
0010
0001
0010
1000
0100
,
1000
0100
0010
0001
0100
0010
1000
0100
,
0010
0000
0001
0100
1000
0000
1000
0100
,
0001
0000
1000
0100
0001
0100
0010
0001
,
0100
0000
0001
0100
1000
0100
0010
1000
,
0100
0000
1000
0100
0001
0100
0010
0001
,
0100
0100
0001
0010
1000
1000
0010
0001
,
0100
0000
0001
0010
0100
1000
0001
0100
,
0010
1000
0001
0010
1000
0010
0001
0100
,
0001
0100
0010
1000
0100
0010
0001
0100
,
0010
0000
1000
0010
0001
0000
0001
0010
,
1000
0000
0001
0100
1000
0100
0010
1000
,
0100
0000
1000
0100
0001
0100
0010
0001
,
0100
0000
0001
0100
1000
0100
0010
1000
,
0100
0100
1000
0010
0001
0001
0010
1000
,
0100
0000
2000
0000
0000
0001
0000
0000
,
0100
0000
0000
0010
0000
0000
3001
0000
,
0010
0000
0200
0000
0000
1000
0000
0000
,
0010
0000
0000
0001
0000
0000
0310
0000
,
0001
0000
0200
0000
0000
1000
0000
0000
,
0010
0000
0000
0001
0000
0000
0310
0000
,
1000
0000
0002
0000
0000
0010
0000
0000
,
0100
0000
0000
1000
0000
0000
0013
0000
,
0100
2010
3100
2100
,
3010
0000
1000
0010
0001
0000
0001
0010
,
1000
0102
0013
0012
,
0103
0000
0001
0100
1000
0000
1000
0100
,
0001
0000
1000
0010
0100
0001
1000
0100
,
0010
0001
0001
0010
0100
1000
0001
0100
,
0010
1000
1000
0100
0001
1000
0010
0001
,
0100
0000
1000
0000
0001
0000
0010
0000
1000
0000
0001
0000
1000
0001
1000
0000
,
1001
0000
0000
0001
0000
0001
0100
0000
0100
1000
0000
1000
,
0100
0000
0100
0001
0000
0001
0010
0000
0010
0100
0000
0100
,
1000
0000
0000
0001
0000
0000
1000
0000
0000
0000
1000
0000
0100
0000
0000
0000
0100
0000
0001
0000
0000
0000
0001
0000
,
0100
0000
0100
1000
0000
1000
0010
0000
0010
0100
0000
0100
,
0001
0000
0000
1000
0000
0000
0001
0000
0000
0000
0001
0000
0100
0000
0000
0000
0100
0000
1000
0000
0000
0000
1000
0000
,
0001
0000
0001
0010
0000
0010
0100
0000
0100
0001
0000
0001
,
0010
0000
0000
0100
0000
0000
1000
0000
0000
0000
1000
0000
0100
0000
0000
0000
0100
0000
0001
0000
0000
0000
0001
0000
,
1000
0000
1000
0010
0000
0010
0100
0000
0100
1000
0000
1000
,
0010
0100
0001
0010
0100
1000
0001
0100
,
0010
0100
1000
0001
0010
0100
0001
0010
,
0100
0100
1000
0010
0100
0001
1000
0010
,
0100
0010
0001
1000
0100
0010
1000
0100
,
0010
0010
0001
0100
1000
0100
0010
0001
,
0010
1000
0001
0010
0100
1000
0001
0100
,
0010
0010
1000
0100
0001
0100
0010
1000
,
0010
0001
0011
0000
0101
0000
1010
0000
,
1100
0000
0000
0000
0001
0000
0010
0000
0100
1000
0100
0000
1000
0000
0010
0000
,
0001
0000
0010
0000
0100
0000
0001
0000
0010
0000
0100
0000
1000
0010
0000
1000
,
0010
1000
0001
0010
0100
0010
1000
0001
,
0100
0000
0000
0000
1000
0010
0000
0010
1000
0000
0000
0000
0001
0010
0000
0010
,
0001
0000
0001
0100
1000
0100
0010
0100
,
0001
0000
1000
0100
0010
0100
0001
0100
,
1000
0000
0001
0100
1000
0100
0010
0001
,
0010
0010
1000
0100
0001
0001
0100
1000
,
0010
0000
0000
0000
1000
0000
0010
0000
0100
0001
0100
0000
0001
0000
0010
0000
,
1000
0000
0010
0000
0100
0000
1000
0000
0010
0000
0100
0000
0001
0010
0000
0001
,
0010
0001
1000
0100
0010
0100
0001
1000
,
0010
0000
0000
0000
0001
0100
0000
0100
0001
0000
0000
0000
1000
0100
0000
0100
,
1000
0000
1000
0010
0001
0010
0100
0010
,
1000
0000
0001
0010
0100
0010
1000
0010
,
0001
0000
1000
0010
0001
0010
0100
1000
,
0100
0100
0001
0010
1000
1000
0010
0001
,
0100
0000
0000
0000
;

//---------------dance-single - ----------------
#NOTEDATA:;
#CHARTNAME:;
#STEPSTYPE:dance-single;
#DESCRIPTION:;
#CHARTSTYLE:;
#DIFFICULTY:Medium;
#METER:7;
#RADARVALUES:0.551,0.565,0.037,0.206,0.000,491.000,5.000,28.000,0.000,0.000,0.000,0.000,0.000,0.551,0.565,0.037,0.206,0.000,491.000,5.000,28.000,0.000,0.000,0.000,0.000,0.000;
#CREDIT:;
#NOTES:
0000
0000
0000
0000
,
0000
0000
0000
0000
,
0000
0000
0000
0000
,
0000
0000
0000
0000
,
0000
0000
0000
0000
,
0000
0000
0000
0000
,
0000
0000
0000
0000
,
0000
0000
0000
0000
,
0000
0001
0010
0100
,
1000
0010
0100
0001
,
0010
0100
1000
0000
,
0001
0100
1000
0100
,
0001
0000
1000
0100
,
0001
0000
1000
0010
,
0001
0000
1000
0010
,
0100
0000
0001
0000
1000
0001
1000
0001
,
0000
1000
0100
0001
,
0100
0000
1000
0010
0001
0000
0001
0010
,
1000
0001
0100
1000
,
0100
0000
0001
0010
1000
0000
1000
0010
,
0001
1000
0010
0100
,
0001
0000
1000
0001
1000
0000
0001
1000
,
0001
1000
0100
0001
,
0100
0000
1000
1000
0010
0010
0001
0001
,
0100
0100
1000
0000
0010
0000
0100
0000
,
0001
0000
1000
0001
1000
0000
0001
1000
,
0001
1000
0100
0001
,
0100
0000
1000
0010
0001
0000
0001
0010
,
1000
0001
0010
1000
,
0010
0000
0001
0100
1000
0000
1000
0100
,
0001
1000
0010
0100
,
0001
0000
1000
1000
0100
0100
0001
0001
,
0010
0010
1000
0000
0100
0000
0001
0100
,
1000
0000
0001
0000
0100
0000
1000
0100
,
0001
0000
1000
0010
0100
0000
0001
0010
,
0100
0000
1000
0100
0010
0000
0001
0100
,
0010
0000
1000
0000
0010
0000
0001
0010
,
1000
0000
0001
0000
0010
0000
1000
0010
,
0001
0000
1000
0100
0001
0000
0001
0100
,
1000
0000
0001
0010
0100
1000
0100
0010
,
0001
0000
1000
0000
0010
0000
0100
0001
,
0100
0000
0001
0000
0010
0000
0100
1000
,
0100
0000
1000
0100
0001
0000
0001
0010
,
1000
0000
0001
0100
1000
0000
1000
0010
,
0001
0000
1000
0000
0100
0000
0001
0100
,
1000
0000
0001
0000
0100
0000
1000
0100
,
0001
0000
1000
0010
0100
0000
0001
0010
,
0100
0000
1000
0010
0100
0001
0010
0100
,
1000
0000
0020
0000
0000
1000
0000
0000
,
0100
0000
0000
0001
0000
0000
0130
0000
,
0001
0000
0020
0000
0000
0001
0000
0000
,
0100
0000
0000
1000
0000
0000
0130
0000
,
1000
0000
0002
0000
0000
0010
0000
0000
,
0100
0000
0000
1000
0000
0000
0013
0000
,
0100
0000
2000
0000
0000
0100
0000
0000
,
0001
0000
0000
0010
0000
0000
3100
0000
,
1000
0001
0010
0100
,
1000
0000
0001
0100
1000
0000
1000
0100
,
0001
1000
0010
0100
,
0001
0000
1000
0010
0001
0000
0001
0010
,
1000
0000
0001
0010
0100
1000
0001
0010
,
0100
1000
1000
0010
0100
0001
1000
0010
,
0100
0001
0001
0100
1000
0100
0001
0010
,
1000
0010
0001
0000
1000
0000
0001
0000
,
1001
0002
0203
2300
,
3100
0002
0000
0023
0000
0230
0000
1300
,
0100
0100
2000
0000
3200
0000
0302
0000
,
0103
2000
0000
3020
0000
0230
0000
0301
,
0010
0010
0002
0000
0023
0000
2030
0000
,
3010
0200
0000
0320
0000
0032
0000
1003
,
0010
0010
2000
0000
3020
0000
0032
0000
,
0013
0200
0000
0320
0000
2030
0000
3001
,
0010
0010
0001
0100
0010
1000
0001
0100
,
0010
0100
1000
0001
0010
0100
0001
0010
,
0100
0100
1000
0010
0100
0001
1000
0010
,
0100
0010
0001
1000
0100
0010
1000
0100
,
0010
0010
0001
0100
1000
0100
0010
0001
,
0010
0100
0001
0010
0100
1000
0100
0010
,
0001
0001
1000
0010
0001
0010
0100
1000
,
0100
0001
0011
0000
0101
0000
1010
0000
,
1100
0000
0001
0010
0100
1000
0001
0100
,
0010
1000
0001
0010
1000
0010
0001
0100
,
0001
0100
0010
1000
0100
0010
0001
0100
,
0010
0000
1000
0100
0001
0000
0001
0100
,
1000
0000
0001
0100
1000
0100
0010
1000
,
0100
0000
1000
0100
0001
0100
0010
0001
,
0100
0000
0001
0100
1000
0100
0010
0001
,
0010
0010
1000
0100
0001
0001
0100
1000
,
0010
0000
1000
0010
0100
0001
1000
0100
,
0010
0001
1000
0010
0001
0010
1000
0100
,
1000
0100
0010
0001
0100
0010
1000
0100
,
0010
0000
0001
0010
1000
0000
1000
0010
,
0001
0000
1000
0100
0001
0100
0010
0001
,
0100
0000
0001
0100
1000
0100
0010
1000
,
0100
0000
1000
0010
0001
0010
0100
1000
,
0100
0100
0001
0010
1000
1000
0010
0001
,
0100
0000
0000
0000
;

//---------------dance-single - ----------------
#NOTEDATA:;
#CHARTNAME:;
#STEPSTYPE:dance-single;
#DESCRIPTION:;
#CHARTSTYLE:;
#DIFFICULTY:Easy;
#METER:5;
#RADARVALUES:0.359,0.318,0.022,0.000,0.000,339.000,3.000,0.000,0.000,0.000,0.000,0.000,0.000,0.359,0.318,0.022,0.000,0.000,339.000,3.000,0.000,0.000,0.000,0.000,0.000,0.000;
#CREDIT:;
#NOTES:
// measure 0
0000
0000
0000
0000
,  // measure 1
0000
0000
0000
0000
,  // measure 2
0000
0000
0000
0000
,  // measure 3
0000
0000
0000
0000
,  // measure 4
0000
0000
0000
0000
,  // measure 5
0000
0000
0000
0000
,  // measure 6
0000
0000
0000
0000
,  // measure 7
0000
0000
0000
0000
,  // measure 8
0000
0001
0010
0100
,  // measure 9
1000
0001
0100
0010
,  // measure 10
1000
0001
1000
0000
,  // measure 11
1000
0100
0010
0001
,  // measure 12
1000
0000
0010
0100
,  // measure 13
0001
0000
0010
0100
,  // measure 14
1000
0000
0001
0100
,  // measure 15
0010
1000
0001
1001
,  // measure 16
0000
1000
1000
0001
,  // measure 17
0001
0100
0010
1000
,  // measure 18
0001
0010
0010
0100
,  // measure 19
0100
1000
0010
0100
,  // measure 20
0001
1000
1000
0100
,  // measure 21
0100
0001
0100
1000
,  // measure 22
0010
0001
0001
0010
,  // measure 23
0010
1000
0100
0010
,  // measure 24
0001
0100
0010
0100
,  // measure 25
0001
0010
0010
0100
,  // measure 26
0100
1000
0010
0100
,  // measure 27
0001
0010
0010
0001
,  // measure 28
0001
0100
0010
1000
,  // measure 29
0100
0010
0010
0100
,  // measure 30
0100
1000
0010
0001
,  // measure 31
0010
1000
1000
0100
,  // measure 32
0100
0010
0001
0100
,  // measure 33
0001
0010
0100
1000
,  // measure 34
0010
0001
0010
1000
,  // measure 35
0100
0001
0100
1000
,  // measure 36
0010
0100
0001
0100
,  // measure 37
0010
1000
0100
0010
,  // measure 38
0001
0010
0100
1000
,  // measure 39
0010
0001
0010
1000
,  // measure 40
0100
0001
0100
1000
,  // measure 41
0010
0100
0001
0010
,  // measure 42
0100
0010
0001
0100
,  // measure 43
0010
0100
0001
0010
,  // measure 44
0100
0010
0001
0100
,  // measure 45
0010
1000
0001
0010
,  // measure 46
0100
1000
0010
0100
,  // measure 47
0001
1000
0100
0010
,  // measure 48
0100
0000
1000
0000
0000
0010
0000
0000
,  // measure 49
0100
0000
0000
0001
0000
0000
1000
0000
,  // measure 50
0001
0000
0010
0000
0000
0100
0000
0000
,  // measure 51
1000
0000
0000
0010
0000
0000
0100
0000
,  // measure 52
0001
0000
0100
0000
0000
0010
0000
0000
,  // measure 53
1000
0000
0000
0100
0000
0000
0010
0000
,  // measure 54
0001
0000
0010
0000
0000
0100
0000
0000
,  // measure 55
1000
0000
0000
0010
0000
0000
0100
0000
,  // measure 56
0001
0010
0100
0010
,  // measure 57
0001
0100
0010
1000
,  // measure 58
0100
1000
0010
0100
,  // measure 59
0001
0010
0100
1000
,  // measure 60
0010
1000
0100
0010
,  // measure 61
0001
0100
0010
1000
,  // measure 62
0001
0010
0100
1000
,  // measure 63
0010
0100
0001
1000
,  // measure 64
1001
0001
0010
0100
,  // measure 65
0010
0001
0100
0010
,  // measure 66
1000
0100
1000
0010
,  // measure 67
0100
0010
1000
0100
,  // measure 68
0010
0001
0100
0010
,  // measure 69
0100
0001
0010
0100
,  // measure 70
1000
0010
0100
0001
,  // measure 71
0010
0100
1000
0010
,  // measure 72
0100
0001
0010
1000
,  // measure 73
0010
0001
0100
1000
,  // measure 74
0100
0001
0010
0100
,  // measure 75
1000
0010
0100
0001
,  // measure 76
0010
0100
1000
0001
,  // measure 77
0100
0010
1000
0001
,  // measure 78
0010
0100
0010
0001
,  // measure 79
0100
0010
1000
0001
,  // measure 80
1001
1000
0100
0001
,  // measure 81
0100
1000
0010
0001
,  // measure 82
0010
1000
0010
0100
,  // measure 83
0001
1000
0100
0010
,  // measure 84
0001
1000
0010
0001
,  // measure 85
0010
1000
0100
0001
,  // measure 86
0100
1000
0010
0100
,  // measure 87
0001
1000
0100
0010
,  // measure 88
0001
0001
0100
1000
,  // measure 89
0100
0001
0010
1000
,  // measure 90
0010
0001
0100
0010
,  // measure 91
1000
0001
0010
0100
,  // measure 92
1000
0001
0100
1000
,  // measure 93
0100
0001
0010
1000
,  // measure 94
0010
0001
0010
0100
,  // measure 95
1000
0001
0100
0010
,  // measure 96
1000
0000
0000
0000
;
