#TITLE:Falling Down;
#SUBTITLE:;
#ARTIST:Atreyu;
#TITLETRANSLIT:;
#SUBTITLETRANSLIT:;
#ARTISTTRANSLIT:;
#GENRE:;
#CREDIT:;
#BANNER:[Male Vocalists] - Falling Down-bn.png;
#BACKGROUND:[Male Vocalists] - Falling Down-bg.png;
#LYRICSPATH:;
#CDTITLE:cdtitle.png;
#MUSIC:[Male Vocalists] - Falling Down.ogg;
#OFFSET:-0.086;
#SAMPLESTART:32.626;
#SAMPLELENGTH:12.000;
#SELECTABLE:YES;
#BPMS:0.000=177.000
;
#STOPS:
;
#BGCHANGES:;
#KEYSOUNDS:;
#ATTACKS:;

//---------------dance-single - ----------------
#NOTES:
     dance-single:
     :
     Hard:
     9:
     0.668,0.766,0.462,0.159,0.768,510.000,58.000,20.000,0.000,0.000,0.000,0.668,0.766,0.462,0.159,0.768,510.000,58.000,20.000,0.000,0.000,0.000:
0000
0000
0000
0000
,
0000
0000
0000
0000
,
0000
0000
0000
0000
,
0000
0000
0000
0000
,
0001
0000
0000
1000
0000
0010
0100
0000
0000
0001
0000
1000
,
0100
0000
0000
0010
0000
0001
1000
0000
0010
0000
0000
0000
,
1000
0000
0000
0001
0000
0010
0100
0000
0000
1000
0000
0010
,
0100
0000
0000
0001
0000
1000
0100
0010
0100
0010
0000
0010
,
0001
0000
0000
1000
0000
0100
1000
0000
0000
1000
0000
0100
,
1000
0000
0000
1000
0000
0100
1000
0000
0001
0000
0000
0000
,
1000
0000
0000
0001
0000
0100
0001
0000
0000
0001
0000
0100
,
0001
0000
0000
0001
0000
0100
0001
0000
1000
0000
0000
0000
,
0001
0000
0000
0010
0000
0100
0010
0000
0000
0010
0000
0100
,
0010
0000
0000
0010
0000
0100
0010
0000
0010
0001
0000
0001
,
1000
1010
0101
0011
,
0001
0000
0000
0100
0000
0000
0010
0000
0000
0100
0000
0000
0000
0000
0000
0000
0010
0000
1000
0000
0000
0000
1000
0000
,
0001
0000
0000
1000
0000
0010
1000
0000
0000
1000
0000
0010
,
1000
0000
0000
1000
0000
0010
1000
0000
0100
0000
0000
0000
,
1000
0000
0000
0001
0000
0010
0001
0000
0000
0001
0000
0010
,
0001
0000
0000
0001
0000
0010
0001
0000
0100
0000
0000
0100
,
0010
1010
0010
1010
,
1000
1100
1000
1100
,
0001
0000
0100
0010
0000
1000
0010
0000
1000
0100
0000
0010
,
0001
0000
1000
0010
0000
0100
0010
1000
0001
0010
0100
1000
,
0010
0000
0000
0110
0000
0000
0010
0000
0100
0001
0000
1000
,
0000
0000
1000
0100
0000
0000
0010
0000
0100
1000
0000
0000
,
0001
0000
0000
0101
0000
0000
0100
0000
0010
1000
0000
0001
,
0000
0000
0001
0010
0000
0000
0100
0000
1000
0001
0000
0000
,
1000
0000
0000
1010
0000
0000
0010
0000
0100
0010
0000
0000
,
0100
0000
0000
0101
0000
0000
0001
0000
0010
0001
0000
0000
,
2100
0100
0100
3100
,
1002
0000
0000
1000
0000
0000
1003
0000
1000
0001
0000
0001
,
1000
0000
0000
1010
0000
0000
0010
0000
0100
0010
0000
1000
,
0000
0000
1000
0001
0000
0000
1000
0000
0100
0010
0000
0000
,
0001
0000
0000
0101
0000
0000
0100
0000
0010
0100
0000
0001
,
0000
0000
0001
0010
0000
0000
0100
0000
1000
0001
0000
0000
,
0100
0000
0000
0101
0000
0000
0001
0000
1000
0010
0000
1000
,
0010
0000
0000
1010
0000
0000
0010
0000
0100
0001
0000
0000
,
0012
0010
0010
0013
,
1200
1000
1000
1300
,
1010
1010
0101
0101
,
0011
0000
0000
0011
0000
0000
0010
0100
1000
0100
0010
0001
,
1000
0000
1000
0000
0000
0000
2020
0000
0000
3030
0000
0000
,
0001
0000
0001
0000
0000
0000
0100
0010
0100
0010
0000
0000
,
1000
0000
1000
0000
0000
0000
2200
0000
0000
3300
0000
0000
,
0001
0000
0001
0000
0000
0000
0010
0100
0010
0100
0000
0000
,
0010
0011
2002
3003
,
1000
0000
1000
0000
0000
0000
0001
0100
0001
0100
0000
0000
,
0010
0000
0000
0100
0000
0000
0110
0000
0000
0010
0100
0010
,
1000
0000
1000
0000
1000
0000
0002
0000
0000
0000
0000
0000
,
0000
0000
0000
0000
,
0000
0000
0000
0003
0000
0000
1000
0000
0000
0001
0000
0100
,
0010
0000
0000
0001
0000
0100
0010
0000
0000
0001
0000
0010
,
0100
0000
0100
1000
0000
1000
0010
0000
0010
0000
0010
0000
,
0100
0000
0100
0000
0100
0000
0001
0000
1000
0100
0000
1000
,
0000
0000
0001
0100
0000
0100
0010
0000
0000
1000
0000
0100
,
0010
0000
0000
1000
0000
0100
0010
0000
0000
1000
0000
0001
,
0100
0000
0100
0010
0000
0010
1000
0100
0010
0001
1000
0100
,
0010
0100
1000
0001
0100
0010
0100
0000
0100
0000
0100
0000
,
0020
0000
0000
0030
0000
0000
0101
0000
0000
1010
0000
1000
,
0100
0000
0000
1010
0000
1000
0100
0000
0000
0110
0000
0010
,
0001
0000
0001
1000
0000
1000
0010
0000
0000
0110
0000
0100
,
0001
0000
0000
0110
0000
0100
0001
0000
0000
0011
0000
0010
,
0100
0000
0100
1000
0000
0001
1000
0000
0000
1010
0000
0010
,
0100
0000
0000
1010
0000
0010
0100
0000
0000
0101
0000
0001
,
1000
0000
1000
0100
0000
0000
1000
0000
0001
0100
0000
0001
,
0100
0000
0001
0100
0000
0001
1000
0000
0001
0100
0000
0001
,
0100
0000
0001
0100
0000
0001
1000
0100
1000
0010
1000
0010
,
0100
0010
0100
0001
0100
0001
1000
0100
0010
0100
1000
0010
,
0100
0001
0010
0100
0010
0001
1000
0000
0000
1010
0000
0000
,
1000
0000
0001
0010
0000
0001
0010
0000
0010
0100
0000
0000
,
1000
0000
0001
0100
0000
0000
0001
0000
0000
0011
0000
0000
,
0001
0000
1000
0010
0000
1000
0010
0000
0010
0100
0000
0000
,
0001
0000
1000
0100
0000
0000
0010
0000
0001
0100
0000
0000
,
0010
0000
0001
0100
0000
0000
0010
0000
1000
0100
0000
0000
,
0010
0000
0001
1000
0000
0000
1002
0000
0000
1000
0000
0000
,
1000
1003
2010
0010
,
3010
0000
0010
0100
0000
0100
0001
0000
0000
0101
0000
0000
,
0001
0000
1000
0010
0000
1000
0010
0000
1000
0100
0000
0100
,
0010
0000
0010
0001
0000
0000
1000
0000
0000
1010
0000
0000
,
0001
0000
0100
0001
0000
0100
0001
0000
1000
0001
0000
0001
,
0010
0000
0010
0100
0000
0000
1000
0000
0001
0100
0000
0000
,
1000
0000
0001
0100
0000
0000
1000
0000
0001
0010
0000
0000
,
0100
0000
1000
0010
0000
0000
0120
0000
0000
0100
0000
0000
,
0100
0130
0201
0001
,
0301
0000
0001
1000
0000
0000
1010
0000
0000
1010
0000
0000
,
1100
1100
0110
0110
,
0010
0001
0010
0100
1000
0010
0100
0000
0100
0000
0000
0000
,
0202
0000
0000
0303
0000
0000
0010
0000
0010
0000
0000
0000
,
1000
0100
1000
0100
0000
0000
0010
0000
0000
0011
0000
0000
,
2002
0000
0000
3003
0000
0000
0010
0000
0010
0000
0000
0000
,
0100
0001
0100
0001
0000
0000
1000
0000
1100
0000
0000
0000
;

//---------------dance-single - ----------------
#NOTES:
     dance-single:
     :
     Medium:
     7:
     0.479,0.438,0.271,0.119,0.195,372.000,34.000,15.000,0.000,0.000,0.000,0.479,0.438,0.271,0.119,0.195,372.000,34.000,15.000,0.000,0.000,0.000: // measure 0
0000
0000
0000
0000
,  // measure 1
0000
0000
0000
0000
,  // measure 2
0000
0000
0000
0000
,  // measure 3
0000
0000
0000
0000
,  // measure 4
0001
1000
1010
1000
,  // measure 5
1010
0000
0000
1000
0000
0000
0010
0000
0100
0000
0000
0000
,  // measure 6
0001
1000
1100
1000
,  // measure 7
1100
0000
0000
1000
0000
0000
0100
0000
0100
0010
0000
0010
,  // measure 8
0100
1000
1001
1000
,  // measure 9
1001
0000
0000
1000
0000
0000
0001
0000
0100
0000
0000
0000
,  // measure 10
0010
0100
0101
0100
,  // measure 11
0101
0000
0000
0100
0000
0000
0010
0000
1000
0000
0000
0000
,  // measure 12
0100
0010
0011
0010
,  // measure 13
0011
0010
0011
0001
,  // measure 14
1000
1000
0010
0010
,  // measure 15
2000
0000
0000
0000
0000
0000
3001
0000
0001
0100
0000
0100
,  // measure 16
0001
1000
1010
1000
,  // measure 17
1010
0000
0000
1000
0000
0000
0001
0000
0010
0000
0000
0000
,  // measure 18
0001
0100
0110
0100
,  // measure 19
0110
0000
0000
0100
0000
0000
0001
0000
1000
0000
0000
0000
,  // measure 20
0001
0011
0001
0011
,  // measure 21
0001
1001
0001
1001
,  // measure 22
1020
1000
1000
1000
,  // measure 23
0100
0000
0000
0130
0000
0000
0100
0000
0100
0010
0000
0010
,  // measure 24
1000
0000
0000
1000
0000
0000
0001
0000
1000
0001
0000
0000
,  // measure 25
1000
0000
0000
1000
0000
0000
0001
0000
1000
0001
0000
0000
,  // measure 26
0010
0000
0000
0010
0000
0000
0100
0000
0010
0100
0000
0000
,  // measure 27
0010
0000
0000
0010
0000
0000
0100
0000
0010
0100
0000
0000
,  // measure 28
0010
0001
0010
0100
,  // measure 29
0010
0000
0001
0010
0000
0000
0001
0000
0000
0100
0000
0000
,  // measure 30
0020
0100
0100
0130
,  // measure 31
0200
0000
0000
0301
0000
0000
0001
0000
0001
1000
0000
1000
,  // measure 32
0010
0000
0000
0010
0000
0000
0100
0000
0010
0100
0000
0000
,  // measure 33
0010
0000
0000
0010
0000
0000
0100
0000
0010
0100
0000
0000
,  // measure 34
0001
0000
0000
0001
0000
0000
1000
0000
0001
1000
0000
0000
,  // measure 35
0001
0000
0000
0001
0000
0000
1000
0000
0001
1000
0000
0000
,  // measure 36
0010
0100
0001
0100
,  // measure 37
0010
0000
0100
0010
0000
0000
1000
0000
0000
0100
0000
0000
,  // measure 38
0020
0001
0001
0031
,  // measure 39
0002
1000
1000
1003
,  // measure 40
0010
0010
0100
0100
,  // measure 41
0010
0010
0100
0010
,  // measure 42
1000
0000
1001
0000
,  // measure 43
0001
0000
0010
0010
,  // measure 44
0100
0000
0110
0000
,  // measure 45
0010
0000
0001
0001
,  // measure 46
1000
0010
1010
0000
,  // measure 47
1000
0000
0100
0100
,  // measure 48
0010
0001
0010
0001
,  // measure 49
1000
0000
1000
0000
1000
0000
0002
0000
0000
0000
0000
0000
,  // measure 50
0000
0000
0000
0000
,  // measure 51
0000
0000
0003
0000
1000
0000
0010
0100
,  // measure 52
0010
0000
0010
0100
0010
0000
0010
0100
,  // measure 53
0010
0000
0000
0000
1000
0000
0000
0000
0000
0000
0000
0000
0001
0000
0000
0000
0000
0000
0010
0000
0000
0100
0000
0000
,  // measure 54
0010
0000
0010
0100
0010
0000
0010
0100
,  // measure 55
0010
0000
0000
0000
0001
0000
0000
0000
0000
0000
0000
0000
1000
0000
0000
0000
0000
0000
0100
0000
0000
0010
0000
0000
,  // measure 56
0100
0000
0100
0010
0100
0000
0100
0010
,  // measure 57
0100
0000
1000
0000
0000
0000
0001
0000
0000
0001
0000
0000
,  // measure 58
0100
0000
0000
0100
0000
0000
0001
0000
0001
0000
0001
0000
,  // measure 59
2000
3000
0001
0011
,  // measure 60
0001
0011
0001
0011
,  // measure 61
0001
0000
0100
0000
0000
0000
0010
0000
0000
1010
0000
0000
,  // measure 62
0010
1010
0010
1010
,  // measure 63
0010
0000
0100
0000
0000
0000
0001
0000
0000
0101
0000
0000
,  // measure 64
0001
0101
0001
0101
,  // measure 65
0001
1000
0200
0010
,  // measure 66
0010
0010
0320
0100
,  // measure 67
0100
0100
0230
0000
,  // measure 68
0000
0000
0000
0300
0000
0000
0010
0000
0010
0001
0000
0001
,  // measure 69
1000
0000
1000
0010
0000
0010
0100
0000
0000
0100
0000
0000
,  // measure 70
0001
0000
0100
0001
0000
0000
0100
0000
0000
0100
0000
0000
,  // measure 71
0001
0000
0100
0001
0000
0000
1000
0000
0000
1000
0000
0000
,  // measure 72
0010
0000
1000
0010
0000
0000
1000
0000
0000
1000
0000
0000
,  // measure 73
0010
0000
1000
0010
0000
0000
1000
0000
0000
0100
0000
0000
,  // measure 74
0010
0000
0000
0100
0000
0000
1000
0000
0100
1000
0000
0000
,  // measure 75
0001
0001
0200
0010
,  // measure 76
0010
0310
0020
1030
,  // measure 77
0010
0000
0010
0100
0000
0100
0001
0000
0000
0001
0000
0000
,  // measure 78
1000
0000
0100
1000
0000
0000
0001
0000
0000
0001
0000
0000
,  // measure 79
1000
0000
0100
1000
0000
0000
0010
0000
0000
0010
0000
0000
,  // measure 80
0100
0000
0001
0100
0000
0000
0010
0000
0000
0010
0000
0000
,  // measure 81
0100
0000
0001
0100
0000
0000
0001
0000
0000
0010
0000
0000
,  // measure 82
0100
0000
0000
0010
0000
0000
0001
0000
0010
0001
0000
0000
,  // measure 83
1000
1000
0020
0100
,  // measure 84
0100
0130
0200
0001
,  // measure 85
0001
0301
1000
1000
,  // measure 86
0001
0001
1000
1000
,  // measure 87
0001
0001
0010
0000
,  // measure 88
0110
0000
0100
0000
,  // measure 89
1000
1000
0001
0100
,  // measure 90
0101
0000
0001
0000
,  // measure 91
0100
0000
0000
0100
0000
0000
0010
0000
0010
0000
0000
0000
;

//---------------dance-single - ----------------
#NOTES:
     dance-single:
     :
     Easy:
     4:
     0.322,0.291,0.127,0.032,0.000,263.000,16.000,4.000,0.000,0.000,0.000,0.322,0.291,0.127,0.032,0.000,263.000,16.000,4.000,0.000,0.000,0.000: // measure 0
0000
0000
0000
0000
,  // measure 1
0000
0000
0000
0000
,  // measure 2
0000
0000
0000
0000
,  // measure 3
0000
0000
0000
0000
,  // measure 4
0001
0100
0001
0100
,  // measure 5
0001
0100
0010
0000
,  // measure 6
1000
0010
1000
0010
,  // measure 7
1000
0010
0100
0000
,  // measure 8
0001
1000
0100
1000
,  // measure 9
0001
1000
0100
0000
,  // measure 10
1000
0001
0100
0001
,  // measure 11
1000
0001
0100
0000
,  // measure 12
0001
0010
0100
0010
,  // measure 13
0001
0010
0100
1000
,  // measure 14
0001
0100
0010
0100
,  // measure 15
0001
0100
0010
0000
,  // measure 16
1000
0100
0010
0100
,  // measure 17
1000
0100
0010
0000
,  // measure 18
0001
0010
0100
0010
,  // measure 19
0001
0010
0100
1000
,  // measure 20
0001
0001
0100
0100
,  // measure 21
0001
0001
0100
0100
,  // measure 22
0002
0000
0000
0000
,  // measure 23
2003
0000
0000
3000
,  // measure 24
0001
0000
0001
0000
,  // measure 25
1000
0100
1000
0000
,  // measure 26
0001
0000
0001
0000
,  // measure 27
1000
0010
1000
0010
,  // measure 28
0100
0000
0110
0000
,  // measure 29
0010
0000
0110
0000
,  // measure 30
0100
0010
0100
0010
,  // measure 31
1000
0010
1000
0010
,  // measure 32
1000
0000
1000
0000
,  // measure 33
0001
0010
0001
0000
,  // measure 34
1000
0000
1000
0000
,  // measure 35
0001
0100
0001
0100
,  // measure 36
0010
0000
0110
0000
,  // measure 37
0100
0000
0110
0000
,  // measure 38
0010
0100
0010
0100
,  // measure 39
0001
0100
0001
0100
,  // measure 40
0001
0001
0010
0010
,  // measure 41
0100
0100
1000
1000
,  // measure 42
0001
0000
0101
0000
,  // measure 43
1000
0000
1100
0000
,  // measure 44
0001
0000
0101
0000
,  // measure 45
1000
0000
1100
0000
,  // measure 46
0001
0100
0001
0000
,  // measure 47
1000
0000
1100
0000
,  // measure 48
0001
0100
0001
0000
,  // measure 49
1000
0000
0002
0000
,  // measure 50
0000
0000
0000
0000
,  // measure 51
0000
0003
1000
0010
,  // measure 52
0100
0010
1000
0001
,  // measure 53
1000
0000
0001
0001
,  // measure 54
0100
0100
0001
1000
,  // measure 55
0001
0000
1000
0100
,  // measure 56
0010
0100
1000
0001
,  // measure 57
1000
0000
0001
0100
,  // measure 58
0001
0100
0001
0001
,  // measure 59
1000
0000
0001
0010
,  // measure 60
0100
0010
0001
0010
,  // measure 61
0100
0000
1000
0100
,  // measure 62
0010
0100
1000
0100
,  // measure 63
0010
0000
0001
0100
,  // measure 64
0010
0100
0001
0100
,  // measure 65
0010
1000
0100
0100
,  // measure 66
0100
0100
0010
0010
,  // measure 67
0010
0010
0002
0000
,  // measure 68
0000
0000
0000
0000
,  // measure 69
0000
0003
1000
0000
,  // measure 70
1000
0000
0001
0100
,  // measure 71
0001
0000
1000
0000
,  // measure 72
1000
0000
0001
0010
,  // measure 73
0001
0010
0100
0000
,  // measure 74
0110
0000
0010
0000
,  // measure 75
0110
0000
0100
1000
,  // measure 76
0100
1000
0001
1000
,  // measure 77
0001
1000
0001
0000
,  // measure 78
0001
0000
1000
0010
,  // measure 79
1000
0000
0001
0000
,  // measure 80
0001
0000
1000
0100
,  // measure 81
1000
0100
0010
0000
,  // measure 82
0110
0000
0100
0000
,  // measure 83
0110
0000
0010
0001
,  // measure 84
0010
0001
1000
0001
,  // measure 85
1000
0001
0100
0100
,  // measure 86
0010
0010
0100
0100
,  // measure 87
0010
0010
1000
0000
,  // measure 88
1010
0000
0001
0000
,  // measure 89
0011
0000
1000
0010
,  // measure 90
1000
0000
0001
0000
,  // measure 91
0011
0000
0001
0000
;
