#TITLE:Fall In The Web Of Desire;
#SUBTITLE:;
#ARTIST:Powerful T.;
#TITLETRANSLIT:;
#SUBTITLETRANSLIT:;
#ARTISTTRANSLIT:;
#CREDIT:;
#BANNER:Fall In The Web Of Desire.png;
#BACKGROUND:Fall In The Web Of Desire-bg.png;
#LYRICSPATH:;
#CDTITLE:;
#MUSIC:Fall In The Web Of Desire.mp3;
#OFFSET:-0.068;
#SAMPLESTART:62.000;
#SAMPLELENGTH:16.420;
#SELECTABLE:YES;
#BPMS:0.000=153.000;
#STOPS:;
#BGCHANGES:;

//---------------dance-single - ----------------
#NOTES:
     dance-single:
     :
     Hard:
     8:
     0.599,0.598,0.467,0.467,0.140:
0000
0000
0000
0000
,
0000
0000
0000
0000
,
0000
0000
0000
0000
,
0000
0000
0000
0000
,
1000
0100
0010
0001
0010
0100
1000
0001
,
1000
1000
0001
0001
1000
1000
0002
0000
,
1003
0010
0100
0001
0100
0010
1000
1001
,
0000
0000
0101
0000
0000
0000
0220
0000
0000
0000
0330
0000
1000
0001
1000
0001
,
2000
0010
0100
3001
,
0002
0010
0100
1003
,
0020
1000
0100
0031
,
0200
0310
1100
0101
,
1002
0100
0010
1003
,
2000
0100
0010
3001
,
0200
0000
0001
0000
0310
0000
1000
0002
,
0000
0003
1100
0101
,
1000
0000
0001
0010
0000
0001
0010
0000
0011
0000
0000
0000
1001
0000
0000
0000
,
1000
0000
0010
1000
0000
0010
1000
0000
0010
0000
0200
0000
0000
0000
0301
0000
,
1000
0000
0100
1000
0000
0000
0001
0100
0001
0100
0001
0000
1000
0000
0002
0000
,
0010
0103
1010
0011
,
0001
0000
1000
0100
0000
1000
0100
0000
1100
0000
0000
0000
1001
0000
0000
0000
,
0001
0000
0100
0001
0000
0100
0001
0000
0100
0000
0020
0000
0000
0000
1030
0000
,
0001
0000
0010
0001
0000
0000
1000
0010
1000
0010
1000
0000
0001
0000
2000
0000
,
0000
0100
0000
3010
1010
0000
0011
0000
,
0102
0000
0010
0010
0000
0100
0103
0000
,
2100
0000
0010
0010
0000
0100
3100
0000
,
1000
0100
0001
0100
1000
0001
1000
0000
,
0001
0100
0010
0000
1010
0000
0101
0000
,
2010
0000
0100
0100
0000
0010
3010
0000
,
0012
0000
0100
0100
0000
0010
0013
0000
,
0001
0010
1000
0010
0001
1000
0001
0000
,
1000
1100
0000
0101
0000
2002
0000
3003
,
2100
0000
3001
0000
0102
0000
1003
0020
,
0000
0100
0130
0000
0001
0001
1000
0000
,
1010
1010
0101
0101
,
1000
0100
0001
0100
0010
0010
0001
0000
,
2010
0000
3001
0000
0012
0000
1003
0200
,
0000
0010
0310
0000
0110
0000
0100
1000
,
0001
0100
0000
0010
0000
1000
0000
2002
,
0000
0000
3003
0000
1000
0100
0001
0100
,
2000
0000
3001
0000
0102
0000
0010
0010
,
0000
0100
0103
0000
0001
0010
0100
2000
,
0000
0001
3001
0000
1000
0010
0100
0002
,
0000
1000
1003
0000
0001
0100
0000
1000
,
0200
0000
0310
0000
2010
0000
0100
0100
,
0000
0001
3001
0000
1000
0010
0100
0002
,
0000
1000
1003
0000
0001
0010
0100
2000
,
0000
0001
3001
0000
1000
0010
0001
0010
,
2000
0000
3001
0000
0012
0000
0100
0100
,
0000
0010
0013
0000
0001
0100
0010
2000
,
0000
0001
3001
0000
1000
0100
0010
0002
,
0000
1000
1003
0000
0001
0010
0000
1000
,
0020
0000
0130
0000
2100
0000
0010
0010
,
0000
0001
3001
0000
1000
0010
0100
0002
,
0000
1000
1003
0000
0001
0010
0100
1100
,
0000
0101
0101
0000
1000
0100
0001
0100
,
1000
0000
0001
0010
0000
0001
0010
0000
0011
0000
0000
0000
1001
0000
0000
0000
,
1000
0000
0010
1000
0000
0010
1000
0000
0010
0000
0200
0000
0000
0000
0301
0000
,
1000
0000
0100
1000
0000
0000
0001
0100
0001
0100
0001
0000
1000
0000
0002
0000
,
0010
0103
1010
0011
,
0001
0000
1000
0100
0000
1000
0100
0000
1100
0000
0000
0000
1001
0000
0000
0000
,
0001
0000
0100
0001
0000
0100
0001
0000
0100
0000
0020
0000
0000
0000
1030
0000
,
0001
0000
0010
0001
0000
0000
1000
0010
1000
0010
1000
0000
0001
0000
2000
0000
,
0000
0100
0000
3010
0110
0000
2002
0000
,
3003
0000
0000
0000
;

//---------------dance-double - ----------------
#NOTES:
     dance-double:
     :
     Hard:
     7:
     0.554,0.508,0.327,0.448,0.000:
00000000
00000000
00000000
00000000
,
00000000
00000000
00000000
00000000
,
00000000
00000000
00000000
00000000
,
00000000
00000000
00000000
00000000
,
10000000
00100000
01000000
00010000
00100000
00001000
00010000
00000100
,
00001000
00001000
00000010
00000010
00000100
00000100
00000002
00000000
,
00001003
00000001
00000100
00000010
00001000
00000100
00010000
00010100
,
00000000
00011000
00000000
00102000
00000000
00000000
00013000
00000000
,
20010000
01000000
00100000
30010000
,
02000000
00001000
00100000
03010000
,
00002000
00100000
00010000
00003100
,
00000002
00001003
00000101
00001100
,
00001002
00000010
00000100
00001003
,
00000020
00010000
00000100
00001030
,
00020000
00000000
00000100
00000000
00031000
00000000
00100000
20000000
,
00000000
30010000
11000000
01010000
,
10000000
01000000
00010000
01000000
10000000
00010000
10010000
00000000
,
10000000
00100000
00010000
00100000
01000000
00010000
00010000
00000000
,
10000000
01000000
00010000
00001000
00010000
00001000
00000010
00000001
,
00002000
00003001
00001100
00000101
,
00000001
00000010
00001000
00000010
00000001
00001000
00001001
00000000
,
00000001
00000100
00001000
00000100
00000010
00001000
00001000
00000000
,
00000001
00000010
00001000
00010000
00001000
00010000
01000000
20000000
,
00000000
00100000
00000000
31000000
11000000
00000000
01010000
00000000
,
20000000
00000000
00100000
00100000
00000000
00010000
30010000
00000000
,
02000000
00000000
00010000
00010000
00000000
00100000
03100000
00000000
,
10000000
01000000
00010000
00001000
00000010
00000001
00001000
00000000
,
00000001
00000100
00000010
00000000
00001010
00000000
00000011
00000000
,
00000002
00000000
00000100
00000100
00000000
00001000
00001003
00000000
,
00000020
00000000
00001000
00001000
00000000
00000100
00000130
00000000
,
00000001
00000010
00001000
00010000
01000000
10000000
00010000
00000000
,
10000000
00200000
00000000
02300000
00000000
03020000
00000000
00030000
,
20000000
31000000
00020000
00031000
,
00000020
00000031
00000200
00001300
,
00010000
00100000
10000000
00000000
01000000
00010000
00001000
00000000
,
00000010
00000001
00000100
00000001
00001000
00000001
00001001
00000000
,
00000002
00000013
00002000
00013000
,
02000000
13000000
00200000
00310000
,
00110000
00000000
00000000
10100000
00000000
11000000
00000000
20020000
,
00000000
00000000
30030000
00000000
10000000
01000000
00010000
01000000
,
00200000
00000000
00310000
00000000
00102000
00000000
00010000
00010000
,
00000000
00100000
00103000
00000000
00001000
00100000
00000100
00020000
,
00000000
00001000
00031000
00000000
00010000
00000010
00000100
00000002
,
00000000
00001000
00001003
00000000
00000001
00000010
00000000
00001000
,
00020000
00000000
01030000
00000000
21000000
00000000
00100000
00100000
,
00000000
00010000
30010000
00000000
10000000
00100000
01000000
00020000
,
00000000
00100000
00130000
00000000
00001000
00100000
00000100
00020000
,
00000000
00001000
00031000
00000000
00010000
00000010
00001000
00000001
,
00000200
00000000
00001300
00000000
00020100
00000000
00001000
00001000
,
00000000
00000100
00030100
00000000
00010000
00000100
00100000
00002000
,
00000000
00010000
00013000
00000000
00001000
01000000
00100000
20000000
,
00000000
00010000
30010000
00000000
10000000
01000000
00000000
00010000
,
00002000
00000000
00003010
00000000
00000012
00000000
00000100
00000100
,
00000000
00001000
00001003
00000000
00000001
00000100
00000010
00002000
,
00000000
00000100
00003100
00000000
00010000
00000100
00100000
00101000
,
00000000
01010000
01010000
00000000
10000000
00100000
01000000
00010000
,
10000000
01000000
00010000
01000000
10000000
00010000
10010000
00000000
,
10000000
00100000
00010000
00100000
01000000
00010000
00010000
00000000
,
10000000
01000000
00010000
00001000
00010000
00001000
00000010
00000001
,
00002000
00003001
00001100
00000101
,
00000001
00000010
00001000
00000010
00000001
00001000
00001001
00000000
,
00000001
00000100
00001000
00000100
00000010
00001000
00001000
00000000
,
00000001
00000010
00001000
00010000
00001000
00010000
01000000
20000000
,
00000000
00100000
00000000
31000000
11000000
00000000
02020000
00000000
,
03030000
00000000
00000000
00000000
;

//---------------dance-single - ----------------
#NOTES:
     dance-single:
     :
     Medium:
     5:
     0.479,0.478,0.261,0.299,0.000:
0000
0000
0000
0000
,
0000
0000
0000
0000
,
0000
0000
0000
0000
,
0000
0000
0000
0000
,
1000
0100
0010
0001
,
1000
1000
1000
1000
,
0001
0000
0100
0000
0010
0000
1000
0001
,
0000
0110
0000
2002
0000
0000
3003
0000
,
1000
0100
0010
0001
,
0010
0100
1000
0001
,
1000
0010
0100
0001
,
0100
0010
1100
0101
,
1001
0010
0100
1000
,
0100
0010
0001
1000
,
0001
0000
0100
0000
0010
0000
1000
0002
,
0000
1003
1100
0101
,
1000
0010
1000
0000
0101
0000
1100
0000
,
0001
0010
0001
0000
1000
1000
1000
0000
,
0010
0100
0010
0000
1000
0001
1000
0001
,
0200
0310
1100
0101
,
0001
0100
0001
0000
1010
0000
0011
0000
,
1000
0100
1000
0000
0001
0001
0001
0000
,
0100
0010
0100
0000
0001
1000
0001
1000
,
0020
0130
0011
1010
,
2000
0001
0100
3010
,
0002
0100
1000
0013
,
1000
0100
1000
0000
0100
0001
0100
0000
,
0001
0010
0001
0000
0020
0000
1030
0000
,
0002
1000
0010
0103
,
2000
0010
0001
3100
,
0001
0010
0001
0000
0010
1000
0010
0000
,
2000
0001
0000
0001
0000
0001
3000
0000
,
2000
3010
0200
0301
,
2000
3100
0020
0031
,
1000
1000
0001
0001
,
0100
0010
0100
0010
1000
0001
1000
0000
,
0002
0103
0020
1030
,
0002
0013
0200
1300
,
1100
0000
0000
0110
0000
0011
0000
2002
,
0000
0000
3003
0000
0001
0100
0010
1000
,
0002
0013
2000
3010
,
0002
0103
2000
3100
,
0001
0010
0001
0000
0010
1000
0010
0000
,
1000
0100
1000
0000
0100
0001
0100
0000
,
2000
3100
0002
0103
,
2000
3010
0002
0013
,
1000
0100
1000
0000
0100
0001
0100
0000
,
0001
0010
0001
0000
0010
1000
0010
0001
,
1000
0100
0010
0000
0100
0010
0001
0000
,
0010
0001
0100
0000
0001
0100
0010
0000
,
0100
0010
1000
0000
0010
1000
0100
0000
,
1000
0100
0010
0000
0100
0010
0001
0100
,
0001
0100
0010
0000
0010
1000
0100
0000
,
0100
0001
0010
0000
0010
1000
0001
0000
,
0001
0010
1000
0000
1000
0100
0001
2000
,
0000
0001
3001
0000
1000
0100
0010
0001
,
1000
0010
1000
0000
0101
0000
1100
0000
,
0001
0010
0001
0000
1000
1000
1000
0000
,
0010
0100
0010
0000
1000
0001
1000
0001
,
0200
0310
1100
0101
,
0001
0100
0001
0000
1010
0000
0011
0000
,
1000
0100
1000
0000
0001
0001
0001
0000
,
0100
0010
0100
0000
0001
1000
0001
1000
,
0020
0130
0011
1010
,
1001
0000
0000
0000
;

//---------------dance-single - ----------------
#NOTES:
     dance-single:
     :
     Easy:
     4:
     0.332,0.359,0.084,0.159,0.000: // measure 1
0000
0000
0000
0000
,  // measure 2
0000
0000
0000
0000
,  // measure 3
0000
0000
0000
0000
,  // measure 4
0000
0000
0000
0000
,  // measure 5
1000
0100
0010
0001
,  // measure 6
1000
1000
1000
1000
,  // measure 7
0001
0010
0100
1000
,  // measure 8
0001
1000
2002
3003
,  // measure 9
1000
1000
1000
0010
,  // measure 10
0100
0100
0100
0001
,  // measure 11
0010
0010
0010
0100
,  // measure 12
1000
1000
0001
1001
,  // measure 13
0001
0001
0001
0100
,  // measure 14
0010
0010
0010
1000
,  // measure 15
0100
0000
0100
0000
0100
0000
0010
0002
,  // measure 16
0000
1003
0001
1001
,  // measure 17
1000
0010
0100
0100
,  // measure 18
0001
0010
0100
0100
,  // measure 19
1000
0001
0100
0010
,  // measure 20
2000
3001
0100
0110
,  // measure 21
0001
0100
0010
0010
,  // measure 22
1000
0100
0010
0010
,  // measure 23
0001
1000
0010
0100
,  // measure 24
0002
1003
0010
0110
,  // measure 25
0100
1000
0010
0000
,  // measure 26
0100
0001
0010
0000
,  // measure 27
0100
1000
0001
0010
,  // measure 28
0001
1000
0001
0001
,  // measure 29
1000
0010
0100
0000
,  // measure 30
0001
0010
0100
0000
,  // measure 31
1000
0100
0001
0100
,  // measure 32
1000
1000
1000
0000
,  // measure 33
0002
0003
0020
0030
,  // measure 34
0200
0300
2000
3000
,  // measure 35
0001
0001
1000
1000
,  // measure 36
0010
0010
0100
0100
,  // measure 37
0002
0003
0020
0030
,  // measure 38
0200
0300
2000
3000
,  // measure 39
0001
0000
0000
1000
0000
0001
0000
2002
,  // measure 40
0000
3003
1000
0001
,  // measure 41
1000
0010
0100
0001
,  // measure 42
1000
0100
0010
0001
,  // measure 43
1000
0010
0100
0001
,  // measure 44
1000
0100
0010
0001
,  // measure 45
1000
0100
0001
0100
,  // measure 46
1000
0010
0001
0010
,  // measure 47
1000
0100
0001
0100
,  // measure 48
1000
0010
0001
0010
,  // measure 49
1000
0010
0100
1000
,  // measure 50
0100
0010
1000
0100
,  // measure 51
0001
0100
0010
0001
,  // measure 52
0100
0010
1000
0010
,  // measure 53
0001
0010
0100
0001
,  // measure 54
0100
1000
0100
0010
,  // measure 55
1000
0000
0100
0000
0010
0000
0000
0001
,  // measure 56
0000
0001
0001
0000
0000
0000
0000
0000
,  // measure 57
1000
0010
0100
0100
,  // measure 58
0001
0010
0100
0100
,  // measure 59
1000
0001
0100
0010
,  // measure 60
2000
3001
0100
0110
,  // measure 61
0001
0100
0010
0010
,  // measure 62
1000
0100
0010
0010
,  // measure 63
0001
1000
0010
0100
,  // measure 64
0002
1003
0010
0110
,  // measure 65
1001
0000
0000
0000
;
