#TITLE:FACE DOWN;
#SUBTITLE:;
#ARTIST:嵐;
#TITLETRANSLIT:;
#SUBTITLETRANSLIT:;
#ARTISTTRANSLIT:Arashi;
#GENRE:;
#CREDIT:hooky;
#BANNER:[Male Vocalists] - Face Down.png;
#BACKGROUND:[Male Vocalists] - Face Down-bg.png;
#LYRICSPATH:;
#CDTITLE:cdtitle.png;
#MUSIC:[Male Vocalists] - Face Down.ogg;
#OFFSET:-0.680;
#SAMPLESTART:49.440;
#SAMPLELENGTH:15.000;
#SELECTABLE:YES;
#DISPLAYBPM:128.000;
#BPMS:0.000=128.000
;
#STOPS:
;
#BGCHANGES:
;
#KEYSOUNDS:;
#ATTACKS:;

//---------------dance-single - hooky----------------
#NOTES:
     dance-single:
     hooky:
     Hard:
     7:
     0.418181,0.436343,0.332400,0.064336,0.048252,236.000000,31.000000,6.000000,0.000000,0.000000,0.000000,0.418181,0.436343,0.332400,0.064336,0.048252,236.000000,31.000000,6.000000,0.000000,0.000000,0.000000:
// measure 0
0000
0000
0000
0000
,  // measure 1
0000
0000
0000
0000
,  // measure 2
1000
1000
1000
1000
,  // measure 3
0100
0100
0100
0100
,  // measure 4
0010
0010
0010
0010
,  // measure 5
0001
0001
0001
0001
,  // measure 6
1000
0100
0000
1000
0000
0010
0100
0000
,  // measure 7
0010
0000
0000
1000
0000
0000
0100
0000
0010
0000
0010
0000
0000
0000
0001
0000
,  // measure 8
0010
0001
0000
0100
0000
0010
0100
0000
,  // measure 9
0010
0000
0000
1000
0000
0000
0100
0000
0001
0000
0001
0000
1000
0000
1000
0000
,  // measure 10
1001
0110
1000
0001
,  // measure 11
0010
0001
0010
0000
1000
0100
1000
0000
,  // measure 12
0110
1001
0010
0100
,  // measure 13
0001
0010
0100
0000
1000
0100
0010
0000
,  // measure 14
0011
1100
0001
0100
,  // measure 15
0100
0010
0001
0000
0001
0010
0100
0000
,  // measure 16
1010
0000
0101
0000
0100
0010
0100
0000
,  // measure 17
0101
0000
1010
0000
1000
0001
1000
0000
,  // measure 18
1000
0000
0000
1000
0000
0000
1000
0000
0010
0000
0100
0000
0001
0000
0000
0000
,  // measure 19
0010
0001
0010
0000
0001
0100
0001
0000
,  // measure 20
1000
0000
1000
0000
0010
1000
0010
0000
,  // measure 21
0100
0010
0100
0000
0001
0010
1001
0000
,  // measure 22
0100
0000
0000
0100
0000
0000
0100
0000
0010
0000
1000
0000
0100
0000
0000
0000
,  // measure 23
0010
0001
0010
0000
1000
0100
1000
0000
,  // measure 24
0010
0010
0010
0000
0100
0100
0100
0000
,  // measure 25
0010
0000
0100
0000
0010
0000
0100
0000
0010
0100
0010
0200
0020
0000
0330
0000
,  // measure 26
1010
0011
0101
1100
,  // measure 27
0010
0001
0100
1000
0010
0100
0001
0000
,  // measure 28
1001
0110
0011
1100
,  // measure 29
1000
0010
0100
0001
1000
0100
0010
0000
,  // measure 30
0011
0011
1100
1100
,  // measure 31
2000
3100
0002
0013
,  // measure 32
0100
0010
0100
0000
0001
1000
0001
0000
,  // measure 33
1000
0001
0110
0110
,  // measure 34
1000
0100
0010
0001
0100
0010
0100
0010
,  // measure 35
1000
0000
0100
0000
0010
0000
0001
0000
0100
0000
0000
0010
0000
0000
0100
0000
,  // measure 36
0001
0010
0100
1000
0010
0100
0010
0100
,  // measure 37
0001
0000
0010
0000
0100
0000
1000
0000
0010
0000
0000
0100
0000
0000
0010
0000
,  // measure 38
0001
0010
0100
1000
0010
0100
0010
0100
,  // measure 39
0001
0000
0010
0000
0100
0000
1000
0000
0010
0000
0000
0100
0000
0000
0010
0000
,  // measure 40
1000
0100
0010
0001
0100
0010
0100
0010
,  // measure 41
1001
0100
0010
0001
,  // measure 42
1001
0100
0010
0001
,  // measure 43
1001
0000
0100
1001
0000
0100
1001
0000
,  // measure 44
0220
0000
0000
0000
,  // measure 45
0000
0000
0000
0000
,  // measure 46
0000
0000
0000
0000
,  // measure 47
0000
0000
0000
0000
0000
0000
0300
0030
;

//---------------dance-single - ----------------
#NOTES:
     dance-single:
     :
     Medium:
     4:
     0.286446,0.308007,0.139394,0.117949,0.000000,163.000000,13.000000,11.000000,0.000000,0.000000,0.000000,0.286446,0.308007,0.139394,0.117949,0.000000,163.000000,13.000000,11.000000,0.000000,0.000000,0.000000:
0000
0000
0000
0000
,
0000
0000
0000
0000
,
1000
1000
1000
1000
,
0100
0100
0100
0100
,
0010
0010
0010
0010
,
0001
0001
0001
0001
,
1000
0100
1000
0010
,
1000
0000
0100
0000
1000
0010
1000
0000
,
0001
0100
0001
0010
,
0001
0000
0100
0000
0010
1000
0100
0000
,
1000
1000
1000
1000
,
0100
0100
0100
0100
,
0010
0010
0010
0010
,
0001
0001
0001
0001
,
0100
0000
0010
0000
1000
0100
1000
0000
,
0010
0100
0001
0010
,
0002
0000
2000
3003
,
2000
0000
0002
3003
,
0100
0010
1000
0100
,
1000
0010
0100
0000
0001
0000
0010
0000
,
0001
0100
0100
0010
,
1000
0000
0100
0000
1000
0100
1000
0000
,
0010
0100
0001
0010
,
0001
0000
1000
0000
0010
0100
0010
0000
,
1000
0100
0010
0001
,
0001
0010
0100
1000
,
1100
0011
0101
1010
,
1000
0100
0010
0001
,
0011
1100
1010
0101
,
0001
1000
0100
0010
,
0110
1001
0110
1001
,
1000
0010
0100
0001
,
0010
0010
0100
0100
,
2000
0000
0001
3001
,
1000
0010
0100
0001
,
0010
0010
0001
0001
,
1000
0100
1000
0010
,
0100
0100
0010
0010
,
0100
0001
0010
0001
,
1000
1000
0001
0001
,
0100
0010
1000
0100
,
2000
0000
0000
3000
,
2000
0000
0000
3000
,
2000
3000
0000
2000
3000
0000
1000
0000
,
0220
0000
0000
0000
,
0000
0000
0000
0000
,
0000
0000
0000
0000
,
0000
0000
0000
0000
0000
0000
0300
0030
;

//---------------dance-single - ----------------
#NOTES:
     dance-single:
     :
     Easy:
     3:
     0.209857,0.205338,0.042890,0.193007,0.000000,115.000000,4.000000,18.000000,0.000000,0.000000,0.000000,0.209857,0.205338,0.042890,0.193007,0.000000,115.000000,4.000000,18.000000,0.000000,0.000000,0.000000:
0000
0000
0000
0000
,
0000
0000
0000
0000
,
1000
1000
1000
1000
,
0100
0100
0100
0100
,
0010
0010
0010
0010
,
0001
0001
0001
0001
,
1000
0100
1000
0000
,
0010
0010
0100
0000
,
0001
0010
0001
0000
,
0010
0010
0100
0000
,
0001
1000
0010
0000
,
0100
0000
0100
0000
,
0010
1000
0100
0000
,
0010
0000
0010
0000
,
0001
0100
0001
0000
,
0002
0000
2000
3003
,
1000
0010
0100
0000
,
0100
0010
0001
0000
,
1000
0100
1000
0000
,
0010
0100
0001
0000
,
1000
0000
1000
0000
,
0010
0100
0001
1001
,
0110
0000
0010
0000
,
1000
0100
1000
0010
,
1000
0000
1000
0000
,
2002
0000
0000
3003
,
0100
0010
0100
0010
,
1000
0000
0100
0000
,
0010
0001
0010
0001
,
0100
0000
0001
0000
,
0010
0100
0010
0100
,
0010
0000
0100
0000
,
1000
0100
1000
0000
,
0020
0000
0200
0330
,
2000
0000
0002
3003
,
0010
0001
0100
0000
,
0002
0000
2000
3003
,
0010
0100
0001
0000
,
0020
0000
0200
0330
,
0001
1000
0100
0000
,
2000
0000
0200
3300
,
2000
0000
0000
3000
,
2000
0000
0000
3000
,
1000
0000
1000
0000
,
0220
0000
0000
0000
,
0000
0000
0000
0000
,
0000
0000
0000
0000
,
0000
0000
0000
0000
0000
0000
0300
0030
;

//---------------dance-single - ----------------
#NOTES:
     dance-single:
     :
     Beginner:
     1:
     0.098035,0.094359,0.032168,0.000000,0.000000,61.000000,3.000000,0.000000,0.000000,0.000000,0.000000,0.098035,0.094359,0.032168,0.000000,0.000000,61.000000,3.000000,0.000000,0.000000,0.000000,0.000000:
0000
0000
0000
0000
,
0000
0000
0000
0000
,
1000
0000
0000
0000
,
0100
0000
0000
0000
,
0010
0000
0000
0000
,
0001
0000
0000
0000
,
1000
0000
0000
0000
,
0010
0000
0100
0000
,
0001
0000
0000
0000
,
0010
0000
0100
0000
,
0001
0000
0000
0000
,
0100
0000
0100
0000
,
0010
0000
0000
0000
,
0010
0000
0010
0000
,
0001
0000
0000
0000
,
0001
0000
1000
0000
,
1000
0000
0000
0000
,
0100
0000
0000
0000
,
1000
0000
0000
0000
,
0010
0000
0001
0000
,
1000
0000
0000
0000
,
0010
0000
0001
0000
,
0100
0000
0000
0000
,
1000
0000
0100
0000
,
0010
0000
0100
0000
,
1001
0000
0000
0000
,
0100
0000
0100
0000
,
1000
0000
0000
0000
,
0010
0000
0010
0000
,
0100
0000
0000
0000
,
0010
0000
0010
0000
,
0010
0000
0000
0000
,
1000
0000
1000
0000
,
0110
0000
0000
0000
,
1000
0000
0000
0000
,
0010
0000
0100
0000
,
0001
0000
0000
0000
,
0010
0000
0001
0000
,
0010
0000
0100
0000
,
0001
0000
0100
0000
,
1000
0000
0000
0000
,
1000
0000
0000
0000
,
1000
0000
0000
0000
,
1000
0000
1000
0000
,
0110
0000
0000
0000
;
