#TITLE:EVERYBODY (Backstreet's Back);
#SUBTITLE:;
#ARTIST:Backstreet Boys;
#TITLETRANSLIT:;
#SUBTITLETRANSLIT:;
#ARTISTTRANSLIT:;
#GENRE:;
#CREDIT:hooky;
#BANNER:[Male Vocalists] - Everybody (Backstreet's Back).png;
#BACKGROUND:[Male Vocalists] - Everybody (Backstreet's Back)-bg.png;
#LYRICSPATH:;
#CDTITLE:cdtitle.png;
#MUSIC:[Male Vocalists] - Everybody (Backstreet's Back).ogg;
#OFFSET:-0.083000;
#SAMPLESTART:63.400002;
#SAMPLELENGTH:19.280001;
#SELECTABLE:YES;
#DISPLAYBPM:108.000000;
#BPMS:0.000000=108.000000
,48.000000=864.000000
,52.000000=108.000000
;
#STOPS:31.000000=1.670000,
48.000000=1.540000,
50.000000=0.400000
;
#BGCHANGES:
;
#KEYSOUNDS:;
#ATTACKS:;

//---------------dance-single - hooky----------------
#NOTES:
     dance-single:
     hooky:
     Beginner:
     1:
     0.085954,0.101979,0.071386,0.000000,0.000000,52.000000,7.000000,0.000000,0.000000,0.000000,0.000000,0.085954,0.101979,0.071386,0.000000,0.000000,52.000000,7.000000,0.000000,0.000000,0.000000,0.000000:
0000
0000
0000
0000
,
0000
0000
0000
0000
,
0000
0000
0000
0000
,
0000
0000
0000
0000
,
0000
0000
0000
0010
,
0000
0000
0000
0001
,
0000
0100
0000
0110
,
0000
0000
0000
1001
,
1000
0000
1000
0000
,
0001
0000
0000
0000
,
0010
0000
0010
0000
,
0100
0000
0000
0000
,
1001
0000
1000
0000
,
1000
0000
1000
0000
,
0010
0000
0000
0000
,
0100
0000
0100
0000
,
0001
0000
0000
0000
,
0010
0000
0010
0000
,
0001
0000
0000
0000
,
1000
0000
0100
0000
,
0010
0000
0000
0000
,
0001
0000
0000
0000
,
1000
0000
0100
0000
,
0010
0000
0000
0000
,
0001
0000
0100
0000
,
0010
0000
0000
0000
,
1000
0000
1000
0000
,
0001
0000
0001
0000
,
1001
0000
0000
0000
,
0100
0000
0000
0000
,
0110
0000
0000
0000
,
0001
0000
0000
0000
,
1001
0000
0000
0000
,
0010
0000
0100
0000
,
0001
0000
0000
0000
,
0010
0000
0001
0000
,
1000
0000
0000
0000
,
0010
0000
0000
0000
,
0100
0000
0000
0000
,
0001
0000
1000
0000
,
1001
0000
0000
0000
;

//---------------dance-single - hooky----------------
#NOTES:
     dance-single:
     :
     Easy:
     3:
     0.182106,0.256988,0.112177,0.163167,0.000000,98.000000,11.000000,16.000000,0.000000,0.000000,0.000000,0.182106,0.256988,0.112177,0.163167,0.000000,98.000000,11.000000,16.000000,0.000000,0.000000,0.000000:
0000
0000
0000
0000
,
0000
0000
0000
0000
,
0000
0000
0000
0000
,
0000
0000
0000
0000
,
0000
0000
0000
2000
,
0000
3100
0000
0010
,
0001
0200
0000
0020
,
0000
0000
0330
1001
,
1000
0000
1000
0000
,
0100
0010
0001
0000
,
0100
0000
0100
0000
,
1000
0010
0100
0000
,
1001
0000
0100
0000
,
0100
0000
1000
0000
,
0100
0010
0001
0010
,
0001
0000
0100
0000
,
0010
0010
1000
0100
,
1000
0000
0010
0000
,
0100
0001
0010
0001
,
0100
0000
0010
0000
,
1000
1000
1000
0000
,
0002
0000
0103
0000
,
0100
0100
0100
0000
,
0020
0000
0130
0000
,
1000
1000
1000
0000
,
0200
0000
0310
0000
,
0010
0001
0100
0010
,
1000
0100
1000
0000
,
1001
0001
0100
0000
,
2000
0000
0200
3300
,
0011
0001
0100
0000
,
0020
0000
0200
0330
,
0010
0001
0100
0001
,
0010
0010
0100
0100
,
0101
0100
0010
1000
,
1100
0000
0110
0000
,
1001
0010
1000
0100
,
1000
0000
1000
0000
,
0010
0100
0001
0010
,
0022
0033
2200
3300
,
2002
0000
0000
0000
,
0000
0000
0000
0000
,
3003
0000
0000
0000
;

//---------------dance-single - ----------------
#NOTES:
     dance-single:
     :
     Hard:
     7:
     0.333618,0.342651,0.275344,0.132573,0.000000,189.000000,27.000000,13.000000,0.000000,0.000000,0.000000,0.333618,0.342651,0.275344,0.132573,0.000000,189.000000,27.000000,13.000000,0.000000,0.000000,0.000000:
// measure 0
0000
0000
0000
0000
,  // measure 1
0000
0000
0000
0000
,  // measure 2
0000
0000
0000
0000
,  // measure 3
0000
0000
0000
0000
,  // measure 4
0000
0000
0000
2000
,  // measure 5
0000
0200
3300
0010
,  // measure 6
0001
0100
0010
2000
,  // measure 7
0000
0002
3003
0110
,  // measure 8
1100
0000
0010
0001
0100
1000
0100
0000
,  // measure 9
0001
0000
0010
0100
1000
0000
0011
0000
,  // measure 10
0110
0000
0010
1000
0100
0010
0100
0000
,  // measure 11
0001
0000
0100
1000
0100
0000
1000
0000
,  // measure 12
1001
0000
0100
0000
,  // measure 13
1001
0000
0100
0010
0100
0000
1100
0000
,  // measure 14
0011
0000
0001
0010
0001
0100
0010
0000
,  // measure 15
1100
0000
1000
0010
0001
0000
0010
0000
,  // measure 16
1010
0000
1000
0100
0010
0100
1000
0000
,  // measure 17
0001
0000
0100
0010
1000
0000
0100
0000
,  // measure 18
0011
0000
0100
0010
1000
0100
0001
0000
,  // measure 19
0100
0000
0010
0001
0100
0000
0010
0000
,  // measure 20
1000
0100
1000
2000
0000
0100
3100
0000
,  // measure 21
0021
0000
0001
0031
0000
1000
1000
0000
,  // measure 22
0010
0001
0010
0020
0000
0100
0130
0000
,  // measure 23
0210
0000
0001
0301
0000
0001
1000
0000
,  // measure 24
0100
0001
0010
1000
0000
0001
0001
0000
,  // measure 25
0201
0000
0010
0310
0000
0000
1010
0000
,  // measure 26
1000
0100
1000
0100
1000
0100
1000
0100
,  // measure 27
0010
0001
0010
0001
0011
0000
0110
0000
,  // measure 28
1001
0000
1000
0100
0001
0100
1000
0000
,  // measure 29
0002
0000
0103
1000
0100
0000
0010
0000
,  // measure 30
1100
0000
1000
0010
0001
0010
1000
0000
,  // measure 31
0002
0000
0013
1000
0010
0000
0001
0010
,  // measure 32
0011
0000
0001
0100
0010
1000
0100
0000
,  // measure 33
0010
0001
0010
0001
0100
0010
1000
0100
,  // measure 34
0010
0000
0001
0100
1000
0100
0001
0000
,  // measure 35
0011
0000
0010
0000
1100
0000
0100
0100
,  // measure 36
0110
0000
0010
0001
0100
1000
0010
0000
,  // measure 37
0001
0000
0010
0100
1000
0000
0010
0100
,  // measure 38
1001
0000
0100
1000
0010
0001
0100
0000
,  // measure 39
0101
0000
0010
0000
1010
0000
0100
0010
,  // measure 40
2002
0000
0000
0000
,  // measure 41
0000
0000
0000
0000
,  // measure 42
3003
0000
0000
0000
;

//---------------dance-single - ----------------
#NOTES:
     dance-single:
     :
     Medium:
     5:
     0.225812,0.256988,0.091781,0.122375,0.000000,134.000000,9.000000,12.000000,0.000000,0.000000,0.000000,0.225812,0.256988,0.091781,0.122375,0.000000,134.000000,9.000000,12.000000,0.000000,0.000000,0.000000:
0000
0000
0000
0000
,
0000
0000
0000
0000
,
0000
0000
0000
0000
,
0000
0000
0000
0000
,
0000
0000
0000
2000
,
0000
0000
0000
0200
,
0000
0000
3300
0020
,
0000
0000
0000
0031
,
1000
1000
0100
0100
,
0010
0000
0010
0001
0100
0000
0000
0000
,
0100
0100
0010
0010
,
1000
0000
1000
0100
0010
0000
0000
0000
,
1001
0000
0100
0000
,
0110
0010
1000
0000
,
1000
0000
0100
0000
0010
0001
0100
0000
,
0010
1000
0100
0000
,
1000
0000
0010
0000
0100
0001
0010
0000
,
0001
0100
1000
0000
,
0100
0000
0001
0010
0001
0000
0100
0000
,
0010
1000
0100
0000
,
0100
1000
1000
0000
,
0200
0000
0010
0310
0000
0000
0000
0000
,
0010
0001
0001
0000
,
0200
0000
0010
0310
0000
0000
0000
0000
,
0010
1000
0100
0000
,
2000
0000
0100
3100
0000
0000
0010
0000
,
0001
0100
0010
1000
,
0100
0010
0001
0000
0100
0000
0010
0000
,
1001
0000
0100
0010
0100
0000
0010
0000
,
2000
0000
0100
0000
3100
0000
0010
0001
,
0100
0100
0020
0030
,
2000
0000
0100
0000
3100
0000
0010
0001
,
0200
0001
0301
0100
,
0010
0000
1000
0000
0100
0000
1000
0010
,
0100
0100
0001
0001
,
1000
0000
1100
0000
0011
0000
0001
0100
,
0110
0010
1000
0100
,
1000
0000
0010
0100
0001
0000
0010
0010
,
0001
0000
0001
0100
1000
0000
0100
0000
,
0101
0000
0010
0000
0011
0000
0001
0100
,
2002
0000
0000
0000
,
0000
0000
0000
0000
,
3003
0000
0000
0000
;
