#TITLE:Dynamite;
#SUBTITLE:;
#ARTIST:Taio Cruz;
#TITLETRANSLIT:;
#SUBTITLETRANSLIT:;
#ARTISTTRANSLIT:;
#CREDIT:;
#BANNER:Dynamite.png;
#BACKGROUND:Dynamite-bg.png;
#LYRICSPATH:;
#CDTITLE:;
#MUSIC:Dynamite.mp3;
#OFFSET:0.000;
#SAMPLESTART:39.270;
#SAMPLELENGTH:16.260;
#SELECTABLE:YES;
#BPMS:0.000=120.060,176.000=60.030,180.000=120.060;
#STOPS:;
#BGCHANGES:;

//---------------dance-single - ----------------
#NOTES:
     dance-single:
     :
     Hard:
     6:
     0.401,0.425,0.629,0.114,0.043: // measure 1
0000
0000
0000
0000
,  // measure 2
0000
0000
0000
0000
,  // measure 3
0000
0000
0000
0000
,  // measure 4
0000
0000
0000
0000
,  // measure 5
1000
0000
0001
0010
1000
0000
0001
0000
,  // measure 6
0010
0000
0100
0010
0100
0000
0100
0000
,  // measure 7
1000
0000
0010
0100
1000
0000
0010
0000
,  // measure 8
0001
0000
0100
0010
0001
0000
0100
0000
,  // measure 9
0010
0000
1000
0100
0010
0000
1000
0000
,  // measure 10
0100
0000
1000
0001
0100
0000
1000
0000
,  // measure 11
0100
0000
0001
0010
0100
0000
0001
0000
,  // measure 12
0100
0000
0010
1000
0100
0000
0010
0000
,  // measure 13
0001
0000
0100
1000
0001
0000
0100
0000
,  // measure 14
0010
0100
0010
0001
0010
0100
1000
0000
,  // measure 15
0100
0000
0001
0010
0100
0000
1000
0000
,  // measure 16
0100
0010
0001
0100
0010
0001
0100
0000
,  // measure 17
0110
0000
0000
0110
0000
0000
1010
0000
0000
0000
1010
0000
0000
0000
0000
0000
,  // measure 18
0011
0000
0000
0011
0000
0000
1100
0000
0000
0000
1100
0000
0000
0000
0000
0000
,  // measure 19
0101
0000
0000
0101
0000
0000
1010
0000
0000
0000
1010
0000
0000
0000
0000
0000
,  // measure 20
1100
0000
0000
1100
0000
0000
0011
0000
0000
0000
0011
0000
0000
0000
0000
0000
,  // measure 21
1001
0000
0010
0100
0010
0000
1001
0000
,  // measure 22
0110
0000
0001
1000
0001
0000
0110
0000
,  // measure 23
0011
0000
0100
1000
0100
0000
0011
0000
,  // measure 24
1100
0000
0001
0010
0001
0000
1100
0000
,  // measure 25
0101
0000
0010
1000
0010
0000
0101
0000
,  // measure 26
1010
0000
0100
0001
0100
0000
1010
0000
,  // measure 27
1100
0000
0001
0010
0001
0000
1100
0000
,  // measure 28
1001
0000
0100
0010
0100
0000
1001
0000
,  // measure 29
0001
0000
0001
0000
0001
0000
0001
0200
,  // measure 30
0001
0001
0001
0001
,  // measure 31
0301
0000
0010
0000
1000
0000
0100
2000
,  // measure 32
0010
0010
0010
0010
,  // measure 33
3010
0000
0100
0000
0001
0000
1000
0002
,  // measure 34
0010
0010
0010
0010
,  // measure 35
0013
0000
0100
0000
1000
0000
0001
0020
,  // measure 36
0100
0100
0100
0100
,  // measure 37
0230
0000
2300
0000
3002
0000
0013
0020
,  // measure 38
0100
0100
0100
0100
,  // measure 39
0230
0000
0302
0000
0023
0000
1030
0002
,  // measure 40
0010
0010
0100
0100
,  // measure 41
1003
0000
0100
0000
0001
0000
0100
0020
,  // measure 42
0001
0001
0001
0001
,  // measure 43
0031
0000
0100
0010
0100
0000
0010
0000
,  // measure 44
0001
0001
0010
0100
1000
0000
0010
0100
,  // measure 45
0020
0000
0000
0000
,  // measure 46
1030
0000
0000
1010
0000
0000
0101
0000
0000
0000
0101
0000
0000
0000
0000
0000
,  // measure 47
0110
0000
0000
0110
0000
0000
0101
0000
0000
0000
0101
0000
0000
0000
0000
0000
,  // measure 48
1010
0000
0000
1010
0000
0000
0101
0000
0000
0000
0110
0000
0000
0000
0000
0000
,  // measure 49
1100
0000
0000
1100
0000
0000
0110
0000
0000
0000
0110
0000
0000
0000
0000
0000
,  // measure 50
0101
0000
0000
0110
0000
0000
1010
0000
0000
0000
1100
0000
0000
0000
0000
0000
,  // measure 51
1100
0000
0000
0011
0000
0000
1001
0000
0000
0000
1001
0000
0000
0000
0000
0000
,  // measure 52
1001
0000
0000
1001
0000
0000
0101
0000
0000
0000
1010
0000
0000
0000
0000
0000
,  // measure 53
0110
0000
0000
0110
0000
0000
0101
0000
0000
0000
1001
0000
0000
0000
0000
0000
,  // measure 54
0110
0000
0100
0010
0100
0000
0110
0000
,  // measure 55
0101
0000
0001
0100
0001
0000
0101
0000
,  // measure 56
1100
0000
1000
0100
1000
0000
1100
0000
,  // measure 57
0011
0000
0001
0010
0001
0000
0011
0000
,  // measure 58
1001
0000
1000
0001
1000
0000
1001
0000
,  // measure 59
0101
0000
0100
0001
0100
0000
0101
0000
,  // measure 60
1010
0000
1000
0010
1000
0000
1010
0000
,  // measure 61
0110
0000
0100
0001
0100
0000
0110
0000
,  // measure 62
1001
0000
0001
0100
0001
0000
1001
0000
,  // measure 63
1010
0000
0010
0001
1000
0000
1010
0000
,  // measure 64
0110
0000
0001
0100
1000
0000
0110
0000
,  // measure 65
1100
0000
0001
1000
0010
0000
1100
0000
,  // measure 66
2002
0000
0000
0000
,  // measure 67
3003
0000
0000
0000
;

//---------------dance-single - ----------------
#NOTES:
     dance-single:
     :
     Medium:
     5:
     0.294,0.377,0.057,0.129,0.043:
0000
0000
0000
0000
,
0000
0000
0000
0000
,
0000
0000
0000
0000
,
0000
0000
0000
0000
,
1000
0100
0010
0001
,
0100
0010
0001
1000
,
0001
0010
0100
1000
,
0010
0100
1000
0001
,
0100
0010
1000
0001
,
0010
0001
0100
1000
,
0001
0010
0001
0100
,
0010
0100
0001
0010
,
0001
0100
0010
1000
,
0010
0001
0100
0010
,
1000
0100
0010
0001
,
0010
1000
0010
0001
,
0100
0000
0000
0010
0000
0000
0001
0000
0000
0000
0001
0000
0000
0000
0000
0000
,
1000
0000
0000
1000
0000
0000
0100
0000
0000
0000
0010
0000
0000
0000
0000
0000
,
0010
0000
0000
0010
0000
0000
0001
0000
0000
0000
0100
0000
0000
0000
0000
0000
,
0100
0000
0000
0100
0000
0000
0001
0000
0000
0000
1000
0000
0000
0000
0000
0000
,
0001
0000
0010
0100
0010
0000
0001
0000
,
1000
0000
0001
0100
0001
0000
0010
0000
,
0001
0000
0010
0001
0010
0000
0100
0000
,
1000
0000
0010
0001
0100
0000
1000
0000
,
0001
0000
0010
0100
1000
0000
0100
0000
,
0010
0000
0001
0100
1000
0000
0010
0000
,
0100
0000
0001
0010
0100
0000
1000
0000
,
0100
0000
1000
0100
0010
0000
0001
0000
,
0100
0010
0010
0010
,
1002
1000
1000
1000
,
1003
0100
0010
0001
,
1020
0100
0100
0100
,
0130
0001
0010
0001
,
1020
1000
1000
1000
,
1030
0100
0001
0010
,
0201
0010
1000
1000
,
1300
0001
0100
1000
,
0012
0010
0010
0010
,
0013
0100
0001
0010
,
2010
0010
0100
0001
,
3100
0001
0010
0001
,
1020
1000
1000
1000
,
2030
3200
2300
3200
,
0320
0032
0023
0032
,
2000
0000
0000
0000
0000
0000
0000
0003
,
3001
0000
0000
0010
0000
0000
0100
0000
0000
0000
0001
0000
0000
0000
0000
0000
,
0100
0000
0000
0010
0000
0000
0010
0000
0000
0000
1000
0000
0000
0000
0000
0000
,
0001
0000
0000
1000
0000
0000
1000
0000
0000
0000
0001
0000
0000
0000
0000
0000
,
0100
0000
0000
0010
0000
0000
0001
0000
0000
0000
0001
0000
0000
0000
0000
0000
,
0100
0000
0000
0100
0000
0000
0010
0000
0000
0000
0010
0000
0000
0000
0000
0000
,
0001
0000
0000
0001
0000
0000
1000
0000
0000
0000
1000
0000
0000
0000
0000
0000
,
0100
0000
0000
0010
0000
0000
1000
0000
0000
0000
1000
0000
0000
0000
0000
0000
,
0100
0000
0000
0001
0000
0000
0100
0000
0000
0000
1000
0000
0000
0000
0000
0000
,
0100
0000
0010
0100
0010
0000
0010
0000
,
1000
0000
0010
0001
0010
0000
0100
0000
,
1000
0000
0001
0100
0010
0000
0001
0000
,
0100
0000
0010
0001
1000
0000
0001
0000
,
0010
0000
0001
0010
0100
0000
0010
0000
,
1000
0000
0001
0100
0010
0000
0100
0000
,
1000
0000
0100
1000
0010
0000
0100
0000
,
0001
0000
0010
1000
0001
0000
0100
0000
,
1000
0000
0100
0001
0010
0000
1000
0000
,
0001
0000
0010
0010
0001
0000
0100
0000
,
0010
0000
0100
0100
0001
0000
0010
0000
,
1000
0000
0010
0010
0100
0000
1000
0000
,
2002
0000
0000
0000
,
3003
0000
0000
0000
;

//---------------dance-single - ----------------
#NOTES:
     dance-single:
     :
     Easy:
     3:
     0.190,0.236,0.014,0.136,0.000:
0000
0000
0000
0000
,
0000
0000
0000
0000
,
0000
0000
0000
0000
,
0000
0000
0000
0000
,
1000
0000
0001
0000
,
0010
0000
0100
0000
,
0001
0000
0010
0000
,
0001
0000
0100
0000
,
0010
0000
1000
0000
,
0001
0000
0100
0000
,
0010
0000
1000
0000
,
0001
0000
0010
0000
,
0100
0000
1000
0000
,
0001
0000
0100
0000
,
0010
0000
1000
0000
,
0001
0000
0100
0000
,
0010
0000
0000
1000
0000
0100
0000
0000
,
0001
0000
0000
0010
0000
0100
0000
0000
,
1000
0000
0000
0001
0000
0010
0000
0000
,
1000
0000
0000
0100
0000
1000
0000
0000
,
0010
1000
0100
1000
,
0010
0001
0100
0001
,
1000
0001
0010
0001
,
0100
0001
0010
0001
,
0100
1000
0010
0100
,
0001
0010
0001
0100
,
0010
0100
0001
0010
,
1000
0010
0001
0100
,
2100
0000
0100
0000
,
0200
0000
0000
3000
,
2300
0000
0001
0000
,
0002
0000
0000
3000
,
0203
0000
0010
0000
,
0020
0000
0000
0300
,
0032
0000
1000
0000
,
0020
0000
0000
0003
,
2030
0000
0001
0000
,
0020
0000
0000
3000
,
0230
0000
0010
0000
,
2000
0000
0000
0300
,
3020
0000
0001
0000
,
0200
0000
0000
0030
,
2300
0000
0001
0000
,
0002
0000
0000
3000
,
0020
0000
0000
0000
,
0033
0000
0000
1000
0000
0001
0000
0000
,
0001
0000
0000
0010
0000
0001
0000
0000
,
0100
0000
0000
0001
0000
0010
0000
0000
,
0001
0000
0000
0100
0000
1000
0000
0000
,
1000
0000
0000
0010
0000
0001
0000
0000
,
0001
0000
0000
0100
0000
0010
0000
0000
,
0010
0000
0000
0001
0000
0100
0000
0000
,
0100
0000
0000
0010
0000
1000
0000
0000
,
0100
1000
0100
0010
,
0001
0010
0001
0010
,
0100
1000
0100
1000
,
0100
0010
0001
0010
,
0100
1000
0010
0001
,
0100
1000
0001
1000
,
0001
0010
0100
0001
,
0010
1000
0010
0001
,
0100
0010
0100
1000
,
0001
0010
0001
0100
,
0010
0001
0100
1000
,
0010
0100
0001
0010
,
0220
0000
0000
0000
,
0330
0000
0000
0000
;

//---------------dance-single - ----------------
#NOTES:
     dance-single:
     :
     Beginner:
     2:
     0.115,0.142,0.064,0.079,0.000:
0000
0000
0000
0000
,
0000
0000
0000
0000
,
0000
0000
0000
0000
,
0000
0000
0000
0000
,
1000
0000
0000
0000
,
0100
0000
0000
0000
,
0010
0000
0000
0000
,
0001
0000
0000
0000
,
0010
0000
0000
0000
,
0001
0000
0000
0000
,
0100
0000
0000
0000
,
0010
0000
0000
0000
,
1000
0000
0000
0000
,
0001
0000
0000
0000
,
0100
0000
0000
0000
,
0010
0000
0000
0000
,
1000
0000
0000
0000
0000
0100
0000
0000
,
0010
0000
0000
0000
0000
0001
0000
0000
,
0100
0000
0000
0000
0000
0010
0000
0000
,
0001
0000
0000
0000
0000
1000
0000
0000
,
0010
0000
0100
0000
,
1000
0000
0010
0000
,
0001
0000
0100
0000
,
0010
0000
1000
0000
,
0100
0000
0010
0000
,
0001
0000
0100
0000
,
0010
0000
1000
0000
,
0001
0000
0001
0000
,
0100
0000
0000
0000
,
2001
0000
0000
0000
,
3100
0000
0000
0000
,
2010
0000
0000
0000
,
3010
0000
0000
0000
,
0102
0000
0000
0000
,
1003
0000
0000
0000
,
0210
0000
0000
0000
,
1300
0000
0000
0000
,
0012
0000
0000
0000
,
0103
0000
0000
0000
,
2010
0000
0000
0000
,
3100
0000
0000
0000
,
2001
0000
0000
0000
,
3010
0000
0000
0000
,
2010
0000
0000
0000
,
0002
0000
0000
0000
,
3003
0000
0000
0000
0000
1000
0000
0000
,
0100
0000
0000
0000
0000
0100
0000
0000
,
0010
0000
0000
0000
0000
0010
0000
0000
,
0100
0000
0000
0000
0000
0100
0000
0000
,
0010
0000
0000
0000
0000
0001
0000
0000
,
0100
0000
0000
0000
0000
0010
0000
0000
,
0001
0000
0000
0000
0000
1000
0000
0000
,
0010
0000
0000
0000
0000
0001
0000
0000
,
1000
0000
0010
0000
,
0010
0000
1000
0000
,
0100
0000
0001
0000
,
1000
0000
0100
0000
,
0010
0000
0010
0000
,
0001
0000
1000
0000
,
0001
0000
0010
0000
,
0100
0000
0001
0000
,
0010
0000
0100
0000
,
0001
0000
0100
0000
,
1000
0000
0100
0000
,
0010
0000
0001
0000
,
2002
0000
0000
0000
,
3003
0000
0000
0000
;
