#TITLE:Don't let it go;
#SUBTITLE:;
#ARTIST:ウッチーズ;
#TITLETRANSLIT:;
#SUBTITLETRANSLIT:;
#ARTISTTRANSLIT:Ucchies;
#GENRE:;
#CREDIT:;
#BANNER:[Male Vocalists] - Don't let it go-bn.png;
#BACKGROUND:[Male Vocalists] - Don't let it go-bg.png;
#LYRICSPATH:;
#CDTITLE:cdtitle.png;
#MUSIC:[Male Vocalists] - Don't let it go.ogg;
#OFFSET:-0.331;
#SAMPLESTART:59.579;
#SAMPLELENGTH:13.000;
#SELECTABLE:YES;
#BPMS:0.000=160.000
;
#STOPS:
;
#BGCHANGES:;
#KEYSOUNDS:;
#ATTACKS:;

//---------------dance-single - ----------------
#NOTES:
     dance-single:
     :
     Hard:
     7:
     0.431,0.476,0.059,0.176,0.000,285.000,6.000,18.000,0.000,0.000,0.000,0.431,0.476,0.059,0.176,0.000,285.000,6.000,18.000,0.000,0.000,0.000: // measure 0
0000
0000
0000
0000
,  // measure 1
0000
0000
0000
0000
,  // measure 2
0000
0000
0000
0000
,  // measure 3
0000
0000
0000
0000
,  // measure 4
0000
0000
0000
0000
,  // measure 5
0000
0000
0000
0000
,  // measure 6
0000
0000
0000
0000
,  // measure 7
0001
0001
0000
1000
0100
1000
0001
0100
,  // measure 8
0001
0000
0011
0000
0001
0100
0010
0000
,  // measure 9
1000
0000
1100
0000
1000
0010
0100
0000
,  // measure 10
0001
0010
0100
0000
1000
0100
0010
0000
,  // measure 11
0001
0000
0100
0000
0010
1000
0100
1000
,  // measure 12
0001
0000
0101
0000
0001
0010
0100
0000
,  // measure 13
1000
0000
1010
0000
1000
0100
0010
0000
,  // measure 14
0001
0100
0010
1000
0001
0100
0010
1000
,  // measure 15
0001
0001
0000
1000
0010
1000
0100
0010
,  // measure 16
0001
0000
0100
0000
0001
0010
0100
0000
,  // measure 17
1000
0010
0100
0000
,  // measure 18
0010
0000
1000
0000
0001
1000
0100
0010
,  // measure 19
0100
0000
0000
0000
0010
0000
0001
0100
,  // measure 20
0001
1000
0010
0100
,  // measure 21
0001
0010
0100
1000
,  // measure 22
0010
0100
0001
0000
0010
0100
1000
0000
,  // measure 23
0001
0001
0000
1000
0100
1000
0010
0100
,  // measure 24
0010
0000
1000
0000
0001
0100
0001
0100
,  // measure 25
0010
1000
0001
0000
,  // measure 26
1000
0000
0100
0000
0010
0001
1000
0010
,  // measure 27
1000
0000
0001
0100
,  // measure 28
0010
1000
0010
0000
1000
0100
0010
0000
,  // measure 29
0001
0100
0001
1000
,  // measure 30
0001
0010
0100
0000
1000
0010
0100
0000
,  // measure 31
0010
0000
0010
0000
0100
0001
0100
0001
,  // measure 32
2000
0000
3200
0000
,  // measure 33
0320
0000
0031
0000
1000
0010
0100
0010
,  // measure 34
0200
0000
0320
0000
,  // measure 35
2030
3002
0023
0230
,  // measure 36
1300
0000
0001
0000
1000
0010
1000
0000
,  // measure 37
0001
0000
1000
0000
0001
0010
0001
0000
,  // measure 38
1000
0010
0100
0001
,  // measure 39
1000
1000
0000
0000
0001
0010
0001
0010
,  // measure 40
0100
0000
0000
1000
0010
1000
0001
0000
,  // measure 41
0010
1000
0010
0001
,  // measure 42
1000
0010
0100
0000
0010
0000
0100
0000
,  // measure 43
0001
0010
0100
0000
0010
0100
1000
0000
,  // measure 44
0002
0100
1000
0103
,  // measure 45
2000
0100
0001
3100
,  // measure 46
0001
0100
0010
0000
1000
0100
0010
0000
,  // measure 47
0100
0000
1000
0000
0010
0100
0001
1000
,  // measure 48
0001
0000
1000
0000
0100
0010
0100
0010
,  // measure 49
0001
0100
1000
0100
,  // measure 50
0001
0010
0100
0000
0010
0000
0100
0000
,  // measure 51
1000
0010
0100
0000
0010
0100
0001
0000
,  // measure 52
2000
0100
0001
3100
,  // measure 53
0002
0100
1000
0103
,  // measure 54
1000
0100
1000
0000
0001
0100
0010
0100
,  // measure 55
0001
0000
0001
0000
0010
0100
0010
0000
,  // measure 56
0100
0000
1000
0000
0010
0100
0001
0000
,  // measure 57
1000
0100
2200
3300
,  // measure 58
0001
0100
0202
0303
,  // measure 59
1000
0000
1000
0000
0100
0010
0100
0000
,  // measure 60
0010
0000
0001
0000
0100
0010
1000
0000
,  // measure 61
0001
0010
0100
1000
0001
0010
0100
1000
,  // measure 62
0001
0001
0000
1000
0100
0010
0100
1000
,  // measure 63
0002
0000
0000
0000
,  // measure 64
0000
0000
0000
0000
,  // measure 65
0003
0000
0000
0000
;

//---------------dance-single - ----------------
#NOTES:
     dance-single:
     :
     Medium:
     5:
     0.334,0.381,0.010,0.176,0.000,220.000,1.000,18.000,0.000,0.000,0.000,0.334,0.381,0.010,0.176,0.000,220.000,1.000,18.000,0.000,0.000,0.000:
0000
0000
0000
0000
,
0000
0000
0000
0000
,
0000
0000
0000
0000
,
0000
0000
0000
0000
,
0000
0000
0000
0000
,
0000
0000
0000
0000
,
0000
0000
0000
0000
,
0001
0001
0000
0000
1000
0010
1000
0000
,
0001
0100
0001
0100
,
0001
1000
0001
1000
,
0001
0010
0100
0000
1000
0000
0000
0000
,
0001
0100
0010
0000
1000
0000
0001
0001
,
1000
0100
1000
0100
,
1000
0001
1000
0001
,
1000
0010
0100
0000
0010
0100
0001
0000
,
1000
1000
0000
0000
0001
0010
0001
0000
,
1000
0000
0100
0000
1000
0001
1000
0000
,
0010
0000
0100
0000
,
0001
0000
0010
0000
0001
1000
0001
0000
,
0100
0000
0000
0000
0001
0000
0010
0100
,
0010
0100
1000
0000
,
0001
0100
0010
0100
,
0001
0010
0100
1000
,
0001
0001
0000
0000
1000
0010
1000
0000
,
0001
0000
0010
0000
0001
0100
0001
0000
,
1000
0000
0001
0000
,
1000
0000
0100
0000
0010
0100
0010
0000
,
0100
0000
0010
0001
,
2000
0000
3010
0100
,
0001
0010
0100
1000
,
0010
0000
0100
0000
,
0220
0000
0000
0330
,
0020
0000
2030
0000
,
3002
0000
0103
0000
0001
0010
0100
0000
,
2000
0000
3020
0000
,
0230
0302
0023
0230
,
1300
0000
0010
0000
0100
0001
0100
0000
,
0001
0000
0010
0000
0100
1000
0100
0000
,
1000
0100
0010
0001
,
1000
1000
0000
0000
0001
0100
0001
0000
,
1000
0000
0001
0010
,
0001
0000
0100
0000
0010
1000
0010
0000
,
0000
1000
0100
1000
,
0010
0000
0100
0000
0001
1000
0001
0000
,
2000
0000
0100
3000
,
0002
0000
0100
0003
,
0001
0010
0100
1000
,
0001
0000
0100
0000
0010
1000
0010
1000
,
0010
0000
1000
0100
,
1000
0000
0010
0000
0100
0001
0100
0000
,
0000
0001
0100
0001
,
0010
0000
0100
0000
1000
0001
1000
0000
,
0002
0000
0100
0003
,
2000
0000
0100
3000
,
1000
0010
0100
0001
,
1000
0100
1000
0100
,
1000
0001
1000
0001
,
1000
0010
0200
0000
,
0301
0010
0100
0010
,
0001
0100
0001
0100
,
0001
1000
0001
1000
,
0001
0010
0100
0000
0010
0100
1000
0000
,
0001
0001
0000
0000
1000
0010
1000
0000
,
0002
0000
0000
0000
,
0000
0000
0000
0000
,
0003
0000
0000
0000
;

//---------------dance-single - ----------------
#NOTES:
     dance-single:
     :
     Easy:
     3:
     0.234,0.254,0.020,0.137,0.000,152.000,2.000,14.000,0.000,0.000,0.000,0.234,0.254,0.020,0.137,0.000,152.000,2.000,14.000,0.000,0.000,0.000:
0000
0000
0000
0000
,
0000
0000
0000
0000
,
0000
0000
0000
0000
,
0000
0000
0000
0000
,
0000
0000
0000
0000
,
0000
0000
0000
0000
,
0000
0000
0000
0000
,
0001
0000
1000
0100
,
1000
0000
1000
0000
,
0001
0100
0001
0000
,
1000
0010
1000
0000
,
1000
0001
1000
0000
,
0001
0000
0001
0000
,
1000
0100
1000
0000
,
0001
0000
1000
0000
,
2002
0000
0000
3003
,
0001
0000
0001
0000
,
1000
0100
1000
0000
,
0001
0000
0100
0010
,
0100
0000
0010
0000
,
1000
0000
1000
0000
,
0001
0100
0001
0000
,
1000
0100
1000
0100
,
1000
0000
0001
1000
,
0001
0000
0001
0000
,
1000
0010
1000
0000
,
0001
0000
0010
0000
,
0100
0000
1000
0100
,
1000
0000
0001
1000
,
0001
0000
1000
0000
,
0001
0100
0001
0100
,
0001
0010
0100
1000
,
0002
0003
0200
0300
,
0020
0030
1000
0100
,
2000
3000
0020
0030
,
0100
0001
1000
0001
,
1000
0000
0100
0000
,
1000
0000
0001
0000
,
1000
0010
1000
0010
,
1000
0000
0001
0100
,
0001
0000
1000
0000
,
1000
0100
1000
0100
,
1000
0000
1000
0000
,
0001
0100
0001
0100
,
0002
0000
0100
0003
,
0002
0000
1000
0003
,
0001
0010
0001
0000
,
1000
0100
1000
0100
,
1000
0000
1000
0000
,
0001
0100
0001
0100
,
0001
0000
0001
0000
,
1000
0010
1000
0010
,
2000
0000
0100
3000
,
2000
0000
0001
3000
,
1000
0010
1000
0010
,
1000
0000
1000
0000
,
0001
0100
0001
0000
,
1000
0100
1000
0000
,
1000
0001
1000
0000
,
0001
0000
0001
0000
,
1000
0010
1000
0000
,
0001
0000
1000
0000
,
2002
0000
0000
3003
,
0002
0000
0000
0000
,
0000
0000
0000
0000
,
0003
0000
0000
0000
;
