#VERSION:0.81;
#TITLE:Day 'N' Nite;
#SUBTITLE:(Crookers Remix);
#ARTIST:Kid Cudi;
#TITLETRANSLIT:;
#SUBTITLETRANSLIT:;
#ARTISTTRANSLIT:;
#GENRE:;
#ORIGIN:;
#CREDIT:;
#BANNER:[Male Vocalists] - Day 'N' Nite (Crookers Remix).png;
#BACKGROUND:[Male Vocalists] - Day 'N' Nite (Crookers Remix)-bg.png;
#PREVIEWVID:;
#JACKET:[Male Vocalists] - Day 'N' Nite (Crookers Remix)-jacket.png;
#CDIMAGE:;
#DISCIMAGE:;
#LYRICSPATH:;
#CDTITLE:;
#MUSIC:[Male Vocalists] - Day 'N' Nite (Crookers Remix).ogg;
#OFFSET:-0.589;
#SAMPLESTART:44.702;
#SAMPLELENGTH:18.692;
#SELECTABLE:YES;
#BPMS:0.000=130.000;
#STOPS:;
#DELAYS:;
#WARPS:;
#TIMESIGNATURES:0.000=4=4;
#TICKCOUNTS:0.000=4;
#COMBOS:0.000=1;
#SPEEDS:0.000=1.000=0.000=0;
#SCROLLS:0.000=1.000;
#FAKES:;
#LABELS:0.000=Song Start;
#BGCHANGES:;
#KEYSOUNDS:;
#ATTACKS:
;

//---------------dance-single - ----------------
#NOTEDATA:;
#CHARTNAME:;
#STEPSTYPE:dance-single;
#DESCRIPTION:;
#CHARTSTYLE:;
#DIFFICULTY:Hard;
#METER:8;
#RADARVALUES:0.545,0.480,0.150,0.351,0.117,397.000,18.000,42.000,0.000,0.000,0.000,0.000,0.000,0.545,0.480,0.150,0.351,0.117,397.000,18.000,42.000,0.000,0.000,0.000,0.000,0.000;
#CREDIT:;
#NOTES:
0000
0000
0000
0000
,
0000
0000
0000
0000
,
0000
0000
0000
0000
,
0000
0000
0000
0000
,
1000
0000
0010
0000
0100
0000
0001
0000
0010
0000
0000
0001
0010
0000
0001
0000
,
0010
0000
0100
0000
1000
0000
0010
0000
0100
0000
0000
0010
0100
0000
0010
0000
,
1000
0000
0100
0000
0010
0000
0100
0000
1000
0000
0000
0100
1000
0000
0100
0000
,
1000
0000
0010
0000
0100
0000
0001
0000
1000
0000
0000
0001
1000
0000
0010
0000
,
1000
0100
0001
0100
1000
0010
0001
0010
,
2000
0000
0000
0000
3200
0000
0000
0320
0000
0000
0031
0000
1000
0000
0100
0000
,
0010
0001
0100
0000
0001
0100
0010
0000
,
2000
0000
0000
0000
3002
0000
0000
2003
0000
0000
3001
0000
0010
0000
0100
0000
,
1000
0000
0001
0000
0100
0000
0000
0000
0010
0000
0000
0100
0010
0000
0100
0000
,
0001
0000
0010
0000
0100
0000
1000
0100
0000
0000
1000
0000
0010
0000
0100
0000
,
0001
0000
0000
0001
0000
0000
0001
0000
0000
0000
0000
0000
1000
0000
0000
1000
0000
0000
1000
0000
0001
0000
1000
0000
,
0010
0000
1000
0000
0010
0000
1000
0000
0000
0100
0000
0000
0010
0000
0001
0000
0010
0000
0001
0000
0000
1000
0000
0000
,
0001
0100
0010
0000
0100
0000
0110
0000
,
0101
0000
0000
0000
0001
0000
1000
0001
0000
0000
1000
0000
0100
0000
0010
0000
,
0001
0000
0100
0000
0010
0000
0000
0000
1000
0000
0000
0001
1000
0000
0001
0000
,
1000
0000
0100
0000
0010
0000
0100
0010
0000
0000
0001
0000
0100
0000
0010
0000
,
0100
0000
0001
0000
1000
0000
0000
0000
0010
0000
0000
1000
0010
0000
0100
0000
,
0010
0000
1000
0000
0100
0000
0010
0100
0000
0000
0010
0000
0001
0000
0100
0000
,
0010
1000
0001
0000
1000
0100
0010
0002
,
0010
0010
0010
0010
0010
0010
0010
0010
,
0013
0001
0200
0000
0310
0100
0020
0000
,
2030
0000
0000
0000
3200
0000
0000
2300
0000
0000
3100
0000
2000
0000
0000
0000
,
3010
1000
0020
0000
0130
0010
0200
0000
,
0302
0000
0000
0000
0013
0000
0000
0002
0000
0000
0000
0000
0013
0000
0100
0000
,
1000
0100
1000
0000
0001
1000
0001
0000
,
0100
0000
0000
0000
0010
0000
0100
0010
0000
0000
0100
0000
0001
0000
0000
0000
,
0010
0001
0100
0010
1000
0100
0010
0100
,
0000
1000
0000
0001
1000
0000
1001
0000
,
0001
0010
0001
0010
0001
1000
0001
1000
,
0010
1000
2002
3003
,
0001
0100
0010
1000
0100
0010
0001
0100
,
0010
0100
0220
0330
,
0001
0010
0001
0010
0001
1000
0001
1000
,
0010
1000
2002
3003
,
0001
0100
0010
1000
0100
0010
0001
0200
,
0000
0320
0000
0230
0020
0000
0330
0000
,
1000
0010
1000
0100
1000
0001
1000
0010
,
0200
0320
1030
1010
,
1000
0100
1000
0001
0100
0001
1000
0001
,
0010
0000
0010
0000
0100
0000
0100
0000
0010
0000
0000
0000
0001
1000
0001
1000
,
0001
1000
0100
0010
0001
0100
0010
1000
,
1010
0011
1010
1001
,
0001
0100
0010
0100
0010
1000
0100
2000
,
0001
0001
0001
0001
0001
0000
3001
1000
,
1002
0103
0120
1030
,
1200
0000
0320
0000
0032
0000
0103
0001
,
0021
0130
2100
3001
,
2001
0000
3020
0000
0230
0000
0301
1000
,
0002
0100
0010
1000
,
0100
0000
0010
0000
0100
0000
1000
1000
,
2003
0100
0010
0100
,
0001
0010
0100
3001
,
1000
0000
0010
0000
1000
0000
0100
0000
1000
0000
0001
1000
0001
0000
1000
0000
,
0001
0100
0001
0010
0001
0100
0001
0001
,
0010
0000
0001
0000
0010
0000
1000
0000
0010
0000
0001
0010
0100
0000
1000
0000
,
0010
0001
0010
1000
0010
0001
0010
0010
,
0100
0000
1000
0000
0100
0000
0001
0000
0100
0000
0010
0100
0001
0000
0010
0000
,
0100
1000
0100
0001
0100
1000
0100
0100
,
0010
0000
0001
0000
0100
0000
0001
0000
0010
0000
0001
0100
0010
0000
1000
0000
,
0100
1000
0010
0100
0001
1000
0001
1001
;

//---------------dance-single - ----------------
#NOTEDATA:;
#CHARTNAME:;
#STEPSTYPE:dance-single;
#DESCRIPTION:;
#CHARTSTYLE:;
#DIFFICULTY:Medium;
#METER:6;
#RADARVALUES:0.394,0.427,0.100,0.250,0.017,288.000,12.000,30.000,0.000,0.000,0.000,0.000,0.000,0.394,0.427,0.100,0.250,0.017,288.000,12.000,30.000,0.000,0.000,0.000,0.000,0.000;
#CREDIT:;
#NOTES:
0000
0000
0000
0000
,
0000
0000
0000
0000
,
0000
0000
0000
0000
,
0000
0000
0000
0000
,
0001
0000
0010
0000
0100
0000
1000
0100
,
1000
0000
0010
0000
0100
0000
0001
0100
,
0001
0000
0100
0000
0010
0000
1000
0001
,
1000
0000
0100
0000
0010
0000
0001
0010
,
0001
1000
0010
1010
,
0011
0001
0010
0100
,
1000
0100
1000
0000
0001
0000
0101
0000
,
1100
1000
0010
0100
,
0001
0010
0001
0000
0010
0000
0110
0000
,
1001
1000
0010
0100
,
0010
0100
0010
0000
1000
0010
1000
0000
,
0100
1000
0100
1000
0000
0000
0001
0100
0001
0100
0000
0000
,
0010
1000
0100
1100
,
0011
0100
0010
1000
,
0001
1000
0001
0000
1000
0000
1001
0000
,
1001
0001
1000
0100
,
0010
0100
0010
0000
0001
0000
0100
0000
,
0101
0001
0010
0100
,
1000
0100
1000
0000
0010
0000
1000
0000
,
0001
1000
0001
1000
0001
1000
0001
1000
,
0001
0000
0010
0000
0001
0100
0001
0000
,
0100
0000
0010
0000
1000
0010
1000
0000
,
0100
0000
0010
0000
0001
0010
0001
0000
,
0010
0000
0100
0000
1000
0100
1000
0000
,
0001
0000
1000
0000
0001
1000
0001
0000
,
0100
0000
0010
0000
0100
0010
0100
0000
,
0010
1000
0200
0000
,
0010
0010
0020
0330
,
0100
1000
0100
0000
1000
0100
1000
0000
,
0010
0000
0100
0000
0001
0000
0100
0001
,
0100
0001
0010
0001
,
0100
0010
1000
0100
,
0010
0100
0010
0000
0001
1000
0001
0000
,
0100
0010
1000
0001
,
0010
0100
2000
3000
,
0010
0100
2002
3003
,
0001
0010
0001
0010
0001
1000
0001
1000
,
0010
1000
0010
0000
,
1000
0001
1000
0001
1000
0100
1000
0100
,
0010
0000
0001
0000
1000
0000
0001
0100
,
0010
0100
0010
0100
0010
1000
0010
1000
,
0200
2300
3002
0003
,
0010
0001
0010
0001
0010
0100
0010
0100
,
1000
0100
1000
0100
1000
0000
0001
1000
,
0002
0100
2003
0100
,
3002
0100
2003
0100
,
3020
0001
0230
1000
,
0320
0001
0230
1000
,
0320
2030
3200
0320
,
0032
0000
2003
0000
3002
0000
1003
0001
,
2000
3020
0230
0320
,
0230
0302
2003
3000
,
0001
0010
0001
0100
,
0010
0000
1000
0000
0100
0000
1000
1000
,
1000
0010
0100
0010
,
1000
0000
0001
0000
0010
0000
0001
0001
,
0001
0010
0100
1000
,
0010
0000
0100
0000
0010
0000
0100
0100
,
0100
0010
0100
0001
,
1000
0000
0100
0000
1000
0000
0010
0010
;

//---------------dance-single - ----------------
#NOTEDATA:;
#CHARTNAME:;
#STEPSTYPE:dance-single;
#DESCRIPTION:;
#CHARTSTYLE:;
#DIFFICULTY:Easy;
#METER:4;
#RADARVALUES:0.267,0.240,0.033,0.017,0.000,218.000,4.000,2.000,0.000,0.000,0.000,0.000,0.000,0.267,0.240,0.033,0.017,0.000,218.000,4.000,2.000,0.000,0.000,0.000,0.000,0.000;
#CREDIT:;
#NOTES:
0000
0000
0000
0000
,
0000
0000
0000
0000
,
0000
0000
0000
0000
,
0000
0000
0000
0000
,
1000
0010
0100
0001
,
0001
0001
0010
0100
,
1000
0010
0100
0010
,
0010
0010
1000
0100
,
0010
0001
1000
0001
,
0001
0001
0100
0010
,
1000
0100
1000
0010
,
0010
0010
1000
0100
,
0010
0001
0100
0001
,
0001
0001
0010
0001
,
0100
0100
0010
0010
,
0200
0000
0020
0330
,
1000
0100
0010
0001
,
1000
1001
0001
0100
,
0010
0100
0001
0010
,
0100
1100
1000
0010
,
0100
0100
0010
1000
,
0001
1001
1000
0100
,
0010
0010
0001
0001
,
1000
1000
1000
1000
,
0010
0000
0100
0000
,
0001
0001
0001
0000
,
0010
0000
0100
0000
,
1000
1000
1000
0000
,
0001
0000
0010
0000
,
0001
0001
0001
0000
,
1000
0000
0010
0000
,
1000
1000
1000
0000
,
0010
0100
0001
0010
,
0001
0100
0010
0000
,
1000
0100
1000
0010
,
0100
0001
1000
0000
,
0100
0010
0001
1000
,
0010
1000
0001
0000
,
0010
0100
0010
0001
,
1000
0001
1001
0000
,
1000
1000
0010
0010
,
0100
0010
0100
0000
,
0001
0001
0010
0010
,
0100
0010
0100
0000
,
1000
1000
0001
0001
,
1000
0001
1000
0000
,
0010
0010
0100
0100
,
0010
0100
0010
0000
,
0100
0100
0001
0001
,
0010
0010
0010
0010
,
0100
0100
1000
1000
,
0001
0001
0001
0001
,
1000
1000
0001
0001
,
1000
0001
1000
0001
,
1000
1000
0010
0010
,
0100
0010
0100
0010
,
0100
0100
0100
0100
,
0001
0001
0001
0001
,
0010
0010
0010
0010
,
0100
0100
0100
0100
,
1000
1000
1000
1000
,
0001
0001
0001
0001
,
0100
0100
0100
0100
,
0010
0010
0010
0010
;

//---------------dance-single - ----------------
#NOTEDATA:;
#CHARTNAME:;
#STEPSTYPE:dance-single;
#DESCRIPTION:;
#CHARTSTYLE:;
#DIFFICULTY:Beginner;
#METER:2;
#RADARVALUES:0.137,0.155,0.000,0.000,0.000,115.000,0.000,0.000,0.000,0.000,0.000,0.000,0.000,0.137,0.155,0.000,0.000,0.000,115.000,0.000,0.000,0.000,0.000,0.000,0.000,0.000;
#CREDIT:;
#NOTES:
0000
0000
0000
0000
,
0000
0000
0000
0000
,
0000
0000
0000
0000
,
0000
0000
0000
0000
,
0000
1000
0000
1000
,
0000
0100
0000
0100
,
0000
0010
0000
0010
,
0000
0001
0000
0001
,
0000
1000
0000
0001
,
0001
0001
0000
0010
,
0000
0100
0000
1000
,
1000
1000
0000
0010
,
0000
0100
0000
0010
,
0010
0010
0000
0100
,
0000
0001
0000
0001
,
0000
1000
0000
0001
,
0000
1000
0000
0010
,
0010
0010
0000
0100
,
0000
0001
0000
0010
,
0010
0010
0000
0100
,
0000
1000
0000
0001
,
0001
0001
0000
1000
,
0000
0010
0000
0100
,
0100
0100
0100
0100
,
0010
0000
0000
0000
,
1000
0000
1000
0000
,
1000
0000
0000
0000
,
0001
0000
0001
0000
,
0001
0000
0000
0000
,
0010
0000
0010
0000
,
0010
0000
0000
0000
,
0100
0000
0100
0000
,
0100
0000
1000
0000
,
0010
0000
0100
0000
,
0010
0010
0010
0000
,
0100
0000
0001
0000
,
0010
0000
0001
0000
,
1000
0000
0010
0000
,
0100
0100
0100
0000
,
0001
0001
0001
0000
,
1000
0000
1000
0000
,
0001
0001
0001
0000
,
0010
0000
0010
0000
,
0100
0100
0100
0000
,
0010
0000
0010
0000
,
0001
0001
0001
0000
,
0100
0000
0100
0000
,
0010
0010
0010
0000
,
1000
0000
0000
0000
,
0001
0000
0000
0000
,
0010
0000
0000
0000
,
0100
0000
0000
0000
,
1000
0000
1000
0000
,
0001
0000
0001
0000
,
0100
0000
0100
0000
,
0010
0000
0010
0000
,
0100
0000
0000
0000
,
0000
0000
0000
0000
,
0010
0000
0000
0000
,
0000
0000
0000
0000
,
1000
0000
0000
0000
,
0000
0000
0000
0000
,
0001
0000
0000
0000
;

//---------------dance-single - STONED----------------
#NOTEDATA:;
#CHARTNAME:;
#STEPSTYPE:dance-single;
#DESCRIPTION:STONED;
#CHARTSTYLE:;
#DIFFICULTY:Edit;
#METER:8;
#RADARVALUES:0.545,0.480,0.150,0.351,0.117,397.000,18.000,42.000,0.000,0.000,0.000,0.000,0.000,0.545,0.480,0.150,0.351,0.117,397.000,18.000,42.000,0.000,0.000,0.000,0.000,0.000;
#CREDIT:;
#OFFSET:-0.589;
#BPMS:0.000=130.000
;
#STOPS:91.500=0.231
,92.000=0.231
,92.500=0.231
,93.000=0.231
,93.500=0.231
,94.000=0.231
,94.500=0.231
,95.000=0.231
,95.500=0.231
;
#DELAYS:;
#WARPS:91.500=0.500
,92.000=0.500
,92.500=0.500
,93.000=0.500
,93.500=0.500
,94.000=0.500
,94.500=0.500
,95.000=0.500
,95.500=0.500
;
#TIMESIGNATURES:0.000=4=4
;
#TICKCOUNTS:0.000=4
;
#COMBOS:0.000=1
;
#SPEEDS:0.000=1.000=0.000=0
;
#SCROLLS:0.000=1.000
;
#FAKES:;
#LABELS:0.000=Song Start
;
#ATTACKS:TIME=44.932652:LEN=7.384613:MODS=Distant:TIME=52.317265:LEN=7.384617:MODS=Space:TIME=59.701881:LEN=14.769226:MODS=Confusion, Hallway:TIME=74.471107:LEN=14.769234:MODS=Expand, Drunk, Beat, Distant:TIME=89.240341:LEN=14.769226:MODS=Wave, Incoming:TIME=104.009567:LEN=14.769234:MODS=Overhead;
#NOTES:
// measure 0
0000
0000
0000
0000
,  // measure 1
0000
0000
0000
0000
,  // measure 2
0000
0000
0000
0000
,  // measure 3
0000
0000
0000
0000
,  // measure 4
1000
0000
0010
0000
0100
0000
0001
0000
0010
0000
0000
0001
0010
0000
0001
0000
,  // measure 5
0010
0000
0100
0000
1000
0000
0010
0000
0100
0000
0000
0010
0100
0000
0010
0000
,  // measure 6
1000
0000
0100
0000
0010
0000
0100
0000
1000
0000
0000
0100
1000
0000
0100
0000
,  // measure 7
1000
0000
0010
0000
0100
0000
0001
0000
1000
0000
0000
0001
1000
0000
0010
0000
,  // measure 8
1000
0100
0001
0100
1000
0010
0001
0010
,  // measure 9
2000
0000
0000
0000
3200
0000
0000
0320
0000
0000
0031
0000
1000
0000
0100
0000
,  // measure 10
0010
0001
0100
0000
0001
0100
0010
0000
,  // measure 11
2000
0000
0000
0000
3002
0000
0000
2003
0000
0000
3001
0000
0010
0000
0100
0000
,  // measure 12
1000
0000
0001
0000
0100
0000
0000
0000
0010
0000
0000
0100
0010
0000
0100
0000
,  // measure 13
0001
0000
0010
0000
0100
0000
1000
0100
0000
0000
1000
0000
0010
0000
0100
0000
,  // measure 14
0001
0000
0000
0001
0000
0000
0001
0000
0000
0000
0000
0000
1000
0000
0000
1000
0000
0000
1000
0000
0001
0000
1000
0000
,  // measure 15
0010
0000
1000
0000
0010
0000
1000
0000
0000
0100
0000
0000
0010
0000
0001
0000
0010
0000
0001
0000
0000
1000
0000
0000
,  // measure 16
0001
0100
0010
0000
0100
0000
0110
0000
,  // measure 17
0101
0000
0000
0000
0001
0000
1000
0001
0000
0000
1000
0000
0100
0000
0010
0000
,  // measure 18
0001
0000
0100
0000
0010
0000
0000
0000
1000
0000
0000
0001
1000
0000
0001
0000
,  // measure 19
1000
0000
0100
0000
0010
0000
0100
0010
0000
0000
0001
0000
0100
0000
0010
0000
,  // measure 20
0100
0000
0001
0000
1000
0000
0000
0000
0010
0000
0000
1000
0010
0000
0100
0000
,  // measure 21
0010
0000
1000
0000
0100
0000
0010
0100
0000
0000
0010
0000
0001
0000
0100
0000
,  // measure 22
0010
1000
0001
0000
1000
0100
0010
0002
,  // measure 23
0010
0010
0010
0010
0010
0010
0010
0010
,  // measure 24
0013
0001
0200
0000
0310
0100
0020
0000
,  // measure 25
2030
0000
0000
0000
3200
0000
0000
2300
0000
0000
3100
0000
2000
0000
0000
0000
,  // measure 26
3010
1000
0020
0000
0130
0010
0200
0000
,  // measure 27
0302
0000
0000
0000
0013
0000
0000
0002
0000
0000
0000
0000
0013
0000
0100
0000
,  // measure 28
1000
0100
1000
0000
0001
1000
0001
0000
,  // measure 29
0100
0000
0000
0000
0010
0000
0100
0010
0000
0000
0100
0000
0001
0000
0000
0000
,  // measure 30
0010
0001
0100
0010
1000
0100
0010
0100
,  // measure 31
0000
1000
0000
0001
1000
0000
1001
0000
,  // measure 32
0001
0010
0001
0010
0001
1000
0001
1000
,  // measure 33
0010
1000
2002
3003
,  // measure 34
0001
0100
0010
1000
0100
0010
0001
0100
,  // measure 35
0010
0100
0220
0330
,  // measure 36
0001
0010
0001
0010
0001
1000
0001
1000
,  // measure 37
0010
1000
2002
3003
,  // measure 38
0001
0100
0010
1000
0100
0010
0001
0200
,  // measure 39
0000
0320
0000
0230
0020
0000
0330
0000
,  // measure 40
1000
0010
1000
0100
1000
0001
1000
0010
,  // measure 41
0200
0320
1030
1010
,  // measure 42
1000
0100
1000
0001
0100
0001
1000
0001
,  // measure 43
0010
0000
0010
0000
0100
0000
0100
0000
0010
0000
0000
0000
0001
1000
0001
1000
,  // measure 44
0001
1000
0100
0010
0001
0100
0010
1000
,  // measure 45
1010
0011
1010
1001
,  // measure 46
0001
0100
0010
0100
0010
1000
0100
2000
,  // measure 47
0001
0001
0001
0001
0001
0000
3001
1000
,  // measure 48
1002
0103
0120
1030
,  // measure 49
1200
0000
0320
0000
0032
0000
0103
0001
,  // measure 50
0021
0130
2100
3001
,  // measure 51
2001
0000
3020
0000
0230
0000
0301
1000
,  // measure 52
0002
0100
0010
1000
,  // measure 53
0100
0000
0010
0000
0100
0000
1000
1000
,  // measure 54
2003
0100
0010
0100
,  // measure 55
0001
0010
0100
3001
,  // measure 56
1000
0000
0010
0000
1000
0000
0100
0000
1000
0000
0001
1000
0001
0000
1000
0000
,  // measure 57
0001
0100
0001
0010
0001
0100
0001
0001
,  // measure 58
0010
0000
0001
0000
0010
0000
1000
0000
0010
0000
0001
0010
0100
0000
1000
0000
,  // measure 59
0010
0001
0010
1000
0010
0001
0010
0010
,  // measure 60
0100
0000
1000
0000
0100
0000
0001
0000
0100
0000
0010
0100
0001
0000
0010
0000
,  // measure 61
0100
1000
0100
0001
0100
1000
0100
0100
,  // measure 62
0010
0000
0001
0000
0100
0000
0001
0000
0010
0000
0001
0100
0010
0000
1000
0000
,  // measure 63
0100
1000
0010
0100
0001
1000
0001
1001
;
