#TITLE:Dashboard;
#SUBTITLE:;
#ARTIST:MODEST MOUSE;
#TITLETRANSLIT:;
#SUBTITLETRANSLIT:;
#ARTISTTRANSLIT:;
#CREDIT:;
#BANNER:[Male Vocalists] - Dashboard.png;
#BACKGROUND:[Male Vocalists] - Dashboard-bg.png;
#LYRICSPATH:;
#CDTITLE:cdtitle.png;
#MUSIC:[Male Vocalists] - Dashboard.mp3;
#OFFSET:-0.260;
#SAMPLESTART:49.253;
#SAMPLELENGTH:17.820;
#SELECTABLE:YES;
#BPMS:0.000=136.000;
#STOPS:;
#BGCHANGES:7.667=[Male Vocalists] - Dashboard.avi=1.000=1=0=0,
99999=-nosongbg-=1.000=0=0=0 // don't automatically add -songbackground-
;

//---------------dance-single - ----------------
#NOTES:
     dance-single:
     :
     Beginner:
     1:
     0.110,0.165,0.025,0.000,0.000:
0000
0000
0000
0000
,
0000
0000
0000
0000
,
0000
0000
0000
0000
,
0000
0000
0000
0000
,
1000
0000
1000
0000
,
0100
0000
0100
0000
,
1000
0000
0000
0000
,
0000
0000
0000
0000
,
0001
0000
0001
0000
,
0010
0000
0010
0000
,
0001
0000
0000
0000
,
0000
0000
0000
0000
,
1001
0000
0100
0000
,
1000
0000
0010
0010
,
0000
0000
0000
1000
,
0000
0000
0000
0000
,
0100
0000
0010
0000
,
0001
0000
0100
0100
,
0100
0000
0000
0000
,
0000
0000
0000
0000
,
1000
0000
0100
0000
,
1000
0000
0001
0001
,
0000
0000
0000
0010
,
0000
0000
0000
0000
,
1000
0000
0100
0000
,
1000
0000
1000
1000
,
1000
0000
0000
0000
,
0000
0000
0000
0000
,
0110
0000
0010
0000
,
0010
0000
0010
0000
,
0010
0000
0000
0000
,
1000
0000
0000
0000
,
0110
0000
0100
0000
,
0100
0000
0100
0000
,
0100
0000
0000
0000
,
0000
0001
0001
0001
,
0000
0000
0100
0100
,
0000
0000
0100
0100
,
0000
0000
0000
0000
,
0000
0000
1000
1000
,
1000
0000
0000
1000
,
0000
0000
0000
1000
,
0000
0000
0000
0000
,
0001
0000
0001
0001
,
0001
0000
0000
0001
,
0000
0000
0000
0001
,
0000
0000
0000
0000
,
0100
0000
0100
0000
,
0010
0000
0000
0000
,
1000
0000
0000
0000
,
0001
0000
0000
0000
,
0100
0000
0000
0000
,
0010
0000
0000
0000
,
1000
0000
0000
0000
,
0100
0000
0000
0000
,
0010
0000
0010
0000
,
0001
0000
0001
0000
,
1000
0000
0000
0000
,
0010
0000
0000
0000
,
1000
0000
0000
0000
,
0100
0100
0100
0000
,
0100
0000
0000
0000
,
1000
0000
0000
0000
,
0001
0000
0000
0000
,
0000
0010
0010
0010
,
0000
0000
0000
0000
,
1000
0000
0000
0000
;

//---------------dance-single - ----------------
#NOTES:
     dance-single:
     :
     Medium:
     6:
     0.394,0.469,0.142,0.309,0.000:
0000
0000
0000
0000
,
0000
0000
0000
0000
,
1000
0100
0010
0001
,
0100
0001
1000
0010
,
2000
3100
2000
3100
,
0010
0001
0200
0310
,
0100
0100
0001
0001
,
1000
0100
1000
0001
,
0020
0031
0020
0031
,
0200
0310
2000
3001
,
0010
0010
0100
1000
,
0001
0001
0100
1001
,
0010
1000
0010
0000
1000
0000
0001
0000
,
0100
0010
0100
0000
0001
0000
1000
0000
,
0200
0310
0020
0031
,
0002
0103
0200
0310
,
1000
0001
1000
0000
0010
0000
0100
0000
,
0001
0010
0001
0000
0100
0000
0010
0000
,
2000
0000
3002
0000
,
0100
0100
0103
1100
,
0010
1000
1000
0000
2002
0000
3003
0000
,
0220
0330
0202
0303
,
2010
0100
0100
3010
,
1000
0100
0010
0001
,
0100
0001
1000
0000
0220
0000
0330
0000
,
2200
3300
0202
0303
,
0012
0100
1000
1000
,
0010
0100
0010
0013
,
1000
0100
1000
0000
0010
0001
0010
0000
,
1000
0100
1000
0000
0010
0001
0010
0000
,
2000
0000
3100
0100
,
1000
0010
0100
0000
,
0001
0100
0001
0000
1000
0010
1000
0000
,
0001
0100
0001
0000
1000
0010
1000
0000
,
0001
1000
0010
0100
,
0001
0010
0100
0100
,
0000
1000
0100
1000
0010
0010
0010
0000
,
0000
1000
0100
1000
0010
0010
0010
0000
,
2000
0000
3002
0000
,
0023
0000
0130
0010
,
0001
0001
0100
1010
,
0001
0001
0100
1010
,
0002
0000
2003
0000
,
3200
0000
0320
0000
,
0031
1000
0100
1010
,
0001
1000
0100
1010
,
0100
0100
0010
0010
,
1000
0100
0010
0000
0001
0010
0100
0000
,
0000
1000
0100
1000
0010
0010
0010
0000
,
1000
1000
0001
0001
,
0100
0000
0100
0000
0010
0000
0010
1000
,
0000
0001
0000
0000
0100
0000
0001
1000
,
0000
0100
0000
0000
1000
0000
0110
0000
,
0001
0001
0001
0000
0020
0000
0130
0000
,
1000
1000
1000
0000
0002
0000
0103
0000
,
0010
0010
1000
0100
,
0010
0000
0001
0000
0100
0001
1000
0000
,
0010
0010
0010
0000
1000
0100
0010
0000
,
0001
0001
0001
0000
0100
0001
1000
0000
,
0010
0010
1000
0100
,
0001
0010
0100
1001
,
0010
0010
0010
0000
1000
0100
1000
0000
,
0001
0001
0001
0000
0100
0001
0100
0000
,
0010
1000
0000
0100
0000
0010
0000
0001
,
0000
0100
0001
1000
0010
0010
0010
0000
,
1000
1000
0001
0001
,
0110
0000
0000
0000
;

//---------------dance-single - ----------------
#NOTES:
     dance-single:
     :
     Hard:
     8:
     0.516,0.469,0.167,0.159,0.017: // measure 1
0000
0000
0000
0000
,  // measure 2
0000
0000
0000
0000
,  // measure 3
0100
0001
1000
1000
,  // measure 4
0010
0000
1000
0000
0100
0000
0010
0001
,  // measure 5
1000
0100
1000
0000
0001
0100
0001
0000
,  // measure 6
1000
0010
1000
0000
0001
0010
0001
0000
,  // measure 7
0100
0000
0010
0000
1000
1000
0100
0000
,  // measure 8
1000
0000
0010
0000
0001
0001
0100
0000
,  // measure 9
0010
1000
0100
0000
0010
0001
0100
0000
,  // measure 10
0001
1000
0100
0000
1000
0001
0100
0000
,  // measure 11
0010
0000
1000
0000
0100
0100
0010
0000
,  // measure 12
0001
0000
1000
0000
0010
0010
1001
0000
,  // measure 13
0100
0001
1000
0001
0100
0010
1000
0010
,  // measure 14
0100
0001
0010
1000
0010
0001
2000
0000
,  // measure 15
3100
0000
1000
0000
0010
0010
0100
0000
,  // measure 16
0001
0000
1000
0000
0100
0100
0010
0000
,  // measure 17
1000
0100
0010
0100
1000
0001
0100
1000
,  // measure 18
0100
0001
0010
0100
0010
0001
1000
0010
,  // measure 19
0200
0000
0000
0301
0002
0000
1003
0000
,  // measure 20
0100
0000
1000
0000
0010
0100
1001
0000
,  // measure 21
0100
1000
0100
1000
0001
0010
0001
0010
,  // measure 22
0100
1000
0010
0100
0001
1000
0010
0000
,  // measure 23
0100
0000
0001
0000
1000
0100
0001
0000
,  // measure 24
1000
0000
0001
0000
0010
0001
0100
0000
,  // measure 25
0010
1000
0010
1000
0001
0100
0001
0100
,  // measure 26
0001
0010
0100
1000
0000
0001
0100
0010
,  // measure 27
0000
1000
1000
0100
0010
0010
0001
0001
,  // measure 28
2000
0000
3010
1000
0002
0000
0203
0000
,  // measure 29
0310
0010
1000
0100
1000
1000
0010
0100
,  // measure 30
0001
0001
0010
1000
0010
0010
0002
0000
,  // measure 31
1003
0100
1000
0010
0100
0100
0001
1000
,  // measure 32
0020
0000
2030
0000
3001
0100
0010
0000
,  // measure 33
1000
1000
0100
0010
0001
0001
0100
0010
,  // measure 34
0100
0100
0001
1000
1000
0100
1000
0010
,  // measure 35
0000
0101
0000
0011
0000
1100
0000
0101
,  // measure 36
0000
1000
0100
0001
0010
1000
0001
0000
,  // measure 37
0000
0100
0001
1000
0010
0100
1001
0000
,  // measure 38
0000
1000
0100
0001
0010
0100
1001
0000
,  // measure 39
0020
1000
0230
0001
,  // measure 40
0320
0000
1000
0000
0130
0001
0010
1000
,  // measure 41
0010
0001
1000
0100
1000
0010
0101
0000
,  // measure 42
0000
0010
0001
0100
0010
0100
1001
0000
,  // measure 43
0020
1000
0230
0001
,  // measure 44
0320
0000
1000
0000
1030
0100
1000
0010
,  // measure 45
0000
0100
0001
0010
0100
0010
1001
0000
,  // measure 46
0000
0010
1000
0100
0010
0001
1100
0000
,  // measure 47
0001
0000
0100
0000
0001
0000
0000
1000
0100
0000
0010
0000
0001
0000
0000
0100
,  // measure 48
0010
0000
0100
0000
0001
0000
0000
0010
0001
0000
1000
0000
0100
0000
1000
0000
,  // measure 49
0000
0010
1000
0100
0010
0001
0110
0000
,  // measure 50
1000
1000
0001
0001
,  // measure 51
1000
0100
0001
0100
1000
0001
0100
0010
,  // measure 52
0000
1100
0000
0001
0100
0000
1000
0100
,  // measure 53
0000
0000
0010
0000
0010
0000
0001
1000
0100
0000
1000
0000
0101
0000
0000
0000
,  // measure 54
0010
1000
0100
0010
0001
1000
0010
1000
,  // measure 55
0001
0010
1000
0010
0001
1000
0100
0010
,  // measure 56
0001
0200
1000
0010
,  // measure 57
0301
0000
0000
0000
0002
0000
0000
0000
0010
0000
0000
0000
1000
0003
0000
0000
,  // measure 58
1000
0100
0010
0001
0001
0100
0010
1000
,  // measure 59
1000
0010
0100
0001
0010
0100
1000
0010
,  // measure 60
0100
0002
0100
0010
,  // measure 61
1000
0000
0000
0003
2000
0000
0000
0000
0100
0000
0000
0000
3010
0000
0100
0000
,  // measure 62
0001
0001
0010
0100
1000
1000
0010
0100
,  // measure 63
0010
0010
1000
0100
0001
0001
0100
1000
,  // measure 64
0010
0100
0000
1001
0000
0110
0000
1100
,  // measure 65
0000
0010
1000
0100
0010
0001
0110
0000
,  // measure 66
1000
1000
0001
0001
,  // measure 67
0110
0000
0000
0000
;

//---------------dance-single - ----------------
#NOTES:
     dance-single:
     :
     Easy:
     3:
     0.227,0.248,0.142,0.184,0.000:
0000
0000
0000
0000
,
0000
0000
0000
0000
,
0010
0010
1000
1000
,
0100
0100
0010
0010
,
0002
0003
2000
3000
,
0020
0030
0200
0300
,
0001
0001
0100
0000
,
1000
1000
0100
0000
,
2000
3000
0020
0030
,
2000
3000
0002
0003
,
0100
0100
0001
0000
,
0010
0010
0100
0000
,
0000
1000
0000
0001
,
0000
0100
0010
0100
,
0000
0001
0000
0010
,
0000
0001
0000
1000
,
0000
0010
0000
1000
,
0000
0100
1000
0100
,
0020
0000
0032
0000
,
0000
0000
0003
0110
,
0100
0000
0010
0000
,
1000
1000
0100
0100
,
0010
0000
0001
0000
,
1000
0000
0010
0000
,
0100
0100
0001
0001
,
0010
0000
0001
0000
,
1000
1000
0100
0000
,
1000
0000
0010
0000
,
1001
0000
0100
0000
,
1001
0000
0010
0000
,
0100
0100
0010
0010
,
0100
0000
0010
0000
,
1001
0000
0100
0000
,
1001
0000
0010
0000
,
0110
0000
1000
0000
,
0000
0001
0001
0000
,
0000
0000
0100
1001
,
0000
0000
0100
1001
,
0020
0000
0032
0000
,
2003
0000
3200
0000
,
1300
0000
0010
1001
,
0000
0000
0010
1001
,
0200
0000
0320
0000
,
2030
0000
3002
0000
,
0013
0000
0100
1001
,
0000
0000
0010
1001
,
0000
0100
0000
1000
,
0000
0010
0000
0001
,
0000
0000
1000
1001
,
0001
0000
1000
0000
,
0010
0000
0100
0000
,
0002
0003
2000
3000
,
0020
0030
2000
3000
,
0100
0000
1000
0000
,
0001
0000
0100
0000
,
0010
0010
0010
0000
,
1000
1000
1000
0000
,
0100
0000
1100
0000
,
0010
0000
0101
0000
,
1000
0000
0001
0000
,
0010
0100
0010
0000
,
0001
0000
1000
0000
,
0010
0000
0100
0000
,
1000
1000
0010
0001
,
0001
0000
0100
1001
,
0000
0000
0000
0000
,
1001
0000
0000
0000
;
