#TITLE:断罪プラズマ;
#SUBTITLE:;
#ARTIST:積田晋平;
#TITLETRANSLIT:Danzai Plasma;
#SUBTITLETRANSLIT:;
#ARTISTTRANSLIT:Tsumita Shinpei;
#GENRE:;
#CREDIT:;
#BANNER:[Male Vocalists] - Danzai Purazuma.png;
#BACKGROUND:[Male Vocalists] - Danzai Purazuma-bg.png;
#LYRICSPATH:;
#CDTITLE:;
#MUSIC:[Male Vocalists] - Danzai Purazuma.mp3;
#OFFSET:-0.420;
#SAMPLESTART:16.730;
#SAMPLELENGTH:17.040;
#SELECTABLE:YES;
#BPMS:0.000=250.000;
#STOPS:;
#BGCHANGES:;
#KEYSOUNDS:;

//---------------dance-single - ----------------
#NOTES:
     dance-single:
     :
     Beginner:
     1:
     0.222,0.415,0.172,0.220,0.000:
0000
0000
0000
0000
,
0110
0000
0000
0000
,
1001
0000
0000
0000
,
1001
0000
0000
0000
,
0010
0000
0000
0000
,
1001
0000
0000
0000
,
1001
0000
0000
0000
,
0110
0000
0000
0000
,
1000
0000
0000
0000
,
0001
0000
0000
0000
,
0100
0000
0000
0000
,
0010
0000
0000
0000
,
1000
0000
1000
0000
,
0001
0000
0000
0000
,
0010
0000
0000
0000
,
0100
0000
0000
0000
,
1000
0000
1000
0000
,
0020
0000
0000
0030
,
0100
0000
0000
0000
,
0000
0000
0100
0000
,
0001
0000
0000
0000
,
0000
0010
0010
0010
,
0000
0000
0000
0000
,
0000
0000
1000
0000
,
0100
0000
0000
0000
,
0000
0010
0010
0010
,
0000
0000
0000
0000
,
0000
0000
0100
0000
,
0001
0000
0000
0000
,
0000
0010
0010
0010
,
0000
0000
0000
0000
,
0000
0000
1000
0000
,
0100
0000
0000
0000
,
0000
0000
0000
0000
,
0020
0000
0000
0030
,
0000
0000
0000
0000
,
0200
0000
0000
0300
,
0000
0000
0000
0000
,
0001
0000
0000
0000
,
1000
0000
0000
0000
,
0001
0000
0000
0000
,
1000
0000
0001
0000
,
0020
0000
0000
0000
0000
0000
0000
0000
0000
0000
0000
0000
0000
0000
0000
0000
0000
0000
0000
0000
0000
0000
0000
0000
0000
0000
0000
0000
0000
0000
0000
0000
0000
0000
0000
0000
0000
0000
0000
0000
0000
0000
0000
0000
0000
0000
0000
0000
0000
0000
0000
0000
0000
0000
0000
0000
0000
0000
0000
0000
0000
0000
0000
0000
0000
0000
0000
0000
0000
0000
0000
0000
0000
0000
0000
0000
0000
0000
0000
0000
0000
0000
0000
0000
0000
0000
0000
0000
0000
0000
0000
0000
0000
0000
0000
0000
0000
0000
0000
0000
0000
0000
0000
0000
0000
0000
0000
0000
0000
0000
0000
0000
0000
0000
0000
0000
0000
0000
0000
0000
0000
0000
0000
0000
0000
0000
0000
0000
0000
0000
0000
0000
0000
0000
0000
0000
0000
0000
0000
0000
0000
0000
0000
0000
0000
0030
0000
0000
0000
0000
0000
0000
0000
0000
0000
0000
0000
0000
0000
0000
0000
0000
0000
0000
0000
0000
0000
0000
0000
0000
0000
0000
0000
0000
0000
0000
0000
0000
0000
0000
0000
0000
0000
0000
0000
0000
0000
0000
0000
0000
0000
0000
,
0000
0000
0000
0000
,
0200
0000
0000
0000
0000
0000
0000
0000
0000
0000
0000
0000
0000
0000
0000
0000
0000
0000
0000
0000
0000
0000
0000
0000
0000
0000
0000
0000
0000
0000
0000
0000
0000
0000
0000
0000
0000
0000
0000
0000
0000
0000
0000
0000
0000
0000
0000
0000
0000
0000
0000
0000
0000
0000
0000
0000
0000
0000
0000
0000
0000
0000
0000
0000
0000
0000
0000
0000
0000
0000
0000
0000
0000
0000
0000
0000
0000
0000
0000
0000
0000
0000
0000
0000
0000
0000
0000
0000
0000
0000
0000
0000
0000
0000
0000
0000
0000
0000
0000
0000
0000
0000
0000
0000
0000
0000
0000
0000
0000
0000
0000
0000
0000
0000
0000
0000
0000
0000
0000
0000
0000
0000
0000
0000
0000
0000
0000
0000
0000
0000
0000
0000
0000
0000
0000
0000
0000
0000
0000
0000
0000
0000
0000
0000
0000
0300
0000
0000
0000
0000
0000
0000
0000
0000
0000
0000
0000
0000
0000
0000
0000
0000
0000
0000
0000
0000
0000
0000
0000
0000
0000
0000
0000
0000
0000
0000
0000
0000
0000
0000
0000
0000
0000
0000
0000
0000
0000
0000
0000
0000
0000
0000
,
0000
0000
0000
0000
,
1001
0000
0000
0000
,
0000
0000
0000
0000
,
1001
0000
0000
0000
,
0000
0000
0000
0000
,
1001
0000
0000
0020
,
0000
0000
0000
0030
,
0100
0000
0000
0100
,
0100
0000
0000
0000
,
0010
0000
0000
0010
,
0010
0000
0000
0000
,
1000
0000
0000
1000
,
1000
0000
0000
0000
,
0020
0000
0000
0000
,
0000
0000
0030
0000
,
0100
0000
0000
0100
,
0100
0000
0000
0000
,
0010
0000
0000
0010
,
0010
0000
0000
0000
,
1000
0000
0000
1000
,
1000
0000
0000
0000
,
0020
0000
0000
0000
,
0000
0000
0030
0000
,
0100
0000
0000
0000
,
0000
0000
0100
0000
,
0001
0000
0000
0000
,
0000
0000
1000
0000
,
0010
0000
0000
0000
,
0000
0000
0001
0000
,
0010
0000
0000
0000
,
0000
0000
0100
0000
,
2000
0000
3002
0000
,
2003
0000
3002
0000
,
2003
0000
3002
0000
,
0020
0000
0003
0000
,
0000
0000
0030
0000
,
0200
0000
0000
0000
,
2300
0000
3020
0000
,
0230
0000
0302
0000
,
1003
0000
0000
0100
,
0100
0000
0000
0000
,
0010
0000
0000
1000
,
1000
0000
0000
0000
,
0002
0000
0000
0000
,
0003
0000
0000
0000
,
0100
0000
0100
0000
,
0010
0000
0010
0000
,
1001
0000
0000
0100
,
0100
0000
0000
0000
,
0010
0000
0000
1000
,
1000
0000
0000
0000
,
0002
0000
0000
0000
,
0003
0000
0000
0000
,
0100
0000
0100
0000
,
0010
0000
0010
0000
,
1001
0000
0000
0000
,
0011
0000
0000
0000
,
1100
0000
0000
0000
,
1001
0000
0000
0000
,
0110
0000
0000
0000
,
1001
0000
0000
0000
,
1010
0000
0000
0000
,
0101
0000
0000
0020
,
0000
0030
0000
0000
,
0000
0000
0000
0000
;

//---------------dance-single - ----------------
#NOTES:
     dance-single:
     :
     Easy:
     6:
     0.485,0.569,0.374,0.355,0.000:
0000
0000
0000
0000
,
1100
0000
0000
0000
,
0011
0000
0000
0000
,
1001
0000
0000
0000
,
0001
0000
0000
1000
0000
0000
0001
0000
,
1100
0000
0000
0000
,
0011
0000
0000
0000
,
1001
0000
0000
0000
,
1000
0000
0000
0001
0000
0000
1000
0000
,
0010
0000
0000
0200
0000
0000
0301
0000
,
0100
0000
0000
0020
0000
0000
1030
0000
,
0010
0000
0000
2000
0000
0000
3001
0000
,
0100
0000
0000
0001
0000
0000
1000
0000
,
1001
0000
0000
0020
0000
0000
1030
0000
,
0010
0000
0000
0200
0000
0000
0301
0000
,
0100
0000
0000
0002
0000
0000
1003
0000
,
0010
0000
0000
1000
0000
0000
0001
0000
,
2002
0000
0000
3003
,
0010
0000
0100
0000
0100
0000
0000
0001
,
0000
0001
0000
0001
0000
0000
0000
0000
,
0100
0000
0010
0000
0010
0000
0000
1000
,
0000
1000
0002
0000
0023
0000
0230
0000
,
1300
0000
0001
0000
0001
0000
0000
0100
,
0000
0100
0000
0100
0000
0000
0000
0000
,
0001
0000
1000
0000
1000
0000
0000
0010
,
0000
0010
2000
0000
3002
0000
2003
0000
,
3100
0000
0010
0000
0010
0000
0000
0001
,
0000
0001
0000
0001
0000
0000
0000
0000
,
0010
0000
0100
0000
0100
0000
0000
1000
,
0000
1000
0002
0000
0203
0000
0320
0000
,
1030
0000
0001
0000
0001
0000
0000
0010
,
0000
0010
0000
0010
0000
0000
0000
0000
,
0001
0000
1000
0000
1000
0000
0000
0100
,
0000
0100
2000
0000
3002
0000
2003
0000
,
3010
0000
0000
0010
0000
0000
0010
0000
,
0000
0010
0000
0000
0010
0000
1000
0000
,
0100
0000
0000
0100
0000
0000
0100
0000
,
0000
0100
0000
0000
0100
0000
0010
0000
,
0001
0000
0000
1000
0000
0000
0001
0000
,
0000
1000
0000
0000
0001
0000
1000
0000
,
0100
0000
0000
0010
0000
0000
0100
0000
,
0000
0010
0000
0000
0100
0000
1000
0000
,
0001
0000
0000
0001
0000
0000
0001
0000
,
0000
0001
0000
0000
0001
0000
1000
0000
,
1000
0000
0000
1000
0000
0000
1000
0000
,
0000
1000
0000
0000
1000
0000
0010
0000
,
0110
0000
0000
1001
0000
0000
0220
0000
,
0000
0000
0330
0000
,
0011
0000
0000
1100
0000
0000
0022
0000
,
0000
0000
0000
0033
,
1010
0000
0000
0101
0000
0000
2020
0000
,
0000
0000
3030
0000
,
1001
0000
0000
0100
,
0100
0000
0000
0000
,
1001
0000
0000
0010
,
0010
0000
0000
0000
,
1001
0000
0000
0100
,
0100
0000
0000
0000
,
0010
0000
0000
0010
0000
0000
0010
0000
,
1000
0000
0100
0000
,
1001
0000
0000
0001
0000
0000
0010
0000
,
0010
0000
0000
0000
,
1001
0000
0000
1000
0000
0000
0100
0000
,
0100
0000
0000
0000
,
1001
0000
0000
0001
0000
0000
0010
0000
,
0010
0000
0000
0000
,
0100
0000
0000
0100
0000
0000
0100
0000
,
0001
0000
1000
0000
,
1001
0000
0000
0100
0000
0100
0000
0100
,
0000
0100
0010
0000
,
1001
0000
0000
0100
0000
0100
0000
0100
,
0000
0100
0010
0000
,
1001
0000
0000
0100
0000
0100
0000
0100
,
0000
0100
0010
0000
,
1001
0000
0000
0100
0000
0100
0000
0100
,
0000
0000
0002
0000
,
1003
0010
1000
0001
,
1000
0010
1000
0001
,
1000
0010
1000
0001
,
0020
0000
0000
0000
,
0030
0010
0010
0010
,
0020
0000
0000
0030
,
0100
0100
0010
0010
,
0001
0001
2000
0001
,
0002
3003
0000
0010
,
0010
0000
0000
0010
0000
0000
1000
0000
,
0100
0000
0000
1100
0000
0000
0010
0000
,
0010
0000
0000
0001
0000
0000
0001
0000
,
0100
0000
0000
0101
0000
0000
2002
0000
,
0000
0000
3003
0000
,
0001
0000
0000
0001
0000
0000
1000
0000
,
1000
0000
0001
0000
,
0110
0000
0000
1001
0000
0000
0100
0000
,
0100
0000
0000
0100
0000
0000
0001
0000
,
0010
0000
0000
0011
0000
0000
0100
0000
,
0100
0000
0000
1000
0000
0000
1000
0000
,
0010
0000
0000
1010
0000
0000
1001
0000
,
0001
0200
0000
0000
,
0310
0000
0000
1000
0000
0000
0100
0000
,
0010
0000
0001
0000
,
1001
0000
0000
0000
,
0011
0000
0000
0000
,
1100
0000
0000
0000
,
1001
0000
0000
0000
,
1000
0001
1000
0002
0000
0000
0003
0000
,
1000
0001
1000
0002
0000
0000
0003
0000
,
1000
0001
1000
0002
0000
0000
0003
0000
,
0100
0000
0000
0010
0000
0000
1000
0001
,
0000
0000
0000
0000
,
0000
0000
0000
0000
;

//---------------dance-single - ----------------
#NOTES:
     dance-single:
     :
     Medium:
     9:
     0.903,1.000,0.556,0.862,0.000:
0000
0000
0000
0000
,
1100
0000
0000
0002
0000
0000
0103
0000
,
0101
0000
0000
2000
0000
0000
3010
0000
,
1010
0000
0000
0002
0000
0000
0013
0000
,
0001
0010
0100
1000
0001
0100
0001
0000
,
0011
0000
0000
2000
0000
0000
3010
0000
,
1010
0000
0000
0002
0000
0000
0103
0000
,
0101
0000
0000
2000
0000
0000
3100
0000
,
1000
0100
0010
0001
1000
0010
1000
0001
,
0010
0000
0010
0002
0000
0000
0103
0000
,
0010
0000
0010
2000
0000
0000
3100
0000
,
0010
0000
0010
0002
0000
0000
0103
0000
,
0010
1000
0100
0010
0001
1000
0001
1000
,
0100
0000
0100
2000
0000
0000
3010
0000
,
0100
0000
0100
0002
0000
0000
0013
0000
,
0100
0000
0100
2000
0000
0000
3010
0000
,
0100
0001
0010
0100
1000
0001
1000
0001
,
2000
3000
0200
0300
0020
0030
0002
0003
2000
3000
0020
0030
0200
0300
0002
0003
,
1000
0000
1010
0000
1010
0000
0001
0010
,
0000
0101
0000
0101
0000
0001
0010
0000
,
1010
0000
1010
0000
1000
0001
0000
0101
,
0000
0000
2000
3000
0020
0030
0200
0300
0002
0003
2000
3000
0002
0003
0000
0000
,
0100
0000
0101
0000
0000
1010
0000
1010
,
0000
1010
0000
1010
0000
0100
0001
0000
,
0101
0000
0101
0000
0001
0010
0000
1010
,
0000
0000
0002
0003
0020
0030
2000
3000
0020
0000
0000
0000
0032
0000
0000
0000
,
1003
0000
1100
0000
1100
0000
0001
0100
,
0000
0011
0000
0011
0000
0001
0100
0000
,
1100
0000
1100
0000
1000
0001
0000
0011
,
0000
0000
2000
3000
0020
0030
0200
0300
0002
0003
2000
3000
0002
0003
0000
0000
,
0010
0000
0011
0000
0000
1100
0000
1100
,
0000
1100
0000
1100
0000
0010
0001
0000
,
0011
0000
0011
0000
0001
0100
0000
1100
,
0000
0000
0002
0003
0020
0030
2000
3000
0020
0000
0000
0000
0032
0000
0000
0000
,
1003
0000
0100
1000
0000
0010
1000
0000
,
0001
1000
0000
0001
0100
0001
0010
0100
,
1000
0000
0100
1000
0000
0010
1000
0000
,
0001
1000
0000
0001
0100
0001
0010
0100
,
1000
0000
0001
0100
0001
0100
0001
0000
,
1000
0010
1000
0010
1000
0001
0010
0100
,
1000
0001
1000
0010
1000
0010
1000
0000
,
0001
0100
0001
0100
0001
1000
0100
0010
,
0001
0000
0010
0001
0000
0100
0001
0000
,
1000
0001
0000
1000
0010
1000
0100
0010
,
0001
0000
0010
0001
0000
0100
0001
0000
,
1000
0001
0000
1000
0010
1000
0100
1000
,
1010
0000
0000
0101
0000
0000
2020
0000
,
0000
0000
3030
0000
,
0011
0000
0000
1100
0000
0000
0022
0000
,
0000
0000
0033
0000
,
1001
0000
0000
0110
0000
0000
2002
0000
,
0000
0000
0000
3003
,
0100
0000
0000
0100
0000
0000
0020
0000
,
2030
0000
0000
3002
0000
0000
0203
0000
,
0302
0000
0000
0203
0000
0000
0320
0000
,
2030
0000
0000
3020
0000
0000
2030
0000
,
3200
0000
0000
0020
,
0000
0000
0000
0330
,
0001
1000
0010
1000
0001
0100
0001
1000
,
0001
0010
0100
1000
0001
1000
0010
0100
,
0001
0000
0000
0200
,
0302
0000
0000
2003
0000
0000
3020
0000
,
2030
0000
0000
3020
0000
0000
0230
0000
,
0302
0000
0000
0203
0000
0000
0302
0000
,
0023
0000
0000
0100
,
0100
0200
0000
0330
,
1000
0001
0100
0001
1000
0010
1000
0001
,
1000
0100
0010
0001
1000
0001
0100
0010
,
1000
0000
0001
0100
0000
0110
0000
0110
,
0000
0010
1000
0100
0001
1000
0010
0001
,
1000
0000
0001
0100
0000
0110
0000
0110
,
0000
0010
1000
0100
0001
1000
0010
0001
,
1000
0000
0001
0100
0000
0110
0000
0110
,
0000
0010
1000
0100
0001
1000
0010
0001
,
1000
0000
0001
0100
0000
0110
0000
0110
,
0000
0010
1000
0100
2000
0000
0000
0000
,
3001
0010
0100
1000
0001
0100
0010
1000
,
0001
0100
0010
0100
0001
1000
0100
1000
,
0001
0010
0100
0010
0001
1000
0100
0010
,
0002
0000
0000
0000
,
0000
1000
1000
1000
,
2003
0000
0000
0000
,
3001
0100
0010
0100
0001
0010
0100
0001
,
0100
1000
0010
0100
0002
0000
2003
0000
,
3200
0000
0000
1300
,
0010
0000
0100
0001
0000
1000
0010
0000
,
1000
0000
0001
0100
0000
0010
1000
0000
,
0001
0000
0010
0100
0000
1000
0001
0000
,
0100
0000
0100
0010
0100
0000
2002
0000
,
0000
0000
3003
0000
,
0001
0010
0001
1000
0100
1000
0001
0100
,
1000
0100
0001
0010
0100
1000
0001
0100
,
0002
0100
0013
0001
,
0100
0000
0010
1000
0000
0001
0100
0000
,
0001
0000
1000
0010
0000
0100
0001
0000
,
1000
0000
0100
0010
0000
0001
1000
0000
,
0020
0000
0030
1100
,
0101
2002
0000
3003
,
1000
0100
1000
0001
0010
0001
1000
0010
,
0001
0010
1000
0100
0010
0001
1000
0010
,
1000
0000
0001
0020
0000
0000
0130
0000
,
1000
0000
0001
0020
0000
0000
0130
0000
,
1000
0000
0001
0020
0000
0000
0130
0000
,
1000
0010
1000
0001
0100
0001
0010
0100
,
1000
0100
0010
0002
0000
0000
0103
0000
,
1000
0100
0010
0002
0000
0000
0103
0000
,
1000
0100
0010
0002
0000
0000
0103
0000
,
0001
0100
0001
1000
0010
1000
0001
0110
,
0000
0000
0000
0000
,
0000
0000
0000
0000
;

//---------------dance-single - ----------------
#NOTES:
     dance-single:
     :
     Hard:
     12:
     1.000,1.000,0.690,0.613,0.642:
0000
0000
0000
0000
,
1001
0000
0001
0200
0000
0000
0310
0000
,
1001
0000
1000
0200
0000
0000
0310
0000
,
1001
0000
0001
0200
0000
0000
0310
0000
,
1000
0010
1000
0000
0001
0000
0100
0000
0001
0000
0010
0000
0100
1000
0001
0000
,
1001
0000
1000
0020
0000
0000
0130
0000
,
1001
0000
0001
0020
0000
0000
0130
0000
,
1001
0000
1000
0020
0000
0000
0130
0000
,
0001
0100
0001
0000
1000
0000
0010
0000
1000
0000
0100
0000
0010
0001
1000
0000
,
0001
0010
0100
2000
0000
0000
3010
0000
,
0001
0100
0010
2000
0000
0000
3100
0000
,
0001
0010
0100
2000
0000
0000
3001
0000
,
1010
0010
0100
0101
0001
0010
0100
1000
,
1000
0100
0010
0002
0000
0000
0103
0000
,
1000
0010
0100
0002
0000
0000
0013
0000
,
1000
0100
0010
0002
0000
0000
1003
0000
,
0101
0100
0010
1010
1000
0100
0010
0001
,
1000
0100
1000
0010
0100
0001
1000
0010
,
1000
0001
1000
0001
1000
0000
0100
0000
0010
0000
0001
0000
1000
0000
1001
0000
,
0000
0011
0000
1100
0000
1000
0010
0100
,
0001
1000
0001
1000
0001
0000
0010
0000
0100
0000
1000
0000
0001
0000
1001
0000
,
0000
0000
2000
3000
0020
0030
0020
0030
0200
0300
0200
0300
0002
0003
0001
0000
,
1000
0100
1000
0100
0010
0000
0001
0000
1000
0000
0100
0000
0010
0000
0011
0000
,
0000
0000
1100
0000
0000
0000
0011
0000
0000
0000
1000
0000
0001
0100
0001
0100
,
0010
1000
0100
1100
0000
0011
0000
1100
,
0000
0000
0002
0003
0002
0003
0002
0003
0200
0000
0000
0000
0320
0030
0000
0000
,
0001
1000
0001
1000
0001
0000
0010
0000
0100
0000
1000
0000
0001
0000
0101
0000
,
0000
1100
0000
0011
0000
0001
0100
0010
,
1000
0001
1000
0001
1000
0000
0100
0000
0010
0000
0001
0000
1000
0000
1001
0000
,
0000
0000
0002
0003
0200
0300
0200
0300
0020
0030
0020
0030
2000
3000
1000
0000
,
0001
0010
0001
0010
0100
0000
1000
0000
0001
0000
0010
0000
0100
0000
1100
0000
,
0000
0000
0101
0000
0000
0000
1100
0000
0000
0000
0001
0000
1000
0010
1000
0010
,
0100
0001
0010
0011
0000
1010
0000
0011
,
0000
0000
2000
3000
2000
3000
2000
3000
0020
0000
0000
0000
0230
0300
0001
0000
,
1000
0000
0000
0000
0000
0000
0010
0000
0000
0000
0000
0000
0100
0000
0000
0000
0000
0000
0001
0000
0000
1000
0000
0000
0000
0000
0100
0000
0000
0000
0000
1000
0000
0000
0000
0000
0100
0000
0000
0000
0000
0000
0010
0000
0000
0000
0000
0000
,
0001
0000
0000
0000
0000
0000
1000
0000
0000
0001
0000
0000
0000
0000
0010
0000
0000
0000
0000
0001
0000
0000
0000
0000
0010
0000
0000
0000
0100
0000
0000
0000
1000
0000
0000
0000
0100
0000
0000
0000
0010
0000
0000
0000
0001
0000
0000
0000
,
1000
0000
0000
0000
0000
0000
0010
0000
0000
0000
0000
0000
0100
0000
0000
0000
0000
0000
0001
0000
0000
1000
0000
0000
0000
0000
0100
0000
0000
0000
0000
1000
0000
0000
0000
0000
0100
0000
0000
0000
0000
0000
0010
0000
0000
0000
0000
0000
,
0001
0000
0000
0000
0000
0000
1000
0000
0000
0001
0000
0000
0000
0000
0010
0000
0000
0000
0000
0001
0000
0000
0000
0000
0010
0000
0000
0000
0100
0000
0000
0000
1000
0000
0000
0000
0100
0000
0000
0000
0010
0000
0000
0000
0001
0000
0000
0000
,
1000
0000
0000
0000
0000
0000
0001
0000
0000
0000
0000
0000
0010
0000
0000
0000
0000
0000
0001
0000
0000
1000
0000
0000
0000
0000
0010
0000
0000
0000
0000
1000
0000
0000
0000
0000
0100
0000
0000
0000
0000
0000
0010
0000
0000
0000
0000
0000
,
0001
0000
0000
0000
0000
0000
1000
0000
0000
0001
0000
0000
0000
0000
0010
0000
0000
0000
0000
0001
0000
0000
0000
0000
1000
0000
0000
0000
0010
0000
0000
0000
1000
0000
0000
0000
0001
0000
0000
0000
0000
0000
0000
0000
0000
0000
0000
0000
,
1001
0000
0000
1100
0000
0000
0101
0000
,
0000
0000
0000
0011
0000
0000
0000
0000
0000
0001
0000
0000
1000
0000
0010
0000
1000
0000
0100
0000
0010
0000
0001
0000
,
1000
0000
0000
0000
0000
0000
0010
0000
0000
0000
0000
0000
0100
0000
0000
0000
0000
0000
0001
0000
0000
1000
0000
0000
0000
0000
0100
0000
0000
0000
0000
1000
0000
0000
0000
0000
0100
0000
0000
0000
0000
0000
0010
0000
0000
0000
0000
0000
,
0001
0000
0000
0000
0000
0000
1000
0000
0000
0001
0000
0000
0000
0000
0010
0000
0000
0000
0000
0001
0000
0000
0000
0000
0010
0000
0000
0000
0100
0000
0000
0000
1000
0000
0000
0000
0100
0000
0000
0000
0010
0000
0000
0000
0001
0000
0000
0000
,
1000
0000
0000
0000
0000
0000
0010
0000
0000
0000
0000
0000
0100
0000
0000
0000
0000
0000
0001
0000
0000
1000
0000
0000
0000
0000
0100
0000
0000
0000
0000
1000
0000
0000
0000
0000
0100
0000
0000
0000
0000
0000
0010
0000
0000
0000
0000
0000
,
0001
0000
0000
0000
0000
0000
1000
0000
0000
0001
0000
0000
0000
0000
0010
0000
0000
0000
0000
0001
0000
0000
0000
0000
0010
0000
0000
0000
0100
0000
0000
0000
1000
0000
0000
0000
0100
0000
0000
0000
0010
0000
0000
0000
0001
0000
0000
0000
,
1000
0000
0000
1010
0000
0000
1001
0000
,
0001
0010
0001
0000
0100
0000
1000
0000
0001
0010
0001
0000
0100
0000
0010
0000
,
1000
0000
0000
1001
0000
0000
0101
0000
,
0001
1000
0010
0000
1000
0000
0001
0010
0001
0000
1000
0000
0010
0000
0100
0000
,
0001
0010
0001
0010
0001
0010
0100
1000
0100
1000
0100
1000
0001
0000
0100
0000
,
0010
1000
0010
0000
0100
0000
0001
0010
0001
0000
0100
0000
0100
0000
1000
0000
,
1001
0000
0000
1001
0000
0000
0100
0000
,
0220
0000
0000
0330
,
1001
0000
0000
0011
0000
0000
1000
0000
,
2002
0000
0000
3003
,
1100
0000
0000
0011
0000
0000
0001
0000
,
2020
0000
0000
3030
,
0001
0100
0001
1000
0010
1000
0001
1000
,
0100
0010
0100
0000
1000
0000
0001
0010
0100
0000
1000
0000
0001
0000
1000
0000
,
1001
0000
0000
1001
0000
0000
0100
0000
,
0220
0000
0000
0330
,
1001
0000
0000
0011
0000
0000
1000
0000
,
2002
0000
0000
3003
,
1100
0000
0000
0011
0000
0000
0001
0000
,
2020
0000
0000
3030
,
1000
0010
1000
0001
0100
0001
1000
0001
,
0010
0100
0010
0000
0001
0000
1000
0100
0010
0000
0001
0000
1000
0000
0001
0000
,
2000
3000
0001
0100
0000
0101
0000
0101
,
0000
1000
0100
1000
0001
0010
0100
1000
,
0002
0003
1000
0010
0000
1010
0000
1010
,
0000
0001
0010
0001
1000
0100
0010
0001
,
2000
3000
0001
0100
0000
0101
0000
0101
,
0000
1000
0100
1000
0001
0010
0100
1000
,
0002
0003
1000
0010
0000
1010
0000
1010
,
0000
0001
0010
0001
0200
0000
0000
0000
,
0301
0010
0100
1000
0010
1000
0001
0010
0100
1000
0010
1000
,
0001
0010
0100
1000
0010
1000
0001
0010
0100
1000
0010
1000
,
0001
0010
0100
1000
0010
1000
0001
0010
0100
1000
0100
0010
,
0002
0000
0000
0000
,
0000
0100
0100
0103
,
0200
0000
0000
0300
,
0001
0010
0100
0010
0001
1000
0010
1000
0010
0100
0010
1000
,
0001
0010
0100
1000
0001
1000
0200
0000
0000
0010
0000
0000
,
0302
0000
0000
1003
,
0010
0000
0100
0001
0000
1000
0010
0000
,
0100
0000
0001
0010
0000
0100
1000
0000
,
0010
0000
1000
0010
0000
1000
0100
0000
,
0010
0000
0001
0100
0000
0001
0010
0000
,
0100
0000
1000
0100
0000
0010
0001
0000
,
1000
0010
1000
0000
0001
0000
0100
0000
0001
0000
0010
0000
0100
1000
0001
0000
,
0010
0000
0001
0010
0100
0000
1000
0000
0001
0000
1000
0100
1000
0000
0001
0000
,
1001
0000
1000
0010
0000
0100
0001
0000
,
1000
0000
0001
0010
0000
0100
1000
0000
,
0001
0000
0010
0100
0000
0010
0001
0000
,
0010
0000
0100
1000
0000
0100
0010
0000
,
0100
0000
1000
0010
0000
1000
0001
0000
,
1000
0000
0001
0100
0000
0001
1000
0000
,
0001
0000
0100
0000
0001
0000
0100
0000
0010
1000
0010
0000
1000
0000
0001
0010
,
0001
0000
1000
0000
0001
0010
0100
0000
1000
0000
0001
0010
0100
0000
1000
0000
,
1001
0000
0010
2000
3000
0000
0200
0300
,
1001
0000
0010
0002
0003
0000
0200
0300
,
1001
0000
0010
2000
3000
0000
0200
0300
,
1000
0010
1000
0000
0001
0000
0100
0000
0001
0000
0010
0000
0100
1000
0001
0000
,
1001
1000
0010
0200
0001
0001
0301
0010
,
0100
1000
0010
0200
0001
0001
0301
0010
,
0100
1000
0010
0200
0001
0001
0301
1000
,
1010
0010
0100
0101
0001
0010
0100
1001
,
0000
0000
0000
0000
,
0000
0000
0000
0000
;

//---------------dance-single - ----------------
#NOTES:
     dance-single:
     :
     Challenge:
     14:
     1.000,1.000,0.709,0.747,0.977:
0000
0000
0000
0000
,
1001
0000
0010
2000
0000
0000
3100
0000
,
1001
0000
0010
0002
0000
0000
0103
0000
,
1001
0000
0010
2000
0000
0000
3100
0000
,
0001
0010
0100
1000
0001
0010
0001
1000
0001
0010
0100
1000
0001
1000
0001
1000
,
0001
0000
0010
0200
0000
0000
1300
0000
,
1010
0000
0010
0200
0000
0000
0301
0000
,
0011
0000
0010
0200
0000
0000
1300
0000
,
1000
0010
0100
0001
1000
0010
1000
0001
1000
0010
0100
0001
1000
0001
1000
0001
,
1000
0100
0010
0002
0100
0100
0103
0000
,
0010
1000
0100
0020
0001
0001
0031
0000
,
1000
0010
0100
0002
1000
1000
1003
0000
,
0001
0010
0001
0000
1000
0000
0010
0100
0010
0000
1000
0000
0001
0010
0100
1000
,
0001
0100
0010
2000
0010
0010
3010
0000
,
0100
0001
0010
0200
1000
1000
1300
0000
,
0001
0100
0010
2000
0001
0001
3001
0000
,
1000
0100
1000
0000
0001
0000
0100
0010
0100
0000
0001
0000
1000
0100
0010
0001
,
2000
3000
0200
0300
2000
3000
0020
0030
0200
0300
0002
0003
0020
0030
0002
0003
,
0010
0100
0010
0100
1000
0001
0100
0000
0010
0000
1000
0000
0001
0000
1001
0000
,
0000
0011
0000
1100
0000
1000
0010
1000
,
0100
0010
0100
0010
0001
1000
0010
0000
0100
0000
0001
0000
1000
0000
1001
0000
,
0000
0000
2000
3000
0020
0030
0020
0030
0200
0300
0200
0300
0002
0003
0001
0000
,
1000
0100
1000
0100
0010
0001
1000
0000
0010
0000
1000
0000
0001
0000
0101
0000
,
0000
0000
1100
0000
0000
0000
0011
0000
0000
0000
0001
0000
1000
0010
1000
0010
,
0100
0001
1000
0000
0010
0000
0110
0000
0000
0000
0011
0000
0000
0000
1100
0000
,
0000
0000
0002
0003
0002
0003
0002
0003
0200
0000
0000
0000
0320
0030
0000
0000
,
1000
0010
0100
0001
1000
0100
1000
0000
0100
0000
0010
0000
0001
0000
1001
0000
,
0000
0110
0000
1001
0000
0001
0100
0001
,
0001
0010
0100
1000
0001
0010
0001
0000
0100
0000
0010
0000
1000
0000
1001
0000
,
0000
0000
0002
0003
0200
0300
0200
0300
0020
0030
0020
0030
2000
3000
2000
3000
,
0001
0100
0001
1000
0010
0100
0001
0000
0100
0000
0001
0000
1000
0000
1100
0000
,
0000
0000
0011
0000
0000
0000
1100
0000
0000
0000
1000
0000
1000
0010
1000
0001
,
0100
0010
1000
0000
0001
0000
0101
0000
0000
0000
1010
0000
0000
0000
0101
0000
,
0000
0000
2000
3000
2000
3000
2000
3000
0020
0030
0200
0300
0002
0003
1000
0000
,
1000
0000
0000
0000
0000
0000
0010
0000
0000
0000
0000
0000
0100
0000
0000
0000
0000
0000
0001
0000
0000
1000
0000
0000
0000
0000
0100
0000
0000
0000
0000
1000
0000
0000
0000
0000
0100
0000
0000
0000
0000
0000
0010
0000
0000
0000
0000
0000
,
0001
0000
0000
0000
0000
0000
1000
0000
0000
0001
0000
0000
0000
0000
0010
0000
0000
0000
0000
0001
0000
0000
0000
0000
0010
0000
0000
0000
0100
0000
0000
0000
1000
0000
0000
0000
0100
0000
0000
0000
0010
0000
0000
0000
0001
0000
0000
0000
,
1000
0000
0000
0000
0000
0000
0010
0000
0000
0000
0000
0000
0100
0000
0000
0000
0000
0000
0001
0000
0000
1000
0000
0000
0000
0000
0100
0000
0000
0000
0000
1000
0000
0000
0000
0000
0100
0000
0000
0000
0000
0000
0010
0000
0000
0000
0000
0000
,
0001
0000
0000
0000
0000
0000
1000
0000
0000
0001
0000
0000
0000
0000
0010
0000
0000
0000
0000
0001
0000
0000
0000
0000
0010
0000
0000
0000
0100
0000
0000
0000
1000
0000
0000
0000
0100
0000
0000
0000
0010
0000
0000
0000
0001
0000
0000
0000
,
1000
0000
0000
0000
0000
0000
0001
0000
0000
0000
0000
0000
0010
0000
0000
0000
0000
0000
0001
0000
0000
1000
0000
0000
0000
0000
0010
0000
0000
0000
0000
1000
0000
0000
0000
0000
0100
0000
0000
0000
0000
0000
0010
0000
0000
0000
0000
0000
,
0001
0000
0000
0000
0000
0000
1000
0000
0000
0001
0000
0000
0000
0000
0010
0000
0000
0000
0000
0001
0000
0000
0000
0000
1000
0000
0000
0000
0010
0000
0000
0000
1000
0000
0000
0000
0100
0000
0000
0000
0010
0000
0000
0000
0001
0000
0000
0000
,
1000
0000
0000
0000
0000
0000
0001
0000
0000
0000
0000
0000
0010
0000
0000
0000
0000
0000
0001
0000
0000
1000
0000
0000
0000
0000
0010
0000
0000
0000
0000
1000
0000
0000
0000
0000
0100
0000
0000
0000
0000
0000
0010
0000
0000
0000
0000
0000
,
0001
0000
0000
0000
0000
0000
1000
0000
0000
0001
0000
0000
0000
0000
0010
0000
0000
0000
0000
0001
0000
0000
0000
0000
1000
0000
0000
0000
0010
0000
0000
0000
1000
0000
0000
0000
0100
0000
0000
0000
0010
0000
0000
0000
0001
0000
0000
0000
,
1000
0000
0000
0000
0000
0000
0010
0000
0000
0000
0000
0000
0100
0000
0000
0000
0000
0000
0001
0000
0000
1000
0000
0000
0000
0000
0100
0000
0000
0000
0000
1000
0000
0000
0000
0000
0100
0000
0000
0000
0000
0000
0010
0000
0000
0000
0000
0000
,
0001
0000
0000
0000
0000
0000
1000
0000
0000
0001
0000
0000
0000
0000
0010
0000
0000
0000
0000
0001
0000
0000
0000
0000
0010
0000
0000
0000
0100
0000
0000
0000
1000
0000
0000
0000
0100
0000
0000
0000
0010
0000
0000
0000
0001
0000
0000
0000
,
1000
0000
0000
0000
0000
0000
0010
0000
0000
0000
0000
0000
0100
0000
0000
0000
0000
0000
0001
0000
0000
1000
0000
0000
0000
0000
0100
0000
0000
0000
0000
1000
0000
0000
0000
0000
0100
0000
0000
0000
0000
0000
0010
0000
0000
0000
0000
0000
,
0001
0000
0000
0000
0000
0000
1000
0000
0000
0001
0000
0000
0000
0000
0010
0000
0000
0000
0000
0001
0000
0000
0000
0000
0010
0000
0000
0000
0100
0000
0000
0000
1000
0000
0000
0000
0100
0000
0000
0000
0010
0000
0000
0000
0001
0000
0000
0000
,
0101
0000
1000
1010
0000
0001
1001
0000
,
1000
0001
0010
0100
1000
0001
0010
0100
1000
0001
0100
0001
0100
0001
0100
0001
,
1001
0000
0001
0101
0000
1000
1001
0000
,
0001
0100
0100
0000
1000
0000
0100
0100
0001
1000
0001
0000
0010
0100
1000
0010
,
0100
0010
1000
0001
0100
0001
0010
0001
1000
0100
0010
0001
2000
3000
2000
3000
,
0001
0010
0001
0000
0001
0000
0001
1000
0010
0000
0100
0010
0100
0000
0100
0000
,
1001
0000
0000
1001
0000
0000
0100
0000
,
0220
0000
0000
0330
,
1001
0000
0000
0011
0000
0000
1000
0000
,
2002
0000
0000
3003
,
1100
0000
0000
0011
0000
0000
0001
0000
,
2020
0000
0000
3030
,
0001
0100
0100
0001
0010
0010
0100
1000
,
0100
1000
0100
0000
0010
0000
0001
0010
0100
0000
1000
0000
0001
0000
0100
0000
,
1001
0000
0000
1001
0000
0000
0100
0000
,
0220
0000
0000
0330
,
1001
0000
0000
0011
0000
0000
1000
0000
,
2002
0000
0000
3003
,
1100
0000
0000
0011
0000
0000
0001
0000
,
2020
0000
0000
3030
,
1000
0010
0010
1000
0100
0100
0010
0001
,
0010
0001
0010
0000
0100
0000
1000
0100
0010
0000
0001
0000
1000
0000
0010
0000
,
1001
0000
0001
0100
0000
0101
0000
1100
,
0000
1000
0100
1000
0001
0010
0100
0001
,
1001
0000
1000
0010
0000
1010
0000
0011
,
0000
0001
0010
0001
1000
0100
0010
1000
,
1001
0000
0010
1010
0000
0110
0000
0101
,
0000
1000
0100
0010
1010
0100
1000
0010
,
0011
0000
0100
0101
0000
0110
0000
1010
,
0000
0001
0010
0100
2000
0000
0000
0000
,
3001
0010
0100
1000
0010
1000
0001
0100
0001
0010
0100
1000
0010
1000
0001
0100
,
0001
0010
0100
1000
0010
1000
0001
0100
0001
0010
0100
1000
0010
1000
0001
0100
,
0001
0010
0100
1000
0010
1000
0001
0100
0001
0010
0100
1000
0010
1000
0001
0100
,
0020
0000
0000
0000
,
0030
0000
0000
0000
0020
0030
0000
0000
0020
0030
0000
0000
0020
0030
0000
0000
,
0010
0002
0000
0000
0000
0000
0000
0000
0000
0000
0000
0000
0000
0000
0000
0000
0000
0000
0003
0000
0000
0000
0000
0000
,
0010
0100
1000
0001
0010
0001
1000
0100
0010
0001
0010
0100
0010
0001
1000
0010
,
0100
0010
1000
0001
0100
0010
2000
0000
0000
0000
0000
0000
3001
0000
0000
0000
,
0200
0010
0301
1000
,
0010
0000
0100
0001
0000
1000
0010
0000
,
0100
0001
0010
0100
,
1000
0000
0001
0010
0000
1000
0100
0000
,
0010
0001
1000
0010
,
0100
0000
0001
0100
0000
0010
1000
0000
,
0001
0010
0100
1000
0001
0010
0001
1000
0001
0010
0100
1000
0001
1000
0001
1000
,
0001
0010
0100
1000
0001
1000
0001
1000
0010
0100
0001
1000
0001
0100
0001
1000
,
0100
0000
1000
0010
0000
0100
0101
0000
,
1000
0000
0001
0010
0000
0100
1100
0000
,
0001
0000
0010
0100
0000
0010
0011
0000
,
0010
0000
0100
1000
0000
0001
0011
0000
,
0100
0000
1000
0010
0000
1000
0101
0000
,
1000
0000
0001
0100
0000
0001
1100
0000
,
0001
0000
0010
0000
0001
0000
1000
0000
0010
1000
0010
0000
0100
0000
0001
0100
,
0001
0000
1000
0000
0100
0010
0100
0000
1000
0000
0001
0010
0100
0000
1000
0000
,
1001
0000
0010
2000
3000
0000
0200
0300
,
1001
0000
0010
0002
0003
0000
0200
0300
,
1001
0000
0010
2000
3000
0000
0200
0300
,
0001
0010
0100
1000
0001
0010
0001
1000
0001
0010
0100
1000
0001
1000
0001
1000
,
0001
1000
0010
0200
0001
0001
0301
0010
,
0100
1000
0010
0200
0001
0001
0301
0010
,
0100
1000
0010
0200
0001
0001
0301
1000
,
0001
0100
0010
1000
0001
0100
0001
1000
0001
0100
0010
1000
0200
0000
2302
0000
,
0000
3003
0000
0000
,
0000
0000
0000
0000
;
