#TITLE:Danger & Danger;
#SUBTITLE:;
#ARTIST:Cranky;
#TITLETRANSLIT:;
#SUBTITLETRANSLIT:;
#ARTISTTRANSLIT:;
#GENRE:;
#CREDIT:;
#MENUCOLOR:;
#METERTYPE:DDR;
#BANNER:[Male Vocalists] - Danger & Danger.png;
#BACKGROUND:[Male Vocalists] - Danger & Danger-bg.png;
#LYRICSPATH:;
#CDTITLE:;
#MUSIC:[Male Vocalists] - Danger & Danger.mp3;
#OFFSET:-0.516;
#SAMPLESTART:80.520;
#SAMPLELENGTH:12.000;
#SELECTABLE:YES;
#LISTSORT:;
#BPMS:0.000=150.000;
#STOPS:;
#BGCHANGES:;
#ATTACKS:;

//---------------dance-single - ----------------
#NOTES:
     dance-single:
     :
     Hard:
     9:
     0.574,0.626,0.575,0.132,0.374: // measure 1
0000
0000
0000
0000
,  // measure 2
0000
0000
0000
0000
,  // measure 3
0000
0000
0000
0000
,  // measure 4
0000
0000
0000
0000
,  // measure 5
0000
0000
0000
0000
,  // measure 6
0000
0000
0000
0000
,  // measure 7
1000
0001
0100
0010
,  // measure 8
0100
0001
0010
0100
,  // measure 9
0010
0001
0100
0001
,  // measure 10
1000
0001
0100
0010
,  // measure 11
1000
0001
0010
0000
0010
0001
1000
0000
,  // measure 12
0001
0100
0010
0000
0010
0100
0001
0000
,  // measure 13
1000
0100
0001
0000
0001
0100
1000
1001
,  // measure 14
0000
0000
0000
0000
,  // measure 15
0110
0000
0100
0000
0000
0010
0000
0000
0100
0000
0000
0001
0000
0000
1000
0000
,  // measure 16
0100
0000
0000
0100
0000
0000
0010
0000
0000
0001
0000
0000
0100
0000
0010
0000
,  // measure 17
0100
0000
0000
0100
0000
0000
0001
0000
0000
0010
0000
0000
0100
0000
1000
0000
,  // measure 18
1100
0000
0000
0000
0101
0000
0000
0001
0000
0100
0010
0000
0100
0000
0001
0000
,  // measure 19
0010
0000
0000
0100
0000
0000
0010
0000
0000
0001
0000
0000
0100
0000
0001
0000
,  // measure 20
0011
0000
0000
0010
0000
0000
0001
0000
0000
1000
0000
0000
0100
0000
1000
0000
,  // measure 21
1100
0000
0000
0100
0000
0000
0010
0000
0000
0100
0000
0000
1000
0000
0100
0000
,  // measure 22
0110
0000
0000
0000
1100
0000
0000
0100
0000
0010
0001
0000
1001
0000
0000
0000
,  // measure 23
1000
0000
0010
0000
0100
0000
0000
0001
0000
0000
0010
0000
0100
0000
0010
0000
,  // measure 24
0110
0000
0000
0010
0000
0000
0011
0000
0001
0000
0001
0000
0000
0000
1000
0000
,  // measure 25
1010
0000
0000
0010
0000
0000
0110
0000
0100
0000
0100
0000
0000
0000
0001
0000
,  // measure 26
1000
1100
0000
0101
0000
1100
0000
0101
,  // measure 27
0100
0000
0000
1000
0000
0000
0010
0000
0000
0100
0000
0000
0001
0000
0010
0000
,  // measure 28
0110
0000
0000
0100
0000
0000
0101
0000
0001
0000
0001
0000
0000
0000
1000
0000
,  // measure 29
1010
0000
0000
0010
0000
0000
0110
0000
0100
0000
0100
0000
0000
0000
0001
0000
,  // measure 30
0011
0000
0000
0000
1001
0000
0000
1000
0000
0010
0100
0000
0001
0000
1000
0000
,  // measure 31
2100
0000
0002
3003
,  // measure 32
0012
0000
2000
3003
,  // measure 33
0220
0000
0000
0330
,  // measure 34
0101
0000
0000
1001
0000
0000
1010
0000
0000
0000
1000
0000
0100
0000
0010
0000
,  // measure 35
0100
0010
0001
0100
0010
1000
0100
1000
,  // measure 36
0010
1000
0100
0010
0001
0010
0100
0010
,  // measure 37
0001
0100
0010
0100
0001
0010
0100
0010
,  // measure 38
0001
0100
0010
0100
0001
1000
0010
1000
,  // measure 39
0010
0110
0000
0101
0000
0011
0000
0110
,  // measure 40
0000
1100
0000
1010
0000
0001
0100
0010
,  // measure 41
0100
0101
0000
1010
0000
1100
0000
1010
,  // measure 42
0000
0101
0000
0011
0000
0100
1000
0100
,  // measure 43
0010
0100
1000
0010
0100
0001
0010
0001
,  // measure 44
0100
0010
1000
0100
0010
0100
1000
0010
,  // measure 45
0100
0001
0010
0100
1000
0100
0010
0100
,  // measure 46
1000
0010
0100
0001
1000
0010
1000
0001
,  // measure 47
0100
0101
0000
0011
0000
1100
0000
1010
,  // measure 48
0000
0110
0000
0101
0000
0010
0100
0001
,  // measure 49
0100
0110
0000
1100
0000
1010
0000
0101
,  // measure 50
0000
0011
0000
1001
0000
0010
0100
0001
,  // measure 51
0101
0000
0000
0100
0010
0000
0000
0010
1000
0000
0000
1000
0100
0000
1000
0000
,  // measure 52
0010
0000
0000
0010
1000
0000
0000
1000
0001
0000
0000
0001
0100
0000
0010
0000
,  // measure 53
0200
0000
0010
0000
0000
0010
0000
0000
0010
0000
0000
0310
0000
1000
0000
0000
,  // measure 54
0200
0000
1000
0000
0000
1000
0000
0000
1000
0000
0000
1300
0000
0001
0000
0000
,  // measure 55
0101
0000
0000
0100
0010
0000
0000
0010
1000
0000
0000
1000
0100
0000
0010
0000
,  // measure 56
0100
0000
0000
0100
0010
0000
0000
0010
0001
0000
0000
0001
0100
0000
0010
0000
,  // measure 57
2000
0000
0010
0000
0000
0010
0000
0000
0010
0000
0000
3010
0000
0100
0000
0000
,  // measure 58
0002
0000
1000
0000
0000
1000
0000
0000
1000
0000
0000
1003
0000
0100
0000
0000
,  // measure 59
0110
0000
0000
0010
0001
0000
0000
1000
0010
0000
0000
1000
0100
0000
0010
0000
,  // measure 60
0100
0000
0000
1000
0010
0000
0000
0100
0001
0000
0000
0010
0001
0000
0100
0000
,  // measure 61
0020
0000
1000
0000
0000
0001
0000
0000
0100
0000
0000
1030
0000
0100
0000
0000
,  // measure 62
0020
0000
0100
0000
0000
1000
0000
0000
0001
0000
0000
0130
0000
0010
0000
0000
,  // measure 63
0011
0000
0000
0001
0100
0000
0000
0010
1000
0000
0000
0100
0010
0000
0100
0000
,  // measure 64
1000
0000
0000
0010
0100
0000
0000
0001
0010
0000
0000
0001
0100
0000
0001
0000
,  // measure 65
0200
0000
0010
0000
0000
1000
0000
0000
0010
0000
0000
0301
0000
1000
0000
0000
,  // measure 66
0001
1000
0000
0001
1000
0000
0001
1000
0000
0000
0000
0000
0000
0000
0000
0000
,  // measure 67
0110
0000
0010
0000
0100
0001
0000
0100
0001
0000
0010
0001
0000
0010
0001
0000
,  // measure 68
0010
0000
0000
0010
0000
0000
0100
0000
0000
0010
0000
0000
0001
0000
0100
0000
,  // measure 69
0010
0000
0000
0010
0000
0000
0100
0000
0000
0001
0000
0000
1000
0000
0001
0000
,  // measure 70
1001
0000
0000
0000
0101
0000
0000
0001
0000
0010
0100
0000
0010
0000
0100
0000
,  // measure 71
1000
0100
0000
1000
0100
0000
0010
0001
0000
0010
0001
0000
0100
0000
0001
0000
,  // measure 72
0011
0000
0000
0001
0000
0000
0100
0000
0000
0010
0000
0000
0100
0000
0001
0000
,  // measure 73
0101
0000
0000
0001
0000
0000
1000
0000
0000
0100
0000
0000
0010
0000
0100
0000
,  // measure 74
0110
0000
0000
0000
0011
0000
0000
0001
0000
0100
0010
0000
1010
0000
0000
0000
,  // measure 75
1001
0000
0001
0000
0010
0100
0000
0010
0001
0000
0100
0010
0000
1000
0100
0000
,  // measure 76
1100
0000
0000
1000
0000
0000
1001
0000
0001
0000
0001
0000
0000
0000
0010
0000
,  // measure 77
0110
0000
0000
0100
0000
0000
1100
0000
1000
0000
1000
0000
0000
0000
0001
0000
,  // measure 78
1000
1100
0000
0101
0000
1100
0000
0101
,  // measure 79
0100
1000
0000
0010
0100
0000
0001
0010
0000
0100
0010
0000
0001
0000
0100
0000
,  // measure 80
0101
0000
0000
0001
0000
0000
1001
0000
1000
0000
1000
0000
0000
0000
0010
0000
,  // measure 81
1010
0000
0000
1000
0000
0000
1100
0000
0100
0000
0100
0000
0000
0000
0010
0000
,  // measure 82
0011
0000
0000
0000
0101
0000
0000
0001
0000
1000
0100
0000
1000
0000
0010
0000
,  // measure 83
2010
0000
0200
3300
,  // measure 84
0102
0000
0020
0033
,  // measure 85
2002
0000
0000
0000
,  // measure 86
0000
0000
0000
0000
,  // measure 87
3003
0000
0000
0000
;

//---------------dance-single - ----------------
#NOTES:
     dance-single:
     :
     Medium:
     6:
     0.440,0.477,0.277,0.083,0.239:
0000
0000
0000
0000
,
0000
0000
0000
0000
,
0000
0000
0000
0000
,
0000
0000
0000
0000
,
0000
0000
0000
0000
,
0000
0000
0000
0000
,
1000
0001
0010
0001
,
0100
0010
1000
0100
,
0010
0100
0010
0001
,
1000
0001
0100
0001
,
1000
0100
1000
0000
0100
0010
0100
0000
,
0010
0001
0010
0000
0001
1000
0001
0000
,
1000
0010
1000
0000
0001
0010
0100
1000
,
0000
0000
0000
0000
,
1000
0000
0010
0000
0000
0100
0000
0000
0001
0000
0000
0010
0000
0000
0100
0000
,
0010
0000
0000
0010
0000
0000
0001
0000
0000
0100
0000
0000
0010
0000
0100
0000
,
0001
0000
0000
0001
0000
0000
1000
0000
0000
0010
0000
0000
1000
0000
0100
0000
,
1000
0000
0000
0000
0001
0000
0000
0100
0000
0000
0010
0000
0100
0000
0000
0000
,
0010
0000
0000
0100
0000
0000
0001
0000
0000
1000
0000
0000
0100
0000
0010
0000
,
0100
0000
0000
0010
0000
0000
0001
0000
0000
0010
0000
0000
0001
0000
0100
0000
,
0001
0000
0000
0100
0000
0000
0010
0000
0000
0100
0000
0000
0001
0000
1000
0000
,
0001
0000
0000
0000
1000
0000
0000
0100
0000
0000
0010
0000
0100
0000
0000
0000
,
0010
0000
0001
0000
0000
0100
0000
0000
0010
0000
0000
0100
0000
0000
0001
0000
,
1000
0000
0000
0001
0000
0000
1000
0000
0100
0000
1000
0000
0000
0000
0001
0000
,
0100
0000
0000
0010
0000
0000
0100
0000
0010
0000
0100
0000
0000
0000
0001
0000
,
1000
0001
0000
0110
0000
1001
0000
0100
,
0010
0000
0000
0100
0000
0000
0001
0000
0000
0010
0000
0000
0100
0000
0010
0000
,
0100
0000
0000
1000
0000
0000
0001
0000
0010
0000
0001
0000
0000
0000
0100
0000
,
0001
0000
0000
0100
0000
0000
0010
0000
0100
0000
0010
0000
0000
0000
1000
0000
,
0100
0000
0000
0000
0010
0000
0000
0100
0000
0000
1000
0000
0001
0000
0000
0000
,
1002
0000
0200
0303
,
2001
0000
0020
3030
,
0220
0000
0000
0330
,
1001
0000
0000
1001
0000
0000
1001
0000
0000
0000
0001
0000
0010
0000
0100
0000
,
1000
0000
0100
0000
1000
0010
0100
0000
,
0010
0000
1000
0000
0001
0010
0001
0000
,
0100
0000
0001
0000
1000
0010
0100
0000
,
0010
0000
1000
0000
0100
1000
0100
0000
,
0000
1010
0000
1001
0000
0101
0000
1001
,
0000
1010
0000
1001
0000
0001
0100
0000
,
0000
0011
0000
0110
0000
1100
0000
0110
,
0000
0011
0000
0110
0000
0100
1000
0000
,
0001
0000
0100
0000
0010
1000
0100
0000
,
1000
0000
0010
0000
0100
0010
1000
0000
,
0001
0000
0010
0000
0001
0100
0001
0000
,
1000
0000
0010
0000
1000
0100
1000
0000
,
0000
0101
0000
0110
0000
1010
0000
0110
,
0000
0101
0000
0110
0000
0010
1000
0000
,
0000
1100
0000
1001
0000
0011
0000
1001
,
0000
1100
0000
1001
0000
0001
0100
0000
,
0110
0000
0010
0000
1000
0000
0100
0010
,
0100
0000
1000
0000
0010
0000
1000
0001
,
0100
0000
0010
0000
0000
0100
0000
0000
0010
0000
0000
0100
0000
0010
0000
0000
,
1000
0000
0001
0000
0000
1000
0000
0000
0001
0000
0000
1000
0000
0001
0000
0000
,
1000
0000
0010
0000
0100
0000
0010
0100
,
0010
0000
1000
0000
0001
0000
0100
0001
,
1000
0000
0100
0000
0000
1000
0000
0000
0100
0000
0000
1000
0000
0100
0000
0000
,
1000
0000
0010
0000
0000
1000
0000
0000
0010
0000
0000
1000
0000
0010
0000
0000
,
0110
0000
0010
0000
1000
0000
0100
1000
,
0001
0000
0010
0000
0001
0000
0100
0010
,
1000
0000
0100
0000
0000
0100
0000
0000
0100
0000
0000
0100
0000
1000
0000
0000
,
0010
0000
0100
0000
0000
0100
0000
0000
0100
0000
0000
0100
0000
0010
0000
0000
,
0100
0000
0001
0000
0100
0000
0010
0100
,
0001
0000
1000
0000
0100
0000
1000
0010
,
0100
0000
0001
0000
0000
0001
0000
0000
0001
0000
0000
0001
0000
0100
0000
0000
,
0010
0000
0000
0010
0000
0000
0010
0000
0000
0000
0000
0000
0000
0000
0000
0000
,
0100
0000
0001
0000
0000
0010
0000
0000
0100
0000
0000
0010
0000
0000
0001
0000
,
0100
0000
0000
0100
0000
0000
0010
0000
0000
0100
0000
0000
0001
0000
1000
0000
,
0100
0000
0000
0100
0000
0000
1000
0000
0000
0010
0000
0000
0100
0000
0001
0000
,
0100
0000
0000
0000
0010
0000
0000
0100
0000
0000
0001
0000
1000
0000
0000
0000
,
0010
0000
0000
0100
0000
0000
0001
0000
0000
0010
0000
0000
0001
0000
1000
0000
,
0001
0000
0000
0001
0000
0000
0100
0000
0000
0010
0000
0000
0100
0000
0001
0000
,
1000
0000
0000
1000
0000
0000
0100
0000
0000
0010
0000
0000
0100
0000
0010
0000
,
0001
0000
0000
0000
0100
0000
0000
0010
0000
0000
1000
0000
1001
0000
0000
0000
,
1000
0000
0010
0000
0000
0100
0000
0000
0001
0000
0000
0010
0000
0000
0100
0000
,
0010
0000
0000
0010
0000
0000
0100
0000
0100
0000
0100
0000
0000
0000
1000
0000
,
0001
0000
0000
0001
0000
0000
1000
0000
1000
0000
1000
0000
0000
0000
0010
0000
,
0100
0010
0000
1010
0000
0101
0000
0001
,
0100
0000
0000
0010
0000
0000
1000
0000
0000
0001
0000
0000
0010
0000
0100
0000
,
0010
0000
0000
0010
0000
0000
0001
0000
0001
0000
0001
0000
0000
0000
1000
0000
,
0100
0000
0000
0100
0000
0000
0010
0000
0010
0000
0010
0000
0000
0000
0001
0000
,
1000
0000
0000
0000
0010
0000
0000
0100
0000
0000
0001
0000
0010
0000
0000
0000
,
0102
0000
2000
3003
,
2010
0000
0002
3003
,
0220
0000
0000
0000
,
0000
0000
0000
0000
,
0330
0000
0000
0000
;

//---------------dance-single - ----------------
#NOTES:
     dance-single:
     :
     Easy:
     4:
     0.323,0.477,0.388,0.132,0.000:
0000
0000
0000
0000
,
0000
0000
0000
0000
,
0000
0000
0000
0000
,
0000
0000
0000
0000
,
0000
0000
0000
0000
,
0000
0000
0000
0000
,
1000
0010
1000
0000
,
0010
0100
0010
0000
,
0100
0001
0100
0000
,
0001
0010
0001
0000
,
1000
0010
0100
0001
,
0010
0100
0010
0001
,
0100
0000
0010
0000
0100
0000
0000
0110
,
0000
0000
0000
0000
,
1000
0010
1000
0001
,
0100
0000
0000
0010
0000
0000
0100
0000
,
0001
0000
0000
0010
0000
0000
0001
0000
,
0100
0010
0100
0000
,
0001
0010
0100
0010
,
0001
0000
0000
0100
0000
0000
0010
0000
,
0100
0000
0000
0001
0000
0000
1000
0000
,
0010
1000
0001
1001
,
1000
0010
0100
0001
,
0010
0000
0000
0100
0000
0000
0010
0000
,
0001
0000
0000
0100
0000
0000
0001
0000
,
0000
1001
0000
1001
0000
1001
0000
1001
,
0000
1000
0010
0100
,
0001
0000
0000
0010
0000
0000
0100
0000
,
0010
0000
0000
0001
0000
0000
0100
0000
,
0010
0100
0001
0000
,
2001
0000
0200
3300
,
1002
0000
0020
0033
,
0220
0000
0000
0330
,
1001
0000
0000
0000
,
0010
0100
0001
0010
,
0100
0010
0001
0100
,
0010
0100
0001
1000
,
0100
1000
0010
0100
,
0000
1100
0000
0011
0000
1100
0000
0011
,
0000
1100
0000
0011
0000
1100
0000
0000
,
0000
1010
0000
0101
0000
1010
0000
0101
,
0000
1010
0000
0101
0000
1010
0000
0000
,
0001
0100
0010
0100
,
0001
0010
0100
1000
,
0010
1000
0001
0100
,
0010
0100
0001
0010
,
0000
0110
0000
1001
0000
0110
0000
1001
,
0000
0110
0000
1001
0000
0110
0000
0000
,
0000
0101
0000
1010
0000
0101
0000
1010
,
0000
0101
0000
1010
0000
0101
0000
0000
,
0110
0100
0001
0010
,
0100
1000
0010
1000
,
0002
0100
0000
0100
,
2003
0010
0000
0010
,
3001
0100
0010
0100
,
0001
1000
0100
0010
,
0200
1000
0000
1000
,
0320
0001
0000
0001
,
0130
0010
0001
0100
,
0010
0100
0001
1000
,
0020
1000
0000
1000
,
0230
0001
0000
0001
,
0310
1000
0100
1000
,
0001
0100
0010
0100
,
0002
0010
0000
0010
,
1003
0000
0000
0000
,
1000
0010
0100
0001
,
0010
0000
0000
0100
0000
0000
0010
0000
,
0001
0000
0000
0100
0000
0000
0010
0000
,
0100
0001
1000
0000
,
0001
0100
0010
0100
,
0001
0000
0000
0010
0000
0000
0100
0000
,
0010
0000
0000
0001
0000
0000
0100
0000
,
0010
0100
0001
0011
,
1100
1000
0010
0100
,
0101
0000
0000
0110
0000
0000
0000
0000
,
1010
0000
0000
0110
0000
0000
0000
0000
,
0000
1001
0000
1001
0000
1001
0000
1001
,
0000
1000
0010
0100
,
0101
0000
0000
0110
0000
0000
0000
0000
,
1010
0000
0000
0110
0000
0000
0000
0000
,
0100
0001
0010
0000
,
2001
0000
0200
3300
,
1002
0000
0020
0033
,
0220
0000
0000
0000
,
0000
0000
0000
0000
,
0330
0000
0000
0000
;

//---------------dance-single - ----------------
#NOTES:
     dance-single:
     :
     Beginner:
     2:
     0.153,0.262,0.152,0.000,0.000:
0000
0000
0000
0000
,
0000
0000
0000
0000
,
0000
0000
0000
0000
,
0000
0000
0000
0000
,
0000
0000
0000
0000
,
0000
0000
0000
0000
,
1000
0000
0000
0000
,
0100
0000
0000
0000
,
0010
0000
0000
0000
,
0001
0000
0000
0000
,
1000
0000
0010
0000
,
0100
0000
0001
0000
,
1000
0000
0100
0000
,
0000
0000
0000
0000
,
1000
0000
0001
0000
,
0100
0000
0000
0000
,
0010
0000
0000
0000
,
0100
0100
0100
0000
,
0010
0000
0100
0000
,
0001
0000
0000
0000
,
1000
0000
0000
0000
,
0001
0001
0001
0000
,
1000
0000
0010
0000
,
0100
0000
0000
0000
,
0001
0000
0000
0000
,
1000
1000
1000
0000
,
0010
0000
0100
0000
,
0001
0000
0000
0000
,
1000
0000
0000
0000
,
0010
0010
0010
0000
,
1001
0000
0100
0000
,
1001
0000
0010
0000
,
0110
0000
0000
0000
,
0100
0000
0000
0000
,
0010
0000
0100
0000
,
0001
0000
1000
0000
,
0100
0000
0010
0000
,
0100
0000
1000
0000
,
0000
1001
0000
0000
0000
1001
0000
0000
,
0000
1001
0000
0000
0000
1001
0000
0000
,
0000
0110
0000
0000
0000
0110
0000
0000
,
0000
0110
0000
0000
0000
0110
0000
0000
,
0001
0000
0100
0000
,
0010
0000
0100
0000
,
0001
0000
1000
0000
,
0010
0000
1000
0000
,
0000
1001
0000
0000
0000
1001
0000
0000
,
0000
1001
0000
0000
0000
1001
0000
0000
,
0000
0110
0000
0000
0000
0110
0000
0000
,
0000
0110
0000
0000
0000
0110
0000
0000
,
0010
0000
0100
0000
,
0001
0000
1000
0000
,
0010
0000
0000
0000
,
0100
0000
0000
0000
,
0001
0000
0010
0000
,
0001
0000
0100
0000
,
0010
0000
0000
0000
,
0100
0000
0000
0000
,
0010
0000
0100
0000
,
0001
0000
0100
0000
,
0010
0000
0000
0000
,
1000
0000
0000
0000
,
0001
0000
0010
0000
,
0100
0000
1000
0000
,
0010
0000
0000
0000
,
0100
0000
0000
0000
,
0010
0000
0100
0000
,
0001
0000
0000
0000
,
1000
0000
0000
0000
,
0010
0010
0010
0000
,
0100
0000
0001
0000
,
0010
0000
0000
0000
,
0100
0000
0000
0000
,
0010
0010
0010
0000
,
0001
0000
0100
0000
,
0010
0000
0000
0000
,
1000
0000
0000
0000
,
0001
0001
0001
0000
,
0100
0000
0010
0000
,
1000
0000
0000
0000
,
0001
0000
0000
0000
,
0100
0100
0100
0000
,
1001
0000
0100
0000
,
1001
0000
0010
0000
,
0110
0000
0000
0000
;
