#TITLE:Cumbia;
#SUBTITLE:;
#ARTIST:Ozomatli;
#TITLETRANSLIT:;
#SUBTITLETRANSLIT:;
#ARTISTTRANSLIT:;
#GENRE:;
#CREDIT:;
#BANNER:;
#BACKGROUND:;
#LYRICSPATH:;
#CDTITLE:;
#MUSIC:Cumbia.ogg;
#OFFSET:-0.100;
#SAMPLESTART:21.884;
#SAMPLELENGTH:12.000;
#SELECTABLE:YES;
#BPMS:0.000=88.100;
#STOPS:;
#BGCHANGES:;
#KEYSOUNDS:;

//---------------dance-single - Africa Human----------------
#NOTES:
     dance-single:
     Africa Human:
     Hard:
     9:
     0.686,0.568,0.311,0.204,0.897:
0000
0000
0000
0000
,
0000
0000
0000
0000
,
1000
0000
0001
1000
0100
0000
1000
0001
0100
0000
0001
1000
0100
0000
1000
0001
,
0010
0000
0001
1000
0010
0000
1000
0001
0010
0000
0001
1000
0020
0000
0000
0000
,
1030
0000
0000
0100
0001
0100
0001
0100
0010
0000
0001
0100
0010
0000
1001
0000
,
0001
0000
0000
0100
1000
0100
1000
0100
0010
0000
1000
0100
0010
0000
1001
0000
,
0001
0000
0000
0010
1000
0010
1000
0010
0100
0000
1000
0010
0100
0000
1001
0000
,
1000
0000
0000
0010
0001
0010
0001
0010
0100
0000
0001
0010
0200
0000
0000
0300
,
1000
0100
1000
0010
0100
0001
0010
0001
0100
0010
1000
0100
2000
0000
3001
0000
,
0001
0010
0001
0100
0010
1000
0100
1000
0010
0100
0001
0010
0004
0000
1003
0000
,
1000
0010
1000
0100
0010
0001
0100
0001
1000
0010
1000
0100
0020
0000
0031
0000
,
0001
0100
0001
0010
0100
1000
0010
1000
0001
0100
0001
0010
0200
0000
1300
0100
,
1000
0000
0001
0100
0010
0000
1000
0001
0010
0000
0110
0000
1100
0000
1001
0000
,
0000
2000
0000
3100
0010
0000
0001
1000
0010
0000
0110
0000
0101
0000
1001
0000
,
0000
0002
0000
0103
0010
1000
0010
0100
0001
0000
0011
0000
0110
0000
1001
0000
,
0000
0000
1000
0000
0100
0000
0010
0000
0001
0000
0010
0000
0100
0000
1000
0000
0010
0000
0100
0001
0100
0000
0010
0000
1000
0000
0000
0000
1010
0000
0000
0000
,
0001
0010
1000
0010
0001
0000
0110
0000
1000
0100
0001
0100
1000
0000
1100
0000
,
1000
0010
0001
0010
1000
0000
0110
0000
0001
0100
1000
0100
0001
0000
0011
0000
,
0100
0000
1000
0000
0110
0000
0011
0000
1000
0001
0000
0100
0101
0000
0110
0000
,
0000
0000
0001
0000
1000
0010
1000
0010
1000
0000
0000
0000
0100
0000
0000
0000
0010
0000
0000
0000
0001
0000
0000
0000
0101
0000
0000
0000
1001
0000
0000
0000
,
0001
0100
0010
1000
0001
1000
0010
0100
0001
0010
0100
1000
0020
0000
1030
0000
,
1000
0100
0010
0001
1000
0001
0010
0100
1000
0010
0100
0001
0040
0000
0031
0000
,
0001
0010
0100
0001
0100
0010
0001
1000
0010
0100
1000
0100
0020
0000
1030
0000
,
1000
0100
0010
1000
0010
0100
1000
0001
0100
0010
0001
0010
0200
0000
0301
1000
,
0001
0000
0000
0000
0000
0000
1000
0000
0000
0100
0000
0000
0010
0000
0000
0000
0000
0000
0001
0000
0000
0100
0000
0000
0020
0000
0000
0000
0000
0000
1030
0000
0000
0100
0000
0000
0010
0000
0001
0000
0010
0000
0001
0000
0000
0000
0000
0000
,
1000
0000
0000
0000
0000
0000
0001
0000
0000
0100
0000
0000
0010
0000
0000
0000
0000
0000
1000
0000
0000
0100
0000
0000
0020
0000
0000
0000
0000
0000
0031
0000
0000
0100
0000
0000
0010
0000
1000
0000
0010
0000
1000
0000
0000
0001
0000
0000
,
0100
0000
0000
0000
0000
0000
0010
0000
0000
1000
0000
0000
0100
0000
0000
0000
0000
0000
0010
0000
0000
0001
0000
0000
0200
0000
0000
0000
0000
0000
0310
0000
0000
1000
0000
0000
0001
0000
0010
0000
0001
0000
0010
0000
0000
0000
0000
0000
,
0100
0000
0000
0000
0000
0000
0000
0000
0000
0000
0000
0000
0000
0000
0000
0000
0000
0000
0000
0000
0000
0000
0000
0000
0010
0000
0000
0000
0000
0000
0000
0000
0000
0000
0000
0000
0001
0000
0000
0000
0000
0000
0000
0000
0000
0000
0000
0000
0100
0000
0000
0000
0000
0000
0000
0000
0000
0000
0000
0000
0000
0000
0000
0000
0000
0000
0000
0000
0000
0000
0000
0000
0010
0000
0000
0000
0000
0000
0000
0000
0000
0000
0000
0000
1000
0000
0000
0000
0000
0000
0000
0000
0000
0000
0000
0000
0100
0000
0000
0000
0000
0000
0000
0000
0000
0000
0000
0000
0010
0000
0000
0000
0000
0000
0001
0000
0000
0000
0000
0000
0010
0000
0000
0000
0000
0000
0000
0000
0000
0000
0000
0000
0001
0000
0000
0000
0000
0000
0000
0000
0000
0000
0000
0000
1000
0000
0000
0000
0000
0000
0000
0000
0010
0000
0000
0000
0000
0000
0000
0000
1000
0000
0000
0000
0000
0000
0000
0000
0010
0000
0000
0000
0000
0000
0000
0000
0000
0000
0000
0000
0100
0000
0000
0000
0000
0000
0000
0000
0000
0000
0000
0000
,
0001
0100
1000
0100
0001
0000
0110
0000
1000
0010
0001
0010
1000
0000
1100
0000
,
1000
0100
0001
0100
1000
0000
0110
0000
0001
0010
1000
0010
0001
0000
0101
0000
,
0001
0000
1000
0000
0110
0000
1010
0000
1000
0001
0000
1000
1100
0000
0110
0000
,
1000
0000
0200
0000
0000
0000
0310
0000
0002
0000
0000
0000
1003
0000
0001
0100
0001
0000
0010
0000
0100
0000
1000
0000
0010
0000
0100
0000
0001
0000
0000
0000
,
00M0
00M0
0M00
0M00
M00M
M00M
M00M
0000
1000
0001
0100
0001
0010
0100
1000
0010
,
0100
0001
0100
0010
0100
0001
0100
0010
1000
0100
0010
0001
0010
0100
1000
0010
,
0100
0010
1000
0100
0010
0001
0100
0001
0020
0000
0000
0000
0230
0000
0000
0000
,
0300
1000
0100
0010
0001
0100
0001
0100
0010
1000
0100
0001
0100
0010
0001
1000
,
0010
0001
0010
0100
0001
0010
0100
1000
0001
0000
0000
0100
1000
0100
1000
0100
,
0010
0000
0000
0000
0000
0000
1000
0000
0000
0100
0000
0000
0010
0000
0001
0000
0010
0000
0001
0000
0000
0000
0000
0000
1000
0000
0000
0000
0000
0000
0000
0000
0000
0100
0000
0000
0001
0000
0000
0100
0000
0000
0001
0000
0000
0100
0000
0000
,
0010
0000
0000
0000
0000
0000
0001
0000
0000
0100
0000
0000
0010
0000
1000
0000
0010
0000
1000
0000
0000
0000
0000
0000
0001
0000
0000
0000
0000
0000
0000
0000
0000
0010
0000
0000
1000
0000
0000
0010
0000
0000
1000
0000
0000
0010
0000
0000
,
0100
0000
0000
0000
0000
0000
0000
0000
0000
0000
0000
0000
0000
0000
0000
0000
0000
0000
0000
0000
0000
0000
0000
0000
1000
0000
0000
0000
0000
0000
0000
0000
0000
0000
0000
0000
0010
0000
0000
0000
0000
0000
0000
0000
0000
0000
0000
0000
0100
0000
0000
0000
0000
0000
0000
0000
0001
0000
0000
0000
0000
0000
0000
0000
0100
0000
0000
0000
0000
0000
0000
0000
0001
0000
0000
0000
0000
0000
0000
0000
0000
0000
0000
0000
0000
0000
0000
0000
0000
0000
0000
0000
0000
0000
0000
0000
1000
0000
0000
0000
0000
0000
0000
0000
0000
0000
0000
0000
0020
0000
0000
0000
0000
0000
0000
0000
0000
0000
0000
0000
0000
0000
0000
0000
0000
0000
0000
0000
0000
0000
0000
0000
0130
0000
0000
0000
0000
0000
0000
0000
0000
0000
0000
0000
0002
0000
0000
0000
0000
0000
0000
0000
0000
0000
0000
0000
0000
0000
0000
0000
0000
0000
0000
0000
0000
0000
0000
0000
1003
0000
0000
0000
0000
0000
0000
0000
0000
0000
0000
0000
0001
0000
0000
0000
0000
0000
0010
0000
0000
0000
0000
0000
,
0001
0100
0010
1000
0100
0010
0001
0000
0110
0000
2002
0000
3003
0110
0000
2002
,
0000
0000
0000
0000
0000
3003
0000
0000
0000
0000
0000
0000
0000
0000
0000
0000
;

//---------------dance-single - TaroNuke----------------
#NOTES:
     dance-single:
     TaroNuke:
     Easy:
     5:
     0.346,0.295,0.080,0.062,0.000:
0000
0000
0000
0000
,
0000
0000
0000
0000
,
1000
0100
1000
0000
0100
0000
0010
0000
,
0001
0100
0001
0000
0100
0000
0010
0000
,
1000
0100
1000
0100
1000
0000
0010
0000
,
0100
0001
0100
0001
0100
0000
1000
0000
,
0100
0010
0100
0010
0100
0000
0001
0000
,
1000
0100
1000
0100
0010
0000
1001
0000
,
1000
0100
0010
0001
0010
0100
1000
0000
,
0001
0100
0010
1000
0010
0100
0001
0000
,
1000
0100
0010
0001
0100
0010
1000
0000
,
0001
0010
0100
1000
0010
0100
0001
0001
,
1000
0100
1000
0100
0010
0010
0010
0000
,
0001
0100
0001
0100
0010
0010
0010
0000
,
1000
0001
1000
0001
0100
0100
0100
0000
,
0001
1000
0010
1000
0001
0010
0100
1000
,
0001
0100
0010
0010
1000
0010
0100
0010
,
1000
0100
0010
0010
0001
0010
0100
0010
,
0001
1000
0010
0100
0001
0100
0010
1000
,
0100
1000
0010
0010
0100
0001
0020
0000
,
0031
0100
0010
1000
0010
0100
0001
0000
,
1000
0100
0010
0001
0010
0100
1000
0000
,
0001
0100
0010
0100
1000
0100
0010
0000
,
1000
0100
0010
0100
0001
0100
0010
0010
,
0001
0100
0001
0100
0010
0010
0010
0000
,
1000
0100
1000
0100
0010
0010
0010
0000
,
0001
1000
0001
1000
0100
0100
0100
0000
,
1000
0001
1000
0001
0100
0100
0100
0010
,
1000
0100
0010
0010
0001
0100
0010
0010
,
1000
0010
0100
0100
0001
0010
0100
0100
,
1000
0001
0010
0010
0001
1000
0100
0100
,
1100
0110
0011
1001
,
0000
0000
0000
0000
1000
0100
0010
0001
,
0010
0100
1000
0010
0100
0010
1000
0010
,
0100
0001
0010
0100
2000
0000
3002
0000
,
0103
0010
0100
0001
0020
0000
0230
0000
,
2300
0000
3000
0000
0001
0100
0001
0100
,
0001
0000
0010
0000
0100
1000
0100
1000
,
0100
0000
0001
0000
0100
0010
0100
0010
,
0100
1000
0101
0110
,
1010
1001
0020
0000
,
0000
0000
0030
0000
;

//---------------dance-single - TaroNuke----------------
#NOTES:
     dance-single:
     TaroNuke:
     Medium:
     7:
     0.450,0.461,0.364,0.080,0.249:
0000
0000
0000
0000
,
0000
0000
0000
0000
,
0000
0000
0000
0000
,
0000
0000
0000
2000
,
3001
0000
0000
0100
0010
1000
0010
1000
0100
0000
0000
0010
0001
0000
0000
0000
,
1000
0000
0000
0100
0010
0001
0010
0001
0100
0000
0000
0010
1000
0000
0000
0000
,
0001
0000
0000
0010
0100
1000
0100
1000
0010
0000
0000
0100
0001
0000
0000
0000
,
1000
0000
0000
0010
0100
0001
0100
0001
0010
0000
0100
0000
1001
0000
0000
0000
,
1000
0100
0001
0010
1000
0100
0010
0000
,
0100
1000
0010
0001
0010
0100
1000
0000
,
0100
0001
0010
1000
0001
0100
1000
0000
,
0001
0100
1000
0010
0001
0100
0010
0000
,
1000
0100
1000
0100
0110
0110
0110
0000
,
0001
0100
0001
0100
0110
0110
0110
0000
,
1000
0001
1000
0001
0101
0101
0101
0000
,
0001
0000
1000
0000
0010
0000
1000
0000
0001
0100
0010
1000
0100
0010
0001
0000
,
1000
0010
0110
1001
0001
0010
0110
1001
,
1000
0100
0110
1001
0001
0100
0110
1001
,
1000
0010
0110
0101
0001
0010
0110
1100
,
1000
0100
0110
0011
1000
0001
0200
0300
,
0001
0100
1000
0010
0001
0100
0010
0000
,
0100
0001
0010
1000
0010
0100
0001
0000
,
0100
1000
0010
0001
1000
0100
0001
0000
,
1000
0100
0001
0010
1000
0100
0010
0000
,
0001
0000
1000
0000
0001
0100
0010
0100
0001
0000
0100
0000
0110
0000
0000
0000
,
1000
0001
0100
0001
1000
0010
0100
0010
1000
0000
0100
0000
0110
0000
0000
0000
,
0001
0010
0100
1000
0010
0000
0100
0001
0010
0000
0100
1000
0010
0000
0110
0000
,
1000
0010
0100
0001
0010
0100
1000
0100
0010
0000
0100
0000
0110
0000
0000
0000
,
1000
0100
0110
1001
0001
0100
0110
1001
,
1000
0010
0110
1001
0001
0010
0110
1001
,
1000
0100
0110
0011
0001
0100
0110
1010
,
1000
0100
0000
0010
0001
0000
0100
0010
0000
1000
0100
0010
0001
0100
0010
0000
,
1000
0100
0001
0010
1000
0100
0010
0001
,
1000
0010
0001
0100
1000
0010
0100
0001
,
1000
0010
0001
0100
2000
0000
3002
0000
,
1003
0010
0001
0100
2000
0000
3020
0000
,
0230
0000
0000
0000
0000
0000
0000
0000
0301
0000
0000
0010
0100
1000
0100
1000
,
0010
0000
0000
0100
0001
0000
0000
0000
1000
0000
0000
0010
0100
0001
0100
0001
,
0010
0000
0000
0100
1000
0000
0000
0000
0001
0000
0000
0100
0010
1000
0010
1000
,
0100
0000
0000
0010
0001
0000
1000
0000
0001
0010
0000
0100
1000
0000
0010
0100
,
0000
0001
0010
0100
1000
0010
0100
0000
2002
0000
0000
0000
0000
0000
0000
0000
,
0000
0000
3003
0000
;
