#TITLE:CHINA GAL;
#SUBTITLE:;
#ARTIST:T. Stebbins;
#TITLETRANSLIT:;
#SUBTITLETRANSLIT:;
#ARTISTTRANSLIT:;
#GENRE:;
#CREDIT:;
#BANNER:[Male Vocalists] - China Gal.png;
#BACKGROUND:[Male Vocalists] - China Gal-bg.png;
#LYRICSPATH:;
#CDTITLE:;
#MUSIC:CHINA GAL.mp3;
#OFFSET:-0.086;
#SAMPLESTART:63.014;
#SAMPLELENGTH:12.000;
#SELECTABLE:YES;
#BPMS:0.000=152.000
;
#STOPS:
;
#BGCHANGES:;
#KEYSOUNDS:;
#ATTACKS:;

//---------------dance-single - ----------------
#NOTES:
     dance-single:
     :
     Hard:
     8:
     0.511,0.465,0.097,0.310,0.218,327.000,10.000,32.000,0.000,0.000,0.000,0.511,0.465,0.097,0.310,0.218,327.000,10.000,32.000,0.000,0.000,0.000: // measure 0
0000
0000
0000
0000
,  // measure 1
0000
0000
0000
0000
,  // measure 2
0000
0000
0000
0000
,  // measure 3
0000
0000
0000
0000
,  // measure 4
0000
0000
0000
0000
,  // measure 5
0000
0000
0000
0000
,  // measure 6
1010
0000
0110
0000
,  // measure 7
0101
0000
0000
0000
0001
0010
0001
0010
,  // measure 8
0001
0000
0000
0000
0010
0000
0100
0000
1000
0000
0000
1000
0000
0000
0010
0000
,  // measure 9
0001
0000
0010
0000
1000
0000
0000
0001
0000
0000
0010
0000
0100
0000
1000
0000
,  // measure 10
0010
0000
0000
0010
0000
0000
0100
0000
0001
0000
0000
0001
0000
0000
0010
0000
,  // measure 11
0000
2000
0000
0000
3200
0000
0301
0000
,  // measure 12
1000
0000
0000
1000
0000
0000
0010
0000
0100
0000
0000
0100
0000
0000
0001
0000
,  // measure 13
0010
0000
1000
0000
0010
0000
0000
0001
0000
0000
0000
0000
0100
0000
0000
0000
,  // measure 14
0010
0000
0000
0010
0000
0000
1000
0000
0100
0000
0000
0100
0000
0000
0001
0000
,  // measure 15
0200
0000
0000
0000
2300
0000
0000
3010
0000
0000
0000
0000
0000
0000
0000
0000
,  // measure 16
1000
0000
0010
0000
0001
0000
0000
0010
0000
0000
0100
0000
0010
0000
1000
0000
,  // measure 17
0010
0000
0000
0001
0000
0000
1000
0000
0100
0000
0010
0000
1000
0000
0100
0000
,  // measure 18
0001
0000
0010
0000
1000
0000
0000
0010
0000
0000
0100
0000
0010
0000
0001
0000
,  // measure 19
0010
0000
0000
1000
0000
0000
0001
0000
0010
0000
0010
0000
0100
0000
0100
0000
,  // measure 20
1000
0000
0100
0000
0001
0000
0000
0100
0000
0000
0010
0000
0100
0000
1000
0000
,  // measure 21
0100
0000
0000
0001
0000
0000
1000
0000
0010
0000
0100
0000
1000
0000
0010
0000
,  // measure 22
0001
0000
0010
0000
1000
0000
0000
0010
0000
0000
0100
0000
0001
0000
0001
0000
,  // measure 23
2002
0000
0000
3003
,  // measure 24
1001
0000
0001
0010
0100
1000
0000
1001
,  // measure 25
0000
0000
1000
0010
0100
0001
0000
0000
,  // measure 26
1000
0000
0001
0200
0000
2300
0000
3020
,  // measure 27
0000
0031
0100
0100
0010
0010
1000
1000
,  // measure 28
0001
0000
1000
0010
0001
0010
0000
1001
,  // measure 29
0000
0000
0001
0100
1000
0200
0000
0301
,  // measure 30
0000
2000
3200
0320
,  // measure 31
0031
0100
1000
0200
0000
0301
0000
0000
,  // measure 32
1001
0000
0001
0100
1000
0001
0010
2000
,  // measure 33
0000
3200
0000
0000
0302
0000
0203
0000
,  // measure 34
2300
0000
0000
0000
0000
3010
1000
0010
,  // measure 35
1000
0000
0000
0000
1001
0000
1000
0100
,  // measure 36
0000
0001
0100
1000
0010
0000
0001
0010
,  // measure 37
0000
1000
0100
0001
0020
0000
1030
0000
,  // measure 38
0001
0001
0010
0010
0100
0100
1000
2000
,  // measure 39
0000
3020
0000
0230
0000
0302
0000
0003
,  // measure 40
1000
0000
0000
0000
0010
0000
0100
0000
0001
0000
0000
0001
0000
0000
0100
0000
,  // measure 41
1000
0000
0100
0000
0001
0000
1000
0001
0000
0000
0010
0000
0100
0000
1000
0000
,  // measure 42
0010
0000
0000
0010
0000
0000
0100
0000
0001
0000
0000
0001
0000
0000
0010
0000
,  // measure 43
0000
2000
0000
0000
3200
0000
0301
0000
,  // measure 44
0020
0000
0000
0000
0230
0000
0000
0000
1300
0000
0000
1000
0000
0000
0010
0000
,  // measure 45
0001
0000
0010
0000
1000
0000
0001
1000
0000
0000
0000
0000
1000
0000
0000
0000
,  // measure 46
0010
0000
0000
0010
0000
0000
0100
0000
0001
0000
0000
0001
0000
0000
0010
0000
,  // measure 47
1000
0010
0001
0100
0010
1000
0100
0010
,  // measure 48
0001
0000
0000
0000
0100
0000
0010
0000
1000
0000
0000
1000
0000
0000
0100
0000
,  // measure 49
0001
0000
0100
0000
1000
0000
0001
1000
0000
0000
0010
0000
0100
0000
0001
0000
,  // measure 50
0010
0000
0000
0010
0000
0000
0100
0000
1000
0000
0000
1000
0000
0000
0010
0000
,  // measure 51
0000
0002
0000
0000
0203
0000
1300
0000
,  // measure 52
0001
0000
0000
0001
0000
0000
0100
0000
1000
0000
0000
1000
0000
0000
0100
0000
,  // measure 53
0001
0000
0010
0000
0100
0000
1000
0001
0000
0000
0000
0000
1000
0000
0000
0000
,  // measure 54
0010
0000
0000
0010
0000
0000
0100
0000
0001
0000
0000
0001
0000
0000
0010
0000
,  // measure 55
1000
0000
0010
0000
0001
0000
1000
0001
0000
0000
0000
0000
0000
0000
0000
0000
,  // measure 56
1000
0000
0100
0000
0010
0000
0000
0100
0000
0000
0001
0000
0100
0000
1000
0000
,  // measure 57
0100
0000
0000
0010
0000
0010
0001
0000
0100
0000
1000
0000
0010
0000
0001
0000
,  // measure 58
1000
0000
0010
0000
0001
0000
0000
1000
0000
0000
0100
0000
0001
0000
0010
0000
,  // measure 59
0100
0000
0000
1000
0000
0001
1000
0000
0001
0000
0100
0000
1000
0000
0010
0000
,  // measure 60
0001
0000
0100
0000
0010
0000
0000
0100
0000
0000
1000
0000
0100
0000
0001
0000
,  // measure 61
0100
0000
0000
0010
0000
0010
1000
0000
0100
0000
0001
0000
0010
0000
1000
0000
,  // measure 62
0001
0000
0010
0000
1000
0000
0000
0001
0000
0000
0100
0000
1000
0000
0001
0000
,  // measure 63
2002
0000
0000
0000
,  // measure 64
3003
0000
0000
0000
;

//---------------dance-single - ----------------
#NOTES:
     dance-single:
     :
     Medium:
     5:
     0.299,0.305,0.184,0.019,0.000,195.000,19.000,2.000,0.000,0.000,0.000,0.299,0.305,0.184,0.019,0.000,195.000,19.000,2.000,0.000,0.000,0.000:
0000
0000
0000
0000
,
0000
0000
0000
0000
,
0000
0000
0000
0000
,
0000
0000
0000
0000
,
0000
0000
0000
0000
,
0000
0000
0000
0000
,
0011
0000
0110
0000
,
1100
0000
0000
0000
,
0001
0000
0010
0000
,
0100
1000
0100
0000
,
1000
0010
1000
0100
,
1000
0000
0010
0100
,
0001
0000
0100
0000
,
0010
1000
0100
0000
,
1100
0000
0011
0000
,
0101
0000
1010
0000
,
0001
0010
0100
1000
,
0100
1000
0100
0000
0010
0001
0010
0000
,
0001
0100
0010
1000
,
0010
1000
0010
0000
0100
0001
0100
0000
,
0001
0010
0100
1000
,
0100
0010
0001
1000
,
0010
0100
0001
0100
,
0020
0000
0000
0000
0000
0000
0000
0030
,
1000
0010
0100
0100
,
0001
0010
0100
0100
,
1000
0100
0001
0100
,
1000
0010
0100
0001
,
0010
0100
1000
1000
,
0010
0100
0001
0001
,
0010
0100
1000
0001
,
1000
0001
1000
0001
0000
1000
0000
0000
,
0010
0100
0001
0100
,
0010
1000
0100
0010
,
0002
0000
0000
0003
0000
1000
0001
1000
,
0001
0000
0000
0000
0000
0000
0000
0001
,
0000
0000
0001
0000
0000
0000
0000
1000
,
0000
1000
0000
0000
,
0001
0010
0100
1000
,
1001
0000
1001
0000
,
0001
0010
0100
1000
,
0010
0010
1000
1000
,
0100
0010
0001
0010
,
0100
1000
1001
1001
,
0001
0100
0010
1000
,
0001
0010
0100
1000
,
1001
0000
0110
0000
,
1001
0000
0110
0000
,
1001
0001
0010
0100
,
1000
1000
0001
0001
,
1000
0000
0001
0000
,
1000
0000
0001
0010
,
0100
0100
1000
0010
,
0100
0100
0001
0010
,
0011
0000
0110
0000
,
1100
0000
0000
0000
,
1000
0100
0010
0001
,
1000
1000
0001
0001
,
0100
0010
1000
0001
,
0010
0100
1000
0001
,
1000
0100
0010
0001
,
0100
0100
0010
0010
,
1000
0000
0100
0000
0010
0000
0001
1000
,
0001
0000
0000
0000
;

//---------------dance-single - ----------------
#NOTES:
     dance-single:
     :
     Easy:
     3:
     0.260,0.367,0.339,0.019,0.000,151.000,35.000,2.000,0.000,0.000,0.000,0.260,0.367,0.339,0.019,0.000,151.000,35.000,2.000,0.000,0.000,0.000:
0000
0000
0000
0000
,
0000
0000
0000
0000
,
0000
0000
0000
0000
,
0000
0000
0000
0000
,
0000
0000
0000
0000
,
0000
0000
0000
0000
,
1000
0000
0001
0000
,
1000
0000
0000
0000
,
0001
0000
0001
0000
,
0001
0000
0001
0000
,
0010
0000
0100
0000
,
1000
0000
0000
0000
,
1000
0000
1000
0000
,
1000
0000
1000
0000
,
0010
0000
0100
0000
,
0001
0000
0000
0000
,
1001
0000
0001
0000
,
1001
0000
0001
0000
,
1001
0000
1000
0000
,
1001
0000
1000
0000
,
1010
0000
0010
0000
,
1010
0000
0010
0000
,
0110
0000
0100
0000
,
0110
0000
0000
0000
,
0100
0001
0010
0001
,
0100
0001
0010
0001
,
0100
0010
1000
0001
,
0010
0100
1000
0000
,
1000
0010
0100
0010
,
1000
0010
0100
0010
,
1000
0100
0010
0001
,
1000
0010
0100
0001
,
0001
0000
0001
0000
,
1000
0000
1000
0000
,
2002
0000
0000
3003
,
1001
0000
0000
0000
,
0001
0000
0001
0000
,
1000
0000
1000
0000
,
0001
1000
0001
1000
,
1001
0000
1001
0000
,
0001
0000
0010
0000
,
0100
1000
0100
0000
,
1000
0000
0010
0000
,
0100
0000
0001
0001
,
1000
0010
0100
0001
,
1000
0100
0010
0001
,
1001
0000
0110
0000
,
1001
0000
0110
0000
,
1000
0000
0010
0000
,
0100
0001
0100
0000
,
1000
0000
0100
0000
,
0010
0000
0001
0000
,
1000
0010
0100
0001
,
1000
0100
0010
0001
,
1001
0000
0110
0000
,
1001
0000
0110
0000
,
1001
1000
1010
1000
,
1001
0001
0101
0001
,
1001
0001
0101
0100
,
0110
0010
1010
1000
,
1001
1000
1100
0100
,
0110
0010
0011
0001
,
1001
1000
1001
0001
,
1001
0000
0000
0000
;
