#TITLE:Beat # No. 4;
#SUBTITLE:;
#ARTIST:HEaDTriP;
#TITLETRANSLIT:;
#SUBTITLETRANSLIT:;
#ARTISTTRANSLIT:;
#GENRE:;
#CREDIT:A. Michaelangelo;
#BANNER:[Male Vocalists] - Beat No. 4.png;
#BACKGROUND:[Male Vocalists] - Beat No. 4-bg.png;
#LYRICSPATH:;
#CDTITLE:sc2013.png;
#MUSIC:[Male Vocalists] - Beat No. 4.ogg;
#OFFSET:-5.950000;
#SAMPLESTART:55.496777;
#SAMPLELENGTH:12.000000;
#SELECTABLE:YES;
#BPMS:0.000000=121.000000
;
#STOPS:
;
#BGCHANGES:;
#KEYSOUNDS:;
#ATTACKS:;

//---------------dance-single - ----------------
#NOTES:
     dance-single:
     :
     Beginner:
     2:
     0.125178,0.142658,0.007124,0.056992,0.000000,114.000000,1.000000,8.000000,0.000000,0.000000,0.000000,0.125178,0.142658,0.007124,0.056992,0.000000,114.000000,1.000000,8.000000,0.000000,0.000000,0.000000:
0020
0000
0000
0000
,
0030
0000
0000
0000
,
0100
0000
0000
0000
,
0010
0000
0000
0000
,
0002
0000
0000
0000
,
0003
0000
0000
0000
,
1000
0000
0000
0000
,
0010
0000
0000
0000
,
2000
0000
0000
3000
,
1000
0000
0001
0000
,
1000
0000
0010
0000
,
1000
0000
0001
0000
,
0100
0000
0001
0000
,
0010
0000
1000
0000
,
0100
0000
0010
0000
,
0001
0000
0100
0000
,
2000
3000
0000
0000
,
0010
0000
0010
0000
,
0100
0000
0100
0000
,
0010
0000
0010
0000
,
0001
0000
1000
0000
,
0100
0000
0100
0000
,
0010
0000
1000
0000
,
0001
0000
0001
0000
,
0010
0000
0010
0000
,
0020
0000
0000
0000
,
0000
0000
0000
0030
,
0010
0000
0100
0000
,
0001
0000
0100
0000
,
0010
0000
1000
0000
,
0001
0000
0000
0000
,
1000
1000
0000
0000
,
0010
0010
0000
0000
,
0001
0001
0000
0000
,
1000
1000
0000
0000
,
0010
0010
0000
0000
,
0100
0100
0000
0000
,
0010
0010
0000
0000
,
1000
1000
0000
0000
,
1000
0000
0000
0000
,
0010
0000
0000
0000
,
0100
0000
0000
0000
,
0010
0000
0000
0000
,
0001
0000
0000
0000
,
0100
0000
0000
0000
,
0001
0000
0000
0000
,
0010
0000
0000
0000
,
1000
0000
1000
0000
,
0010
0000
0010
0000
,
0100
0000
0100
0000
,
0001
0000
0001
0000
,
1000
1000
0000
0000
,
0010
0010
0000
0000
,
1000
1000
0000
0000
,
0001
0001
0000
0000
,
0100
0100
0000
0000
,
0001
0001
0000
0000
,
0100
0100
0000
0000
,
0010
0010
0000
0000
,
1000
1000
0000
0000
,
1000
0000
1000
0000
2000
3000
0000
0000
,
0001
0001
0000
0000
,
0001
0000
0001
0000
0002
0003
0000
0000
,
0100
0100
0000
0000
,
0100
0000
0100
0000
0200
0300
0000
0000
,
0001
0001
0000
0000
,
1000
1000
0000
1001
;

//---------------dance-single - ----------------
#NOTES:
     dance-single:
     :
     Easy:
     4:
     0.246286,0.237763,0.192347,0.227967,0.000000,183.000000,27.000000,32.000000,0.000000,0.000000,0.000000,0.246286,0.237763,0.192347,0.227967,0.000000,183.000000,27.000000,32.000000,0.000000,0.000000,0.000000:
// measure 0
0001
0001
0001
0001
,  // measure 1
0100
0010
1000
0000
,  // measure 2
1000
0001
0100
0000
,  // measure 3
0100
0100
0001
0000
,  // measure 4
0001
0001
0001
0001
,  // measure 5
0100
0010
0100
0000
,  // measure 6
0001
0100
0010
0000
,  // measure 7
1000
0100
1000
0000
,  // measure 8
0001
0001
0001
0001
,  // measure 9
1001
0000
0010
0100
,  // measure 10
1001
0000
1000
0001
,  // measure 11
1001
0000
1000
0100
,  // measure 12
1001
0000
0000
0000
,  // measure 13
1001
0000
0001
0010
,  // measure 14
1001
0000
0100
0001
,  // measure 15
1001
0000
0010
1000
,  // measure 16
1001
0000
0000
0000
,  // measure 17
0002
1000
0103
0000
,  // measure 18
0200
0010
0301
0000
,  // measure 19
2000
0010
3100
0000
,  // measure 20
0020
0001
0031
0000
,  // measure 21
0002
0100
1003
0000
,  // measure 22
0020
1000
0130
0000
,  // measure 23
0200
0010
0301
0000
,  // measure 24
0002
2003
3002
1003
,  // measure 25
0020
0000
0000
0000
,  // measure 26
0000
0000
0000
0030
,  // measure 27
1000
0100
0001
0000
0100
0000
0010
0000
,  // measure 28
0001
0100
0010
0000
1000
0000
0001
0000
,  // measure 29
1000
0001
0100
0000
0010
0000
0100
0000
,  // measure 30
0001
0010
0100
0000
1000
0000
0010
0000
,  // measure 31
2001
0000
3010
0000
,  // measure 32
0102
0000
1003
0000
,  // measure 33
0210
0000
0301
0000
,  // measure 34
2100
0000
3010
0000
,  // measure 35
1002
0000
0013
0000
,  // measure 36
0120
0000
1030
0000
,  // measure 37
1002
0000
0013
0000
,  // measure 38
0210
0000
1300
0000
,  // measure 39
0001
0000
0000
0001
0000
0000
0001
0000
,  // measure 40
0001
0000
0000
0100
0000
0000
0010
0000
,  // measure 41
0010
0000
0000
1000
0000
0000
0100
0000
,  // measure 42
0100
0000
0000
0010
0000
0000
0001
0000
,  // measure 43
1000
0000
0000
0100
,  // measure 44
0010
0010
0000
0000
,  // measure 45
1001
0000
0000
0100
,  // measure 46
0010
0000
0000
0100
0000
0000
0100
0000
,  // measure 47
0010
0001
0100
0000
0100
0000
0001
0000
,  // measure 48
1000
0010
0100
0000
0100
0000
0010
0000
,  // measure 49
0100
0001
0010
0000
0010
0000
0001
0000
,  // measure 50
1000
0001
1000
0000
0010
0000
1000
0000
,  // measure 51
1020
0000
0130
0000
,  // measure 52
0012
0000
0103
0000
,  // measure 53
2010
0000
3010
0000
,  // measure 54
0210
0000
1300
0000
,  // measure 55
2001
0000
3100
0000
,  // measure 56
0120
0000
0031
0000
,  // measure 57
0201
0000
0310
0000
,  // measure 58
1002
0000
0013
0000
,  // measure 59
1000
2000
0000
0000
,  // measure 60
0010
0010
0000
3000
,  // measure 61
0010
0020
0000
0000
,  // measure 62
1000
1000
0000
0030
,  // measure 63
0100
0200
0000
0000
,  // measure 64
0001
0001
0000
0300
,  // measure 65
1001
2002
0000
0000
,  // measure 66
0000
0000
0000
3003
;

//---------------dance-single - ----------------
#NOTES:
     dance-single:
     :
     Medium:
     6:
     0.363323,0.405176,0.199471,0.327703,0.000000,283.000000,28.000000,46.000000,0.000000,0.000000,0.000000,0.363323,0.405176,0.199471,0.327703,0.000000,283.000000,28.000000,46.000000,0.000000,0.000000,0.000000:
// measure 0
0001
0000
0001
0000
,  // measure 1
0001
0000
0001
0000
,  // measure 2
0010
0100
1000
0000
,  // measure 3
0010
0100
0001
0000
,  // measure 4
0100
0001
1000
0000
,  // measure 5
1000
0100
0001
0000
,  // measure 6
0001
0100
0010
0000
,  // measure 7
0010
0001
1000
0000
,  // measure 8
1000
0000
1000
0000
,  // measure 9
1000
0000
1000
0000
,  // measure 10
0010
0100
0010
0000
,  // measure 11
1000
0001
0100
0000
,  // measure 12
0010
0100
0001
0000
,  // measure 13
0001
0010
0100
0000
,  // measure 14
0010
0100
1000
0000
,  // measure 15
1000
0010
0100
0000
,  // measure 16
0001
1000
0001
1000
,  // measure 17
0100
0100
0010
0010
,  // measure 18
1001
0000
0000
0000
,  // measure 19
0000
1000
0001
1000
,  // measure 20
0100
0000
0000
0000
,  // measure 21
0000
0010
0001
0100
,  // measure 22
0010
0000
0000
0000
,  // measure 23
0000
1000
0010
0100
,  // measure 24
0010
0000
0000
0000
,  // measure 25
0000
0000
0110
0000
,  // measure 26
1001
0000
0000
0000
,  // measure 27
0000
1000
0010
0100
,  // measure 28
0001
0000
0000
0000
,  // measure 29
0000
0010
0100
0010
,  // measure 30
1000
0000
0000
0000
,  // measure 31
0000
1000
0001
0010
,  // measure 32
0002
0000
0000
0000
,  // measure 33
0000
0000
0003
0000
,  // measure 34
2000
0000
0000
3000
,  // measure 35
0020
0000
0000
0030
,  // measure 36
0100
0000
0001
0000
,  // measure 37
0010
0000
0001
0000
,  // measure 38
2000
0000
0000
3000
,  // measure 39
0002
0000
0000
0003
,  // measure 40
0100
0000
0010
1000
,  // measure 41
0100
0010
0001
0000
,  // measure 42
0002
0000
0000
0003
,  // measure 43
0200
0000
0000
0300
,  // measure 44
0010
0000
1000
0000
,  // measure 45
0001
0000
0100
0000
,  // measure 46
0020
0000
0000
0030
,  // measure 47
2000
0000
0000
3000
,  // measure 48
0010
0000
1000
0001
,  // measure 49
1000
0001
1000
0001
,  // measure 50
2002
0000
0000
0000
,  // measure 51
0000
0000
0000
0000
,  // measure 52
0000
0000
0000
0000
,  // measure 53
0000
0000
3003
0000
,  // measure 54
0001
1000
0001
0100
,  // measure 55
0001
1000
0101
0011
,  // measure 56
1000
0100
0010
0001
,  // measure 57
1000
0010
0100
0001
,  // measure 58
0010
1000
0010
0001
,  // measure 59
1000
0010
0101
1010
,  // measure 60
1000
0001
0100
0010
,  // measure 61
0100
0010
1000
0001
,  // measure 62
1020
0000
0130
0000
,  // measure 63
2001
0000
3100
0000
,  // measure 64
0120
0000
0031
0000
,  // measure 65
0102
0000
0013
0000
,  // measure 66
1020
0000
0130
0000
,  // measure 67
2010
0000
3100
0000
,  // measure 68
0120
0000
1030
0000
,  // measure 69
0012
0000
1003
0000
,  // measure 70
0002
0003
0100
0010
,  // measure 71
0200
0300
0010
1000
,  // measure 72
0200
0300
0010
0001
,  // measure 73
1000
0001
0010
0100
,  // measure 74
0020
0030
0001
1000
,  // measure 75
0002
0003
0010
0001
,  // measure 76
0200
0300
0010
0100
,  // measure 77
2000
3000
0100
0010
,  // measure 78
1000
0001
1000
0000
0010
0000
0100
0000
,  // measure 79
0010
1000
0010
0000
0100
0000
0001
0000
,  // measure 80
0100
0010
0100
0000
0001
0000
0010
0000
,  // measure 81
0100
1000
0100
0000
0010
0000
0100
0000
,  // measure 82
0010
0001
0100
0010
,  // measure 83
1000
0010
0110
1010
,  // measure 84
0001
0010
0001
1000
,  // measure 85
0010
1000
0001
1000
,  // measure 86
0100
0010
0100
1000
,  // measure 87
0001
0100
0101
1001
,  // measure 88
1000
0010
0100
0001
,  // measure 89
0100
0010
1000
0010
,  // measure 90
1002
0000
0103
0000
,  // measure 91
0120
0000
1030
0000
,  // measure 92
2100
0000
3001
0000
,  // measure 93
0021
0000
0130
0000
,  // measure 94
0210
0000
1300
0000
,  // measure 95
1002
0000
0013
0000
,  // measure 96
1020
0000
0130
0000
,  // measure 97
0210
0000
0301
0000
,  // measure 98
2000
0000
0000
0000
,  // measure 99
3002
0000
0000
0000
,  // measure 100
0203
0000
0000
0000
,  // measure 101
0320
0000
0000
0000
,  // measure 102
2030
0000
0000
0000
,  // measure 103
3020
0000
0000
0000
,  // measure 104
0230
0000
0000
0000
,  // measure 105
0302
0000
0000
0000
,  // measure 106
0103
0000
0000
0000
0010
0100
0001
0000
,  // measure 107
1000
0000
0020
0030
,  // measure 108
0100
0000
0000
0000
0010
0100
0001
0000
,  // measure 109
0010
0000
0200
0300
,  // measure 110
1000
0000
0000
0000
0010
0100
1000
0000
,  // measure 111
0010
0000
2000
3000
,  // measure 112
0001
0000
0000
0000
0100
0010
0100
0000
,  // measure 113
0001
0000
2000
3010
;

//---------------dance-single - ----------------
#NOTES:
     dance-single:
     :
     Hard:
     8:
     0.467129,0.567247,0.277835,0.420315,0.064116,361.000000,39.000000,59.000000,0.000000,0.000000,0.000000,0.467129,0.567247,0.277835,0.420315,0.064116,361.000000,39.000000,59.000000,0.000000,0.000000,0.000000:
// measure 0
0001
0000
0001
0000
,  // measure 1
0001
0000
0001
0000
,  // measure 2
0010
0100
1000
0000
,  // measure 3
0010
0100
0001
0000
,  // measure 4
0100
0001
1000
0000
,  // measure 5
1000
0100
0001
0000
,  // measure 6
0001
0100
0010
0000
,  // measure 7
0010
0001
1000
0000
,  // measure 8
1000
0000
1000
0000
,  // measure 9
1000
0000
1000
0000
,  // measure 10
0010
0000
0100
0001
0100
0000
0000
0000
,  // measure 11
0010
0000
1000
0100
1000
0000
0000
0000
,  // measure 12
0010
0000
0100
0001
1000
0000
0000
0000
,  // measure 13
0001
0000
0010
0001
1000
0000
0000
0000
,  // measure 14
0010
0000
0001
0010
0100
0000
0000
0000
,  // measure 15
0010
0000
0100
0001
0010
0000
0000
0000
,  // measure 16
0002
1003
2000
3001
,  // measure 17
1001
0110
1001
0110
,  // measure 18
1001
0000
0000
0000
,  // measure 19
0000
1000
0001
0100
,  // measure 20
1001
0000
0000
0000
,  // measure 21
0000
0100
0010
1000
,  // measure 22
1100
0000
0000
0000
,  // measure 23
0000
1000
0100
0010
,  // measure 24
0011
0000
0000
0000
,  // measure 25
0000
0000
0011
0000
,  // measure 26
1100
0000
0000
0000
,  // measure 27
0000
0010
0001
0100
,  // measure 28
0110
0000
0000
0000
,  // measure 29
0000
0001
0010
1000
,  // measure 30
0101
0000
0000
0000
,  // measure 31
0000
0100
0010
0100
,  // measure 32
0220
0000
0000
0000
,  // measure 33
0000
0000
0330
0000
,  // measure 34
0020
0000
0000
0000
,  // measure 35
2000
0000
3030
0100
,  // measure 36
0001
0000
1000
0000
,  // measure 37
0100
0010
1001
0000
,  // measure 38
2000
0000
0000
0000
,  // measure 39
0200
0000
3300
1000
,  // measure 40
0100
0010
0001
1000
,  // measure 41
0010
0100
1001
0000
,  // measure 42
0200
0000
0000
0000
,  // measure 43
0020
0000
0330
0010
,  // measure 44
0200
0000
0001
0000
,  // measure 45
1300
0100
1001
0000
,  // measure 46
0002
0000
0000
0000
,  // measure 47
0020
0000
0033
0010
,  // measure 48
0100
0010
0100
0010
,  // measure 49
0100
0000
1001
0000
,  // measure 50
0220
0000
0000
0000
,  // measure 51
0000
0000
0000
0000
,  // measure 52
0000
0000
0000
0000
,  // measure 53
0000
0000
0330
0000
,  // measure 54
0001
0000
0100
0000
0001
0000
0100
0000
0001
0000
0000
0000
0000
0000
0000
0100
,  // measure 55
0000
0001
2000
3000
,  // measure 56
1000
0000
0100
0000
1000
0000
0100
0000
1000
0000
0000
0000
0000
0000
0000
0100
,  // measure 57
0000
2000
3001
0000
,  // measure 58
0010
0000
0100
0000
0010
0000
0100
0000
0010
0000
0000
0000
0000
0000
0000
0100
,  // measure 59
0000
0010
2000
3000
,  // measure 60
0001
0000
1000
0000
0001
0000
1000
0000
0001
0000
0000
0000
0000
0000
0000
1000
,  // measure 61
0000
0002
1003
0000
,  // measure 62
2000
0000
0100
3001
,  // measure 63
0200
0000
0010
0301
,  // measure 64
0002
0000
0010
0103
,  // measure 65
2000
0000
0100
3010
,  // measure 66
0020
0000
0001
0130
,  // measure 67
0200
0000
1000
0301
,  // measure 68
0002
0000
1000
0103
,  // measure 69
2000
0000
0010
3001
,  // measure 70
0002
0000
0003
0000
1000
0010
1000
0000
,  // measure 71
0020
0000
0030
0000
0100
0001
0010
0000
,  // measure 72
0002
0000
0003
0000
0100
0010
1000
0000
,  // measure 73
0200
0000
0300
0000
0010
0001
0010
0000
,  // measure 74
0002
0000
0003
0000
0100
0010
1000
0000
,  // measure 75
0020
0000
0030
0000
0100
0001
0010
0000
,  // measure 76
2000
0000
3000
0000
0010
0001
1000
0000
,  // measure 77
0200
0000
0300
0000
0010
0100
1000
0000
,  // measure 78
1000
0000
0000
0010
0000
0000
0100
0000
0010
0000
0000
1000
0000
0000
0001
0000
,  // measure 79
0100
0000
0000
0010
0000
0000
0100
0000
0001
0000
0000
0010
0000
0000
0100
0000
,  // measure 80
1001
0000
0000
0000
0000
0010
0000
1000
0101
0000
0000
0000
0000
0100
0000
0010
,  // measure 81
1100
0000
0000
0000
0000
1000
0000
0001
0011
0000
0000
0000
0000
0000
0000
0000
,  // measure 82
1000
0000
0100
0000
1000
0000
0100
0000
1000
0000
0000
0000
0000
0000
0000
0010
,  // measure 83
0000
0100
0020
0030
,  // measure 84
0100
0000
0010
0000
0100
0000
0010
0000
0100
0000
0000
0000
0000
0000
0000
0001
,  // measure 85
0000
1000
0020
1030
,  // measure 86
0001
0000
0100
0000
0001
0000
0100
0000
0001
0000
0000
0000
0000
0000
0000
1000
,  // measure 87
0000
0100
2000
3000
,  // measure 88
0001
0000
0010
0000
0001
0000
0010
0000
0001
0000
0000
0000
0000
0000
0000
0001
,  // measure 89
0000
1000
0020
0130
,  // measure 90
1002
0000
1000
0103
,  // measure 91
0201
0000
1000
0310
,  // measure 92
1020
0000
0100
1030
,  // measure 93
2001
0000
0010
3001
,  // measure 94
0210
0000
0010
0301
,  // measure 95
0102
0000
0010
1003
,  // measure 96
2100
0000
0100
3010
,  // measure 97
0120
0000
0001
0130
,  // measure 98
0201
0000
0300
0000
0010
1000
0100
0000
,  // measure 99
0012
0000
0003
0000
0010
0001
1000
0000
,  // measure 100
2010
0000
3000
0000
0010
0100
0001
0000
,  // measure 101
0201
0000
0300
0000
0010
0100
1000
0000
,  // measure 102
2100
0000
3000
0000
0100
0001
0010
0000
,  // measure 103
0012
0000
0003
0000
1000
0100
0010
0000
,  // measure 104
1002
0000
0003
0000
1000
0001
0100
0000
,  // measure 105
1020
0000
0030
0000
0100
0010
0100
0000
,  // measure 106
0010
0000
0010
0000
1000
0100
0001
0000
,  // measure 107
0010
0000
0010
0000
0020
0001
0031
0000
,  // measure 108
1000
0000
1000
0000
0100
0001
0010
0000
,  // measure 109
1000
0000
1000
0000
2000
0010
3010
0000
,  // measure 110
0001
0000
0001
0000
0100
0001
0010
0000
,  // measure 111
0001
0000
0001
0000
0002
0100
0103
0000
,  // measure 112
0100
0000
0100
0000
0010
1000
0100
0000
,  // measure 113
0100
0000
0100
0000
0002
1003
1001
0000
;
