#TITLE:BECAUSE OF YOU;
#SUBTITLE:;
#ARTIST:Jager;
#TITLETRANSLIT:;
#SUBTITLETRANSLIT:;
#ARTISTTRANSLIT:;
#GENRE:;
#CREDIT:;
#BANNER:[Male Vocalists] - Because of You.png;
#BACKGROUND:[Male Vocalists] - Because of You-bg.png;
#LYRICSPATH:;
#CDTITLE:;
#MUSIC:BECAUSE OF YOU [SEB Version] 1.mp3;
#OFFSET:-0.040;
#SAMPLESTART:79.360;
#SAMPLELENGTH:12.000;
#SELECTABLE:YES;
#BPMS:0.000=148.000
;
#STOPS:
;
#BGCHANGES:;
#KEYSOUNDS:;
#ATTACKS:;

//---------------dance-single - ----------------
#NOTES:
     dance-single:
     :
     Hard:
     8:
     0.448,0.546,0.097,0.123,0.185,332.000,11.000,14.000,0.000,0.000,0.000,0.448,0.546,0.097,0.123,0.185,332.000,11.000,14.000,0.000,0.000,0.000: // measure 0
0000
0000
0000
0000
,  // measure 1
0000
0000
0000
0000
,  // measure 2
0000
0000
0000
0000
,  // measure 3
0000
0000
0000
0000
,  // measure 4
0000
0000
0000
0000
,  // measure 5
0000
0000
0000
0000
,  // measure 6
0000
0000
0000
0000
,  // measure 7
0000
0000
0000
0000
,  // measure 8
0000
0000
0000
0000
,  // measure 9
0000
0000
0001
0010
,  // measure 10
0100
1000
0100
0010
,  // measure 11
0001
1001
1000
0010
,  // measure 12
0100
0001
0100
0010
,  // measure 13
1000
1001
0001
0100
,  // measure 14
1000
0001
1000
0100
,  // measure 15
0001
1001
1000
0010
,  // measure 16
0100
0001
1001
0000
,  // measure 17
0000
0000
0000
0000
0000
0000
0000
0000
0001
0000
0000
0010
0000
0000
1000
0000
,  // measure 18
0010
0000
0000
0001
0000
0000
0100
0000
1000
0000
0000
0100
0000
0000
0001
0000
,  // measure 19
0010
0000
0000
0100
0000
0000
0000
0000
1000
0000
0000
0010
0000
0000
0001
0000
,  // measure 20
0010
0000
0000
1000
0000
0000
0100
0000
0001
0000
0000
0100
0000
0000
1000
0000
,  // measure 21
0010
0000
0010
0000
0100
0000
0001
0000
1000
0000
0000
0100
0000
0000
0001
0000
,  // measure 22
0100
0000
0000
1000
0000
0000
0010
0000
0001
0000
0000
0010
0000
0000
1000
0000
,  // measure 23
0100
0000
0000
0010
0000
0000
0000
0000
0001
0000
0000
0100
0000
0000
1000
0000
,  // measure 24
0100
0000
0000
0001
0000
0000
0010
0000
1000
0000
0000
0010
0000
0000
0001
0000
,  // measure 25
0100
0100
0010
1000
0000
0001
0010
0010
,  // measure 26
1000
0010
0001
0000
0000
1000
0010
0100
,  // measure 27
0002
0000
1000
1003
0000
0001
0010
0100
,  // measure 28
1000
0010
0001
0000
0000
0010
1000
0200
,  // measure 29
1000
0000
0000
1000
0000
0000
1300
0000
0000
0000
1000
0000
0100
0000
0100
0000
,  // measure 30
0001
0100
1000
0000
0000
0001
0100
0010
,  // measure 31
2000
0000
0001
3001
0000
1000
0010
0100
,  // measure 32
0001
0010
1000
0000
0001
0100
0001
0100
,  // measure 33
1000
0100
1000
0000
1100
0000
0101
0000
,  // measure 34
0001
0010
1000
0000
0001
0100
1000
0100
,  // measure 35
0010
0001
0010
0000
0000
1000
1000
0000
,  // measure 36
0001
1000
0001
0000
1000
0100
0001
0100
,  // measure 37
0010
1000
0010
0000
0101
0000
1100
0000
,  // measure 38
1000
0010
0001
0000
1000
0100
0001
0100
,  // measure 39
0010
1000
0010
0000
0000
0001
0100
0010
,  // measure 40
1000
0010
0100
0001
0000
0000
0000
1000
,  // measure 41
0010
0100
0001
0000
0002
0000
0100
0000
,  // measure 42
1000
0013
2000
0010
,  // measure 43
0001
3100
0020
1000
,  // measure 44
0100
0031
0200
0001
,  // measure 45
0010
0000
1300
0001
0002
0000
0000
0100
,  // measure 46
0203
0000
0000
0010
0320
0000
0000
1000
,  // measure 47
2030
0000
0000
0001
3002
0000
0000
1000
,  // measure 48
2000
0000
3003
0000
1001
0000
0000
0001
,  // measure 49
2000
0000
3001
0000
1001
0000
0001
0100
,  // measure 50
1000
0100
0001
0010
0100
0000
1000
0010
,  // measure 51
0001
0000
0010
0000
1000
0000
0100
0000
0010
0000
0000
0001
0000
0000
1001
0000
,  // measure 52
0000
0000
0000
0000
1000
0100
0010
0100
,  // measure 53
0001
0100
0010
0100
1000
0000
0001
0100
,  // measure 54
1000
0000
1000
0100
0001
0010
0100
1000
,  // measure 55
0001
0100
0010
1000
0001
0000
1000
0010
,  // measure 56
0001
0000
0001
0010
1000
0100
0010
0001
,  // measure 57
1000
0000
0010
0000
0100
0000
0001
0000
1000
0000
0001
1000
0000
0001
1000
0000
,  // measure 58
0010
0000
0100
0010
0000
0100
0010
0000
1000
0000
0100
1000
0000
0100
1000
0000
,  // measure 59
0001
0000
1000
0001
0000
0000
0000
0000
0001
0000
1000
0001
0000
1000
0001
0000
,  // measure 60
0100
0000
0010
0100
0000
0010
0100
0000
0001
0000
0010
0001
0000
0010
0001
0000
,  // measure 61
1000
0000
0010
0000
0100
0000
0001
0000
1000
0000
0100
0001
0000
0001
0100
0000
,  // measure 62
1000
0000
0010
0001
0000
0001
0010
0000
1000
0000
0100
0001
0000
0001
0100
0000
,  // measure 63
1000
0000
0001
1000
0000
0000
0000
0000
0001
0000
0010
1000
0000
1000
0010
0000
,  // measure 64
0001
0000
0100
1000
0000
1000
0100
0000
0001
0000
0010
1000
0000
1000
0010
0000
,  // measure 65
0001
0100
0010
1000
0000
0000
0000
0000
;

//---------------dance-single - ----------------
#NOTES:
     dance-single:
     :
     Medium:
     5:
     0.298,0.401,0.316,0.053,0.000,195.000,36.000,6.000,0.000,0.000,0.000,0.298,0.401,0.316,0.053,0.000,195.000,36.000,6.000,0.000,0.000,0.000:
0000
0000
0000
0000
,
0000
0000
0000
0000
,
0000
0000
0000
0000
,
0000
0000
0000
0000
,
0000
0000
0000
0000
,
0000
0000
0000
0000
,
0000
0000
0000
0000
,
0000
0000
0000
0000
,
0000
0000
0000
0000
,
0000
0000
1000
0010
,
0100
0001
0100
0010
,
1000
1001
0001
0010
,
0100
1000
0100
0010
,
0001
1001
0001
0100
,
0010
1000
0010
0100
,
0001
1001
1000
0010
,
0100
0001
1001
0000
,
0000
0000
0001
0100
,
0010
1010
1000
0100
,
0010
0011
0001
0100
,
1000
0100
0001
0010
,
0100
1000
0100
0000
1000
0000
0010
0000
,
0100
0101
0001
0010
,
0100
1100
1000
0100
,
0001
0100
1000
0010
,
0100
0001
0100
0001
0000
0000
0001
0000
,
0010
1000
0000
1000
,
0010
0001
0000
1000
,
0010
0100
0000
0100
,
0010
1000
0000
0001
,
0100
1000
0000
1000
,
0100
0001
0000
1000
,
0010
0100
0101
0011
,
1100
1010
0101
1100
,
1000
0010
0001
0000
1000
0000
0010
0000
,
0100
0001
0000
1000
,
0001
1000
0001
0000
1000
0000
0100
0000
,
0010
0001
0011
1010
,
1000
0100
0001
0000
1000
0000
0010
0000
,
0100
0001
0000
1000
,
0001
1000
0001
0000
1001
0000
0000
0000
,
0000
0000
0002
0100
,
1000
0013
2000
0010
,
0001
3100
0020
1000
,
0100
0031
0200
0001
,
0010
1300
1010
0000
,
1100
0000
0011
0000
,
0101
0000
1001
0000
,
0110
0000
2002
0000
,
0000
3003
1001
0000
,
0001
0100
1000
0000
,
1000
0100
0001
0000
,
0000
0000
1000
0010
,
0100
0001
0101
0000
,
0011
0000
1100
0000
,
1010
0000
1001
0000
,
0110
0000
1001
0000
,
0000
0000
0001
0010
,
0100
1100
1000
0010
,
0100
0101
0001
0010
,
0100
1000
0010
0100
,
0001
1000
0001
0000
1000
0000
0010
0000
,
0100
0101
0001
0010
,
0100
1100
1000
0010
,
0100
0001
0010
0100
,
1000
0001
1000
0000
0000
0000
0000
0000
;

//---------------dance-single - ----------------
#NOTES:
     dance-single:
     :
     Easy:
     3:
     0.217,0.230,0.026,0.000,0.000,170.000,3.000,0.000,0.000,0.000,0.000,0.217,0.230,0.026,0.000,0.000,170.000,3.000,0.000,0.000,0.000,0.000:
0000
0000
0000
0000
,
0000
0000
0000
0000
,
0000
0000
0000
0000
,
0000
0000
0000
0000
,
0000
0000
0000
0000
,
0000
0000
0000
0000
,
0000
0000
0000
0000
,
0000
0000
0000
0000
,
0000
0000
0000
0000
,
0000
0000
0001
0000
,
0001
0000
1000
0000
,
1000
0000
0001
0000
,
0001
0000
1000
0000
,
1000
0000
0001
0000
,
0010
0000
0100
0000
,
1000
0000
0001
0000
,
0100
0000
0010
0000
,
1000
0000
0001
0010
,
0100
1000
1000
0010
,
0100
0001
1000
1000
,
0001
0001
0100
0010
,
1000
0001
0001
0100
,
0010
1000
1000
0100
,
0010
0001
1000
1000
,
0001
0001
0010
0100
,
1000
1001
0000
0001
,
0000
0001
0000
1000
,
0000
1000
0000
0010
,
0000
0010
0000
0100
,
0000
0100
0000
0001
,
0000
0001
0000
0100
,
0000
0100
0000
1000
,
0000
1000
0100
0001
,
0010
0100
1000
1000
,
0001
0001
0010
0100
,
1000
0001
0000
1000
,
0000
0001
1000
0010
,
0100
0001
1000
1000
,
0001
0001
0010
0100
,
1000
0001
0000
1000
,
0010
0100
0001
0000
,
1000
0010
0100
0100
,
0001
0010
0100
0100
,
1000
0010
0001
0001
,
0010
1000
0100
0100
,
0001
0100
1000
0000
,
0010
0000
0100
0000
,
0001
0000
0010
0000
,
0100
0000
1000
0000
,
0000
0000
1001
0000
,
0001
0100
1000
0000
,
1000
0100
0001
0000
,
0000
0000
1000
0010
,
0100
0001
1000
0000
,
0001
0000
1000
0000
,
0001
0000
1000
0000
,
0001
0000
1000
0000
,
0001
0010
0100
0100
,
1000
0010
0100
0100
,
0001
0010
0100
0100
,
1000
0010
0100
0100
,
0001
1000
0001
0001
,
1000
1000
0001
0010
,
0100
1000
1000
1000
,
0010
0010
0100
0100
,
0001
1000
1001
0000
;
