#TITLE:BE;
#SUBTITLE:;
#ARTIST:Song Riders;
#TITLETRANSLIT:;
#SUBTITLETRANSLIT:;
#ARTISTTRANSLIT:;
#GENRE:Anime;
#CREDIT:Frozen_Heat/Azn_Punk_07/GuardianFrozen;
#MENUCOLOR:#e40080;
#METERTYPE:DDR;
#BANNER:[Male Vocalists] - Be.png;
#BACKGROUND:BE-bg.png;
#LYRICSPATH:[Male Vocalists] - Be.lrc;
#CDTITLE:cdtitle.png;
#MUSIC:[Male Vocalists] - Be.mp3;
#OFFSET:-0.024;
#SAMPLESTART:21.940;
#SAMPLELENGTH:21.818;
#SELECTABLE:YES;
#LISTSORT:;
#DISPLAYBPM:88.000:176.000;
#BPMS:0.000=88.000,29.000=176.000,35.000=88.000,43.000=176.000,59.000=88.000,66.000=176.000,210.000=88.000,211.000=176.000;
#STOPS:;
#BGCHANGES:;
#ATTACKS:;

//---------------dance-single - ----------------
#NOTES:
     dance-single:
     :
     Hard:
     7:
     0.449,0.465,0.100,0.064,0.036: // measure 1
0000
0000
0000
0000
,  // measure 2
0000
0000
0000
0000
,  // measure 3
0000
0000
0000
0000
,  // measure 4
0000
0000
0000
0000
,  // measure 5
0002
0000
0000
0000
,  // measure 6
0000
0000
0000
2003
,  // measure 7
3020
0000
0000
0000
0000
0000
0000
0000
0000
0000
0000
0000
0000
0000
0130
0001
,  // measure 8
0200
0000
0000
0000
,  // measure 9
0000
0000
0000
0000
0300
0000
0000
0010
,  // measure 10
0100
0000
0001
0000
0100
0000
0010
0000
1000
0000
0100
0010
0000
0010
0000
0000
,  // measure 11
0000
0000
0001
0000
0100
0000
0001
0010
0000
0010
0000
0010
0100
0000
1000
0000
,  // measure 12
0100
0010
0100
0000
0010
0001
0100
0000
,  // measure 13
0100
0001
0010
0100
1000
0001
1000
0010
,  // measure 14
0100
0010
1000
0000
1000
0100
0010
0000
,  // measure 15
0001
0001
1000
0001
1000
0000
0001
1000
,  // measure 16
0010
0000
0100
0000
0001
0000
0100
0000
0010
0000
1000
0100
0000
0100
0000
0000
,  // measure 17
0000
0010
0100
0010
0001
0001
1000
1000
,  // measure 18
0001
0100
0001
0100
0010
0000
0010
1000
,  // measure 19
0001
1000
0100
0000
0010
0100
1000
0000
,  // measure 20
1000
0001
1000
0001
0100
0000
0100
0001
,  // measure 21
0100
0010
1000
0100
0010
0001
0000
0000
,  // measure 22
1000
0000
0010
0000
0100
0000
0001
0010
,  // measure 23
0000
0001
0100
0000
0010
0000
1000
0100
,  // measure 24
0010
0000
0010
0100
1000
0000
0001
1000
,  // measure 25
0000
0010
0100
0000
0010
0000
0100
0001
,  // measure 26
0010
0000
0100
0000
1000
0000
0010
0100
,  // measure 27
0001
1000
0100
0010
,  // measure 28
0001
0000
0100
0010
0000
0000
0000
0000
,  // measure 29
0000
0000
0110
0000
1000
1000
0001
0001
,  // measure 30
0100
0000
0010
1000
0100
0000
0010
0000
,  // measure 31
0011
0000
0100
1000
0010
0000
1010
0000
,  // measure 32
0100
0000
0001
1000
0100
0000
1000
0001
,  // measure 33
0100
0000
0110
0000
0001
0010
0100
1000
,  // measure 34
0001
0000
0100
0001
0010
0000
0100
0000
,  // measure 35
1100
0000
0100
0010
0001
0000
0100
0001
,  // measure 36
0100
0000
0010
1000
0010
0000
1000
0100
,  // measure 37
1000
0000
0001
0010
0000
0100
1000
0001
,  // measure 38
0100
0100
0101
0010
,  // measure 39
1010
0000
0001
0010
0100
0000
0100
0010
,  // measure 40
0001
0000
1000
0000
0001
1000
0001
0100
,  // measure 41
0010
0000
0010
1000
0100
0000
0010
0001
,  // measure 42
0100
0000
0010
0000
1000
0100
0010
0001
,  // measure 43
1000
0000
1000
0001
0100
0000
0001
1000
,  // measure 44
0200
0000
0020
0330
,  // measure 45
0001
0100
0010
0000
1000
0100
0010
0100
,  // measure 46
1000
1000
1010
0100
,  // measure 47
0101
0000
1000
0100
0010
0000
0010
0100
,  // measure 48
1000
0000
0001
0000
0100
0010
1000
0010
,  // measure 49
0100
0000
0001
0010
1000
0000
1000
0010
,  // measure 50
0001
0000
0100
0000
0010
0000
1000
0001
,  // measure 51
0100
0000
0001
1000
0000
0100
0000
0010
,  // measure 52
0000
0001
1000
0010
,  // measure 53
0100
0000
1001
0010
,  // measure 54
0100
0000
0010
0001
0010
0000
0100
0000
,  // measure 55
1000
0000
0010
1000
0010
0000
0100
0000
,  // measure 56
0001
0000
1000
0000
0100
0010
0000
0000
,  // measure 57
0100
1000
0001
0110
,  // measure 58
1000
0000
0001
0100
0010
0000
1000
0000
,  // measure 59
0100
0000
0010
0100
1000
0000
0001
0000
,  // measure 60
0100
0010
0000
0000
1000
0000
0001
0010
,  // measure 61
0100
0000
1000
1000
0001
0001
0100
0000
,  // measure 62
0010
1000
0001
1000
0100
0000
0010
0000
,  // measure 63
0001
0000
1000
0001
1000
0010
0100
0000
,  // measure 64
0001
0000
0100
0010
0100
0001
0000
0000
,  // measure 65
1000
0100
0010
0001
,  // measure 66
0001
1000
1000
0010
,  // measure 67
0010
0100
0100
0001
,  // measure 68
0100
1000
0010
0001
,  // measure 69
0020
0030
0000
0000
;

//---------------dance-single - ----------------
#NOTES:
     dance-single:
     :
     Medium:
     6:
     0.367,0.403,0.027,0.282,0.005: // measure 1
0000
0000
0000
0000
,  // measure 2
0000
0000
0000
0000
,  // measure 3
0000
0000
0000
0000
,  // measure 4
0000
0000
0000
0000
,  // measure 5
0002
0000
0000
0000
,  // measure 6
0000
0000
0000
2003
,  // measure 7
3200
0000
0000
0000
0000
0000
0000
0000
0000
0000
0000
0000
0000
0000
0310
0001
,  // measure 8
0020
0000
0000
0000
,  // measure 9
0000
0000
0000
0000
0030
0000
0000
0100
,  // measure 10
0010
0000
0100
0100
1000
0001
1000
0001
,  // measure 11
0000
0100
0010
0100
0010
0000
1000
0000
,  // measure 12
0100
0010
0000
0001
,  // measure 13
0100
0000
0010
0100
0010
0000
1000
0000
,  // measure 14
0010
0100
0000
0001
,  // measure 15
0010
0100
0010
0100
1000
0000
0001
0000
,  // measure 16
0100
0000
0010
1000
0010
0100
0001
0000
,  // measure 17
0000
1000
0001
0010
0100
0000
0110
0000
,  // measure 18
0010
0001
0010
0000
0100
0000
1000
0010
,  // measure 19
1000
0000
0100
0000
0010
0001
0100
0000
,  // measure 20
0010
1000
0010
0000
0100
0000
0001
0010
,  // measure 21
0001
0000
0100
0000
0010
1000
0100
0000
,  // measure 22
0020
0000
0032
0000
,  // measure 23
2003
0000
3010
0100
,  // measure 24
0002
0000
2003
0000
,  // measure 25
3200
0000
0310
0001
,  // measure 26
2000
0000
3020
0000
,  // measure 27
0230
0000
0302
0000
,  // measure 28
0023
0000
0000
0000
,  // measure 29
0000
0000
0030
0000
0100
0010
0100
0000
,  // measure 30
0110
0000
0000
0000
0001
0000
1000
0001
,  // measure 31
0000
0000
0100
0000
0010
0000
1000
0200
,  // measure 32
0000
0300
0010
0002
0000
1003
0000
0020
,  // measure 33
0000
0030
0200
0000
0302
0000
1003
0000
,  // measure 34
1010
0000
0010
0000
1000
0000
0001
1000
,  // measure 35
0000
0000
0100
0000
0010
0000
0001
0200
,  // measure 36
0001
0300
0010
2000
0000
3001
0000
0020
,  // measure 37
0000
0030
0200
1000
0300
0000
1000
0001
,  // measure 38
1000
0010
1000
1000
,  // measure 39
0001
0000
0001
0100
0000
0000
0100
0010
,  // measure 40
0000
0000
1000
0100
0010
0000
0010
0100
,  // measure 41
0000
0000
0100
0000
1000
0000
0001
0100
,  // measure 42
0010
0000
0010
0000
1000
0000
1000
0001
,  // measure 43
0000
0000
0001
0000
1000
0000
0001
0010
,  // measure 44
0200
0000
0000
0300
,  // measure 45
1000
0000
1000
0001
0000
0001
0000
1000
,  // measure 46
0000
0000
0001
0000
0100
0000
0100
0001
,  // measure 47
0010
0000
0010
0001
1000
0000
1000
0010
,  // measure 48
0000
0000
0010
0000
0100
0000
0001
1000
,  // measure 49
0100
0000
0100
0010
0001
0000
0001
1000
,  // measure 50
0000
0000
1000
0000
0001
0000
0001
0100
,  // measure 51
0000
0000
0010
1000
0000
1000
0000
0001
,  // measure 52
0000
0010
0100
1000
,  // measure 53
0001
0100
0020
0130
,  // measure 54
0001
0100
0100
0010
,  // measure 55
1000
0100
0100
0010
,  // measure 56
0001
0000
0100
0000
0001
1000
0000
0000
,  // measure 57
0001
1000
0001
1000
,  // measure 58
0100
0010
0010
0001
,  // measure 59
0100
0010
0010
1000
,  // measure 60
0001
0010
0000
0000
0100
0000
0010
0000
,  // measure 61
0001
1000
0010
0200
,  // measure 62
1000
0010
0301
2000
,  // measure 63
0100
0001
3010
0002
,  // measure 64
0010
0100
1003
0020
,  // measure 65
0100
0001
1030
0001
,  // measure 66
0001
1000
1000
0100
,  // measure 67
0100
0010
0010
0001
,  // measure 68
0100
0010
1000
0001
,  // measure 69
0020
0030
0000
0000
;

//---------------dance-single - ----------------
#NOTES:
     dance-single:
     :
     Easy:
     5:
     0.335,0.372,0.036,0.209,0.000: // measure 1
0000
0000
0000
0000
,  // measure 2
0000
0000
0000
0000
,  // measure 3
0000
0000
0000
0000
,  // measure 4
0000
0000
0000
0000
,  // measure 5
0001
0000
0000
0000
,  // measure 6
0000
0000
0000
1000
,  // measure 7
0001
0000
0000
0000
0000
0000
0000
0100
,  // measure 8
0100
0000
0000
0000
,  // measure 9
0000
0000
0000
0010
,  // measure 10
1000
0001
0000
0010
,  // measure 11
0000
0100
0010
0001
,  // measure 12
0001
0100
0100
0010
,  // measure 13
1000
0100
0000
1000
,  // measure 14
1000
0010
0010
0100
,  // measure 15
0001
0010
0100
1000
,  // measure 16
0000
0000
0001
0000
0100
0010
0100
0000
,  // measure 17
0000
0000
0001
1000
0100
0000
0000
0000
,  // measure 18
0110
0010
0001
0100
,  // measure 19
0010
1000
0100
0010
,  // measure 20
1001
1000
0010
0100
,  // measure 21
0001
1000
0010
0100
,  // measure 22
0001
0000
1000
0000
,  // measure 23
0100
0000
0010
0001
,  // measure 24
1000
0000
0010
1000
,  // measure 25
0001
0000
0100
0001
,  // measure 26
1000
0000
0100
0000
,  // measure 27
0010
0000
0001
1000
,  // measure 28
0001
0100
0010
0000
,  // measure 29
0000
1000
0001
1000
,  // measure 30
0200
1000
0310
0001
,  // measure 31
2000
0010
3001
0100
,  // measure 32
0020
0100
2030
0100
,  // measure 33
3002
0010
0203
0010
,  // measure 34
0302
0010
1003
0010
,  // measure 35
0200
0001
0310
1000
,  // measure 36
0002
0010
2003
0010
,  // measure 37
3200
0001
0320
1000
,  // measure 38
0031
0001
1000
1000
,  // measure 39
0010
0100
0001
0010
,  // measure 40
0100
0100
0010
0010
,  // measure 41
0001
1000
0010
0100
,  // measure 42
0010
0010
0100
0100
,  // measure 43
0001
0000
1000
0000
0100
0000
0010
0100
,  // measure 44
0020
0030
0002
0003
,  // measure 45
2000
0000
0002
3003
,  // measure 46
1001
0000
0010
1000
0010
0000
0010
0100
,  // measure 47
0010
1000
0001
1000
,  // measure 48
0100
0000
0010
0001
0010
0000
0010
0100
,  // measure 49
0010
0001
1000
0010
,  // measure 50
0100
0000
0001
0100
0001
0000
1000
0100
,  // measure 51
1000
0001
0100
0010
,  // measure 52
1000
1000
0001
0001
,  // measure 53
0100
0010
0220
0330
,  // measure 54
0001
1000
1000
0100
,  // measure 55
0010
0001
0001
0100
,  // measure 56
0010
1000
0010
0100
,  // measure 57
0001
0010
0001
1000
,  // measure 58
0010
0100
0100
0001
,  // measure 59
1000
0010
0010
1000
,  // measure 60
0001
0010
0100
0010
,  // measure 61
0001
1000
0100
0020
,  // measure 62
0001
0100
0031
0200
,  // measure 63
1000
0010
1300
0002
,  // measure 64
0010
1000
0013
2000
,  // measure 65
0100
0001
3100
0001
,  // measure 66
0001
1000
1000
0010
,  // measure 67
0010
0100
0100
0001
,  // measure 68
1000
0001
1000
0100
,  // measure 69
0020
0030
0000
0000
;

//---------------dance-single - ----------------
#NOTES:
     dance-single:
     :
     Beginner:
     3:
     0.122,0.155,0.018,0.073,0.000:
0000
0000
0000
0000
,
0000
0000
0000
0000
,
0000
0000
0000
0000
,
0000
0000
0000
0000
,
0000
0000
0000
0000
,
0000
0000
0000
0000
,
0000
0000
0000
0000
,
0000
0000
0000
0000
,
0000
0000
0000
0000
,
1000
0000
0000
0001
,
0000
0010
0000
0100
,
0000
0100
0000
0100
,
0000
0000
0000
0010
,
0000
0010
0000
0010
,
0000
0000
0000
0001
,
0000
0000
0000
1000
,
0000
0010
0010
0000
,
0100
0000
0000
0000
,
0001
0000
0000
0000
,
1000
0000
0000
0000
,
0100
0000
0100
0000
,
0100
0000
0000
0000
,
0000
0000
0000
0000
,
0010
0000
0000
0000
,
0000
0000
0000
0000
,
0001
0000
0000
0000
,
1000
0000
0000
0000
,
0010
0000
0000
0000
,
0000
0000
0000
0000
,
2000
0000
3000
0000
,
2000
0000
3000
0000
,
1000
0000
1000
0000
,
1000
0000
1000
0000
,
0002
0000
0003
0000
,
0002
0000
0003
0000
,
0001
0000
0001
0000
,
0001
0000
0001
0000
,
0010
0000
0000
0000
,
0100
0000
0000
0000
,
0010
0000
0100
0000
,
0010
0000
0100
0000
,
1000
0000
0000
0000
,
0001
0000
0000
0000
,
1000
0000
0001
0000
,
1000
0000
0000
0000
,
1001
0000
0010
0000
,
0100
0000
0010
0000
,
0001
0000
0100
0000
,
0010
0000
1000
0000
,
0100
0000
0010
0000
,
0001
0000
1000
0000
,
0010
0000
0100
0000
,
0000
0000
1001
0000
,
0000
0001
0000
0000
,
0000
1000
0000
0000
,
0000
0100
0000
0010
,
0000
0001
0000
1000
,
0000
0010
0000
0000
,
0000
0100
0000
0000
,
0000
0001
0000
1000
,
0000
0100
0000
0010
,
0000
0010
0000
0100
,
0000
0100
0000
1000
,
0000
1000
0000
0001
,
0000
0001
0000
2000
,
0000
3000
0000
0002
,
0000
0003
0000
0200
,
0300
0000
0020
0000
,
0000
0030
0000
0000
;
