#VERSION:0.81;
#TITLE:ALWAYS UP WITH YOU;
#SUBTITLE:;
#ARTIST:ALPHABEAT;
#TITLETRANSLIT:;
#SUBTITLETRANSLIT:;
#ARTISTTRANSLIT:;
#GENRE:;
#ORIGIN:;
#CREDIT:;
#BANNER:Always Up With You-bn.png;
#BACKGROUND:Always Up With You-bg.jpg;
#PREVIEWVID:;
#JACKET:Always Up With You-Jacket.jpg;
#CDIMAGE:;
#DISCIMAGE:;
#LYRICSPATH:;
#CDTITLE:;
#MUSIC:Always Up With You.mp3;
#OFFSET:-0.259000;
#SAMPLESTART:53.202999;
#SAMPLELENGTH:12.000000;
#SELECTABLE:YES;
#BPMS:0.000=128.000;
#STOPS:;
#DELAYS:;
#WARPS:;
#TIMESIGNATURES:0.000=4=4;
#TICKCOUNTS:0.000=4;
#COMBOS:0.000=1;
#SPEEDS:0.000=1.000=0.000=0;
#SCROLLS:0.000=1.000;
#FAKES:;
#LABELS:0.000=Song Start;
#BGCHANGES:;
#KEYSOUNDS:;
#ATTACKS:
;

//---------------dance-single - ----------------
#NOTEDATA:;
#CHARTNAME:;
#STEPSTYPE:dance-single;
#DESCRIPTION:;
#CHARTSTYLE:;
#DIFFICULTY:Hard;
#METER:7;
#RADARVALUES:0.431573,0.401281,0.148200,0.079800,0.125400,245.000000,13.000000,7.000000,0.000000,0.000000,0.000000,0.000000,0.000000,0.431573,0.401281,0.148200,0.079800,0.125400,245.000000,13.000000,7.000000,0.000000,0.000000,0.000000,0.000000,0.000000;
#CREDIT:;
#NOTES:
0000
0000
0000
0000
,
0000
0000
0000
0000
,
0000
0000
0000
0000
,
0000
0000
0000
0000
,
0010
0000
0100
0000
0001
0000
1000
0100
,
0010
0100
1000
0010
0000
0100
0001
0010
,
0000
0000
0100
0000
1000
0000
0000
0000
0001
0000
0000
0100
0000
0000
0010
0000
,
1000
0000
0100
0000
0001
0000
0000
0000
0100
0000
0000
1000
0000
0000
0010
0000
,
0100
0000
0002
0000
0013
0000
0100
0010
,
0002
0000
0000
0000
0103
0000
0000
0000
0010
0000
0000
1000
0000
0000
0100
0000
,
0010
0000
0001
0000
0100
0000
0010
0000
0100
0000
0000
0001
0000
0000
0010
0000
,
0100
0000
0000
1000
0000
0000
0010
0000
0100
0000
0000
0000
1001
0000
0000
0000
,
0100
0000
0000
0000
0010
0000
1000
0000
0100
0000
0000
0010
0000
0000
0100
0000
,
0000
1000
0001
0200
0010
0000
0010
0000
,
0310
0000
0000
0000
0100
0000
0001
0000
1000
0000
0000
0001
0000
0000
0100
0000
,
0000
0001
0010
0200
0010
0000
0010
0000
,
0310
0000
0000
0000
0001
0000
1000
0000
0010
0000
0000
1000
0000
0000
0100
0000
,
0000
1000
0001
0200
0010
0000
0010
0000
,
0310
0000
0000
0000
1000
0000
0100
0000
1000
0000
0000
0010
0000
0000
0100
0000
,
0000
0001
0010
0200
0010
0000
0310
0000
,
0110
0000
0000
0000
0110
0000
0001
0000
0100
0000
0000
1000
0000
0000
0100
0000
,
0000
0001
0000
0000
1000
0000
0100
0000
0001
0000
0000
0000
1100
0000
0000
0000
,
0101
0000
0000
0000
1000
0000
0010
0000
0001
0000
0000
0010
0000
0000
1000
0000
,
0000
0100
0000
0000
0001
0000
0000
0100
0000
0000
1000
0000
0010
0000
0001
0000
,
0010
0000
0000
0000
0100
0000
0001
0000
0010
0000
0000
1000
0000
0000
0010
0000
,
0000
0001
0000
0000
1000
0000
0100
0000
0001
0000
0000
0000
1010
0000
0000
0000
,
0011
0000
0000
0000
0001
0000
0100
0000
1000
0000
0000
0100
0000
0000
0001
0000
,
0010
0000
0000
1000
0000
0000
0010
0000
0001
0000
1000
0000
0010
0000
0002
0000
,
0000
0003
0110
0000
0001
0010
0100
0010
,
0001
0100
0010
1000
0100
0000
0101
0000
,
0011
0000
1000
0100
0010
0100
1000
0010
,
0100
0010
1000
0100
0010
0001
1000
0010
,
0100
0000
0001
0010
0100
0010
0001
0100
,
0010
1000
0100
0010
0001
0000
1100
0000
,
1010
0000
0100
0001
1000
0100
0010
0100
,
1000
0010
0100
0001
0010
0100
0010
0001
,
0100
0010
1000
0000
0010
1000
0100
0010
,
0001
0100
0010
0000
1000
0100
0010
0001
,
0100
0010
1000
0000
0001
1000
0010
0100
,
0001
0000
0000
0100
0000
0000
1000
0000
0001
0000
0000
0010
0000
0000
1000
0000
,
0001
0100
0010
0000
0100
0001
0010
0100
,
1000
0010
0100
0000
0001
0010
0100
1000
,
0010
0100
0001
0000
1000
0100
0010
0001
,
1000
0000
0000
0100
0000
0000
0001
0000
1000
0000
0000
0010
0000
0000
0001
0000
,
1001
0000
0000
0000
;

//---------------dance-single - ----------------
#NOTEDATA:;
#CHARTNAME:;
#STEPSTYPE:dance-single;
#DESCRIPTION:;
#CHARTSTYLE:;
#DIFFICULTY:Medium;
#METER:6;
#RADARVALUES:0.372944,0.401281,0.444602,0.045600,0.000000,186.000000,39.000000,4.000000,0.000000,0.000000,0.000000,0.000000,0.000000,0.372944,0.401281,0.444602,0.045600,0.000000,186.000000,39.000000,4.000000,0.000000,0.000000,0.000000,0.000000,0.000000;
#CREDIT:;
#NOTES:
0000
0000
0000
0000
,
0000
0000
0000
0000
,
0000
0000
0000
0000
,
0000
0000
0000
0000
,
1000
0000
0100
0000
0001
0000
0100
1000
,
0010
0000
1000
0000
0010
0000
0100
0001
,
0010
1000
0100
0001
,
0010
0100
1000
0000
0010
0000
0001
0000
,
0100
0000
0101
0000
0101
0000
0010
1000
,
0010
0000
1000
0000
0000
0001
0010
0000
,
0000
0100
1000
0010
1000
0000
0000
0001
,
0100
0100
0010
0010
,
1000
0100
0001
0010
,
1000
0100
0001
0010
,
0010
0001
0100
1000
,
0010
0001
0100
0100
,
1000
1000
0100
0100
,
0001
0001
0010
0010
,
0001
0001
0100
0100
,
1002
1003
0210
0310
,
1100
1100
0101
0101
,
1001
0000
1001
0000
0010
1000
0010
0000
,
1001
1001
1010
1010
,
0011
0000
0011
0000
0001
0100
0001
0000
,
1010
1010
0011
0011
,
0110
0000
0110
0000
1000
0010
1000
0000
,
0101
1100
0101
1100
,
0110
0000
0110
0000
0001
0100
0001
0010
,
0000
2001
3100
1002
,
0103
0000
1000
0100
1000
0000
0101
0000
,
0011
0000
1000
0100
1000
0000
0010
1000
,
0010
0000
0100
0001
0100
0000
0001
0010
,
0001
1001
0110
1001
,
0110
0000
1000
0010
1000
0000
1010
0000
,
1100
0000
0100
0010
0100
0000
0010
0001
,
0010
0000
0001
1000
0001
0000
1000
0100
,
1000
0000
1000
0000
0000
0001
0001
0001
,
0010
0000
0010
0000
0000
0100
0100
0100
,
1000
0000
1000
0000
0000
0010
0010
0010
,
0100
0001
0010
1000
,
0100
0000
0100
0000
0000
1000
1000
1000
,
0001
0000
0001
0000
0000
0010
0010
0010
,
0100
0000
0100
0000
0000
1000
1000
1000
,
0010
0001
0100
1000
,
1001
0000
0000
0000
;

//---------------dance-single - ----------------
#NOTEDATA:;
#CHARTNAME:;
#STEPSTYPE:dance-single;
#DESCRIPTION:;
#CHARTSTYLE:;
#DIFFICULTY:Easy;
#METER:3;
#RADARVALUES:0.250801,0.275881,0.068400,0.205201,0.000000,130.000000,6.000000,18.000000,0.000000,0.000000,0.000000,0.000000,0.000000,0.250801,0.275881,0.068400,0.205201,0.000000,130.000000,6.000000,18.000000,0.000000,0.000000,0.000000,0.000000,0.000000;
#CREDIT:;
#NOTES:
0000
0000
0000
0000
,
0000
0000
0000
0000
,
0000
0000
0000
0000
,
0000
0000
0000
0000
,
0001
0000
0100
0000
,
0010
0000
1000
0000
,
0010
1000
0100
0000
,
0100
1000
0010
0100
,
0000
0001
1000
0000
,
1000
0001
0000
1001
,
0000
1000
0010
0000
,
0001
0100
1000
0010
,
2000
0000
0002
3003
,
0200
0000
0020
0330
,
2000
0000
0002
3003
,
0200
0000
0020
0330
,
0002
0000
2000
3003
,
0200
0000
0020
0330
,
0002
0000
2000
3003
,
0200
0010
0010
0310
,
0110
0110
1000
1000
,
0001
0001
0010
1000
,
0100
0001
0010
0010
,
1000
1000
0100
0100
,
0001
0001
0010
0010
,
0100
0100
1000
0010
,
0001
0001
0100
0100
,
1000
1000
0010
0020
,
0030
0210
0310
0210
,
0310
0100
0001
0010
,
1000
0100
0100
1000
,
1000
0010
0010
0001
,
0001
0100
0100
0010
,
0010
1000
0100
0001
,
0010
1000
1000
0100
,
0100
0001
0001
0010
,
1000
1000
0000
0001
,
0001
0001
0000
1000
,
1000
1000
0000
0010
,
0010
0010
0100
0100
,
1000
1000
0000
0010
,
0010
0010
0000
0100
,
0100
0100
0000
0001
,
0001
0001
1000
1000
,
1001
0000
0000
0000
;

//---------------dance-single - ----------------
#NOTEDATA:;
#CHARTNAME:;
#STEPSTYPE:dance-single;
#DESCRIPTION:;
#CHARTSTYLE:;
#DIFFICULTY:Beginner;
#METER:2;
#RADARVALUES:0.166115,0.175561,0.125400,0.114000,0.000000,81.000000,11.000000,10.000000,0.000000,0.000000,0.000000,0.000000,0.000000,0.166115,0.175561,0.125400,0.114000,0.000000,81.000000,11.000000,10.000000,0.000000,0.000000,0.000000,0.000000,0.000000;
#CREDIT:;
#NOTES:
// measure 0
0000
0000
0000
0000
,  // measure 1
0000
0000
0000
0000
,  // measure 2
0000
0000
0000
0000
,  // measure 3
0000
0000
0000
0000
,  // measure 4
1000
0000
1000
0000
,  // measure 5
1000
0000
1000
0000
,  // measure 6
0001
0000
0001
0000
,  // measure 7
0001
0001
0001
0000
,  // measure 8
0010
0000
0010
0000
,  // measure 9
0010
0000
0010
0000
,  // measure 10
0100
0000
0100
0000
,  // measure 11
0100
0100
0100
0000
,  // measure 12
2000
0000
0000
3000
,  // measure 13
0002
0000
0000
0003
,  // measure 14
0020
0000
0000
0030
,  // measure 15
0200
0000
0000
0300
,  // measure 16
2000
0000
0000
3000
,  // measure 17
0002
0000
0000
0003
,  // measure 18
0020
0000
0000
0030
,  // measure 19
0200
0000
0000
0300
,  // measure 20
1001
0000
1001
0000
,  // measure 21
1000
1000
1000
0000
,  // measure 22
1001
0000
1001
0000
,  // measure 23
0001
0001
0001
0000
,  // measure 24
1000
0000
0001
0000
,  // measure 25
1000
0000
0001
0000
,  // measure 26
0100
0000
0010
0000
,  // measure 27
0100
0000
0010
0000
,  // measure 28
0000
0000
1001
0000
,  // measure 29
1000
1000
1000
0000
,  // measure 30
1001
0000
1001
0000
,  // measure 31
0001
0001
0001
0000
,  // measure 32
0110
0000
0110
0000
,  // measure 33
0100
0100
0100
0000
,  // measure 34
0110
0000
0110
0000
,  // measure 35
0010
0010
0010
0000
,  // measure 36
0100
0100
0000
0000
,  // measure 37
0010
0010
0000
0000
,  // measure 38
1000
1000
0000
0000
,  // measure 39
0001
0001
0002
0003
,  // measure 40
0100
0100
0000
0000
,  // measure 41
0010
0010
0000
0000
,  // measure 42
1000
1000
0000
0000
,  // measure 43
0001
0001
0002
0000
,  // measure 44
0003
0000
0000
0000
;
