#TITLE:A Song for the Lovers;
#SUBTITLE:;
#ARTIST:Richard Ashcroft;
#TITLETRANSLIT:;
#SUBTITLETRANSLIT:;
#ARTISTTRANSLIT:;
#CREDIT:;
#BANNER:;
#BACKGROUND:;
#LYRICSPATH:;
#CDTITLE:;
#MUSIC:A Song for the Lovers.mp3;
#OFFSET:-6.240;
#SAMPLESTART:37.380;
#SAMPLELENGTH:12.450;
#SELECTABLE:YES;
#BPMS:0.000=154.140;
#STOPS:;
#BGCHANGES:;

//---------------dance-single - ----------------
#NOTES:
     dance-single:
     :
     Hard:
     6:
     0.401,0.388,0.072,0.177,0.000: // measure 1
0001
0000
1000
0000
0010
0000
0100
0010
,  // measure 2
0000
0100
0010
0000
1000
0000
0001
0000
,  // measure 3
0010
0000
0001
0000
1000
0000
0001
1000
,  // measure 4
0000
0001
1000
0000
0010
0100
0010
0000
,  // measure 5
2002
0000
3000
0000
0103
0000
0001
0100
,  // measure 6
0000
0100
0001
0000
1000
0000
0100
0020
,  // measure 7
0000
0001
0000
1000
0000
0100
0000
0031
,  // measure 8
0000
0001
1000
0000
0001
0000
0100
0000
,  // measure 9
0010
0000
1000
0000
0100
0000
0010
0001
,  // measure 10
0000
1000
0100
0000
1000
0000
0001
0000
,  // measure 11
0202
0000
0003
0000
0010
0000
0000
0020
,  // measure 12
0000
0000
0330
0000
0010
1000
0001
0000
,  // measure 13
1000
0000
0100
0000
0010
0000
0100
1000
,  // measure 14
0000
1000
0001
0000
1000
0000
0010
0200
,  // measure 15
0000
1000
0000
0010
0000
0001
0000
0310
,  // measure 16
0000
0100
0001
0000
1000
0001
1000
0000
,  // measure 17
0001
0000
0010
0000
0100
0000
0001
0100
,  // measure 18
0000
0100
1000
0000
0001
1000
0001
0000
,  // measure 19
1000
0000
0010
0000
0100
0000
0001
1000
,  // measure 20
0000
1000
0001
0000
0001
0010
0100
0000
,  // measure 21
1002
0010
1000
0100
,  // measure 22
1003
0000
0100
0010
0100
0000
0001
0000
,  // measure 23
1000
0000
0100
0000
0001
0000
0100
1000
,  // measure 24
0001
1000
0001
0000
0100
0001
0100
0001
,  // measure 25
1000
0100
0001
0100
,  // measure 26
0010
0000
0001
0000
0100
0010
0100
0010
,  // measure 27
1000
0001
1000
0010
,  // measure 28
0100
0000
0001
0000
0010
0000
0001
0100
,  // measure 29
0020
0001
0100
1000
,  // measure 30
0130
0000
0010
0100
0010
0000
0100
0000
,  // measure 31
0001
0000
1000
0000
0100
0000
0010
0001
,  // measure 32
1000
0100
1000
0000
0001
0100
0001
1000
,  // measure 33
0001
1000
0010
0100
,  // measure 34
0001
0000
0010
0000
0100
0010
0100
1000
,  // measure 35
0001
0000
1000
0010
0100
0000
2002
0000
,  // measure 36
0000
0000
0000
3003
,  // measure 37
0210
0000
1000
0000
0310
0000
1000
0010
,  // measure 38
0100
0000
0001
0010
0100
0000
0010
0001
,  // measure 39
1000
0000
0001
0000
0100
0010
0100
0010
,  // measure 40
0000
1000
0001
0000
1000
0100
1000
0000
,  // measure 41
0020
0000
0001
0000
0130
0000
0100
0010
,  // measure 42
0100
0000
0001
1000
0100
0000
0010
0001
,  // measure 43
0100
0000
0001
0000
1000
0100
0010
0002
,  // measure 44
0000
0000
1003
0001
0100
0000
0110
0000
,  // measure 45
2001
0000
0010
0000
3001
0000
1000
0001
,  // measure 46
0100
0000
0010
0100
0001
0000
1000
0000
,  // measure 47
0100
0000
0010
0000
0100
0000
0010
0001
,  // measure 48
0000
1000
0100
1000
0001
0000
1000
0000
,  // measure 49
0002
0000
0100
0000
0013
0000
0100
0010
,  // measure 50
0001
0100
0010
0100
,  // measure 51
2002
0000
0000
0000
,  // measure 52
0000
0000
0000
3003
,  // measure 53
1000
0000
0010
0000
0100
0000
0001
0200
,  // measure 54
0000
1000
0010
0301
,  // measure 55
1000
0100
0010
0000
0001
0000
1000
0010
,  // measure 56
0000
0100
0001
0000
1000
0001
1000
0000
,  // measure 57
0100
0001
0100
1000
,  // measure 58
0001
0100
0001
0000
1000
0010
1000
0010
,  // measure 59
0100
0000
0001
0000
1000
0100
0000
0010
,  // measure 60
0001
0000
1000
0001
0000
1000
0001
0000
,  // measure 61
1000
0000
0010
0000
0100
0000
0001
0020
,  // measure 62
0000
1000
1000
0000
0100
0000
0031
0000
,  // measure 63
1000
0000
0001
0000
0100
0000
0010
1000
,  // measure 64
0000
0001
0100
0000
0001
1000
0001
0000
,  // measure 65
1000
0100
0001
0100
,  // measure 66
1000
0000
0010
0000
0100
0001
0100
0001
,  // measure 67
1000
0000
0100
0000
0010
0000
0001
0100
,  // measure 68
0000
0010
1000
0100
0000
0010
0100
0000
,  // measure 69
2002
0000
0000
0000
,  // measure 70
3003
0000
0000
0000
;

//---------------dance-single - ----------------
#NOTES:
     dance-single:
     :
     Beginner:
     1:
     0.131,0.164,0.072,0.000,0.000:
1000
0000
0000
0000
,
0000
0000
0000
0000
,
0001
0000
0000
0000
,
1000
0000
0001
0000
,
1001
0000
0000
0000
,
1000
0000
0000
0000
,
0010
0000
0100
0000
,
0010
0000
0100
0000
,
0001
0000
0000
0000
,
1000
0000
0000
0000
,
0100
0000
0000
0000
,
0010
0000
0100
0000
,
0010
0000
0000
0000
,
0001
0000
0000
0000
,
1000
0000
0000
0000
,
0001
0000
0100
0000
,
0001
0000
1000
0000
,
0010
0000
0100
0000
,
0010
0000
0000
0000
,
0100
0000
0000
0000
,
1001
0000
0000
0000
,
1000
0000
0001
0001
,
0001
0000
0000
0000
,
1000
0000
0100
0000
,
1000
0000
0000
0000
,
0001
0000
0000
0000
,
0100
0000
0001
0000
,
0100
0000
0010
0000
,
0110
0000
0000
0000
,
0100
0000
0010
0000
,
1000
0000
0000
0000
,
0001
0000
1000
0000
,
0100
0000
0010
0000
,
0100
0000
0000
0000
,
0010
0000
0001
0000
,
1000
0000
0001
0000
,
1001
0000
0000
1000
,
1000
0000
0001
0000
,
0100
0000
0010
0000
,
0100
0000
0000
0000
,
0110
0000
0000
1000
,
1000
0000
0001
0000
,
1000
0000
0100
0000
,
0010
0000
0000
0000
,
0110
0000
0000
0000
,
0010
0000
0001
0000
,
1000
0000
0001
0000
,
0100
0000
0010
0000
,
0100
0000
0000
0000
,
0010
0000
1000
0000
,
1001
0000
0000
0000
,
0000
0000
0000
0000
,
1001
0000
0000
0000
,
1000
0000
0100
0000
,
1000
0000
0000
0000
,
0001
0000
0100
0000
,
0001
0000
1000
0000
,
0100
0000
0000
0000
,
0010
0000
0100
0000
,
0010
0000
0001
0000
,
1000
0000
0001
0000
,
0100
0000
0010
0000
,
0100
0000
0000
0000
,
0010
0000
1000
0000
,
0010
0000
1000
0000
,
0001
0000
0000
0000
,
1000
0000
0100
0000
,
0010
0000
0001
0000
,
1001
0000
0000
0000
;

//---------------dance-single - ----------------
#NOTES:
     dance-single:
     :
     Easy:
     2:
     0.163,0.221,0.064,0.024,0.000:
1000
0000
0001
0000
,
0100
0000
0010
0010
,
0010
0000
0100
0000
,
0010
0000
1000
0000
,
1001
0000
0000
0000
,
0001
0000
1000
0000
,
0100
0000
0000
0000
,
0010
0000
0100
0000
,
0010
0000
0001
0000
,
1000
0000
0001
0000
,
0100
0000
0000
0000
,
0010
0000
0100
0000
,
1001
0000
0000
0000
,
1000
0000
0100
0000
,
0010
0000
0000
0000
,
0100
0000
1000
0000
,
0001
0000
1000
0000
,
0001
0000
0100
0000
,
0010
0000
0000
0000
,
0100
0000
0000
0000
,
1001
0000
1000
0000
,
0001
0000
0010
0010
,
0010
0000
0001
0000
,
1000
0000
0100
0100
,
0100
0000
0001
0000
,
1000
0000
0100
0000
,
0010
0000
0001
0000
,
1000
0000
0000
0000
,
1001
0000
0001
0000
,
1000
0000
0001
0001
,
0001
0000
0010
0000
,
0100
0000
1000
1000
,
1000
0000
0001
0000
,
0010
0000
0000
0000
,
0100
0000
0010
0000
,
0001
0000
1000
0000
,
1001
0000
0000
0000
,
0001
0000
0001
0000
,
1000
0000
0000
0000
,
0010
0000
0100
0000
,
0001
0000
0000
0000
,
1000
0000
0100
0000
,
1000
0000
0001
0000
,
0100
0100
0010
0010
,
0110
0000
0000
0000
,
0100
0000
0001
0000
,
1000
0000
0000
0000
,
0001
0000
0010
0000
,
0001
0000
1000
0000
,
0100
0000
0010
0000
,
0200
0000
0000
0000
,
0000
0000
0000
0300
,
0110
0000
0010
0000
,
0001
0000
1000
1000
,
1000
0000
0001
0000
,
0100
0000
0010
0010
,
0010
0000
0100
0000
,
0001
0000
1000
0000
,
0100
0000
0010
0000
,
0001
0000
1000
0000
,
0001
0000
0010
0000
,
0100
0000
0010
0010
,
0010
0000
0001
0000
,
0100
0000
0001
0001
,
0001
0000
1000
0000
,
0010
0000
0100
0000
,
0001
0000
1000
0000
,
0100
0000
0010
0000
,
2002
0000
0000
0000
,
3003
0000
0000
0000
;

//---------------dance-single - ----------------
#NOTES:
     dance-single:
     :
     Medium:
     5:
     0.328,0.332,0.056,0.217,0.000:
1000
0000
0001
0000
1000
0000
0000
0001
,
0000
1000
0100
0010
,
0001
0000
0010
0000
0100
0000
0000
0010
,
0000
0100
0010
0001
,
2002
0000
3003
0000
1000
0000
0000
0001
,
0000
0100
0010
1000
,
0100
0000
0010
0000
0100
0000
0000
0010
,
0000
0100
0010
0001
,
1000
0000
0010
0000
0100
0000
0001
0200
,
0000
1300
0100
0001
,
1000
0000
0100
0000
0010
0000
0000
1002
,
0000
0103
0001
1000
,
0100
0000
0010
0000
0100
0000
0010
0001
,
0000
0000
1000
0000
0001
0000
0100
0010
,
0000
0100
0000
0001
0000
1000
0000
0100
,
0000
0010
0001
0000
1000
0000
0001
0000
,
1000
0000
0010
0000
0100
0000
0001
0020
,
0000
0130
1000
0001
,
0200
0000
1000
0000
,
0010
0000
0000
0000
0301
0000
0100
0001
,
0100
0000
0001
1000
,
0100
0000
0010
0000
0100
0000
1000
0001
,
1000
0000
0001
0100
,
0010
0000
1000
0000
0100
0000
0010
0002
,
0000
0000
1003
0000
,
0001
0100
1000
0100
,
0020
0000
1030
0100
,
0010
0000
0001
0000
1000
0000
0010
0100
,
0020
0000
1030
0100
,
0001
0000
0100
0000
1000
0000
0001
1000
,
0002
0000
0013
0100
,
0010
0000
0001
0000
1000
0000
0100
1000
,
0100
0010
0001
2000
,
0000
0000
3010
0000
0100
0000
0001
0010
,
0001
0000
0000
1100
0000
0000
2002
0000
,
0000
0000
0000
3003
,
1001
0000
0000
0000
0001
0000
1000
0100
,
1000
0001
0100
0010
,
0100
0000
0010
0000
,
0100
0001
0100
0001
,
1000
0000
0000
0000
0100
0000
0010
0001
,
0010
0001
1000
0010
,
0200
0000
0320
0000
,
2030
0000
0010
0010
0010
0000
3001
0000
,
2002
0000
3003
0000
1000
0000
0001
0100
,
0001
1000
0001
0100
,
0010
0000
0100
0001
,
0010
0100
0010
0001
,
1000
0000
0000
0000
0010
0000
1000
0010
,
0100
0001
0100
0010
,
0200
0000
0000
0000
,
0000
0000
0000
0300
,
0010
0000
0100
0000
0001
0000
1000
0100
,
0000
1000
0100
0000
0010
0000
0001
0000
,
1000
0000
0100
0000
1000
0000
0001
0100
,
0000
0001
0100
0000
0010
0000
0100
0010
,
0200
1000
0010
0002
,
0303
1000
0100
1000
,
0020
0001
0100
2000
,
3030
0000
0001
1000
0000
0001
1000
0000
,
0001
0000
0010
0000
0001
0000
1000
0200
,
0000
0301
0100
1000
,
0100
0000
0010
0000
0001
0000
1000
0020
,
0000
0000
0031
0000
0010
0000
0100
0010
,
0100
0001
1000
0100
,
0010
0000
0100
0000
1000
0001
1000
0000
,
0001
0010
0000
0001
0000
0000
1000
0001
,
0000
0100
0001
0100
0000
0000
0010
0000
,
2002
0000
0000
0000
,
3003
0000
0000
0000
;
