#TITLE:50 Ways to Say Goodbye;
#SUBTITLE:;
#ARTIST:Train;
#TITLETRANSLIT:;
#SUBTITLETRANSLIT:;
#ARTISTTRANSLIT:;
#GENRE:;
#CREDIT:;
#BANNER:50 Ways to Say Goodbye-banner.png;
#BACKGROUND:50 Ways to Say Goodbye-bg.png;
#LYRICSPATH:;
#CDTITLE:;
#MUSIC:50 Ways to Say Goodbye.mp3;
#OFFSET:-1.409;
#SAMPLESTART:45.424;
#SAMPLELENGTH:12.000;
#SELECTABLE:YES;
#BPMS:0.000=140.020
;
#STOPS:
;
#BGCHANGES:;
#KEYSOUNDS:;
#ATTACKS:;

//---------------dance-single - ----------------
#NOTES:
     dance-single:
     :
     Beginner:
     1:
     0.125,0.109,0.045,0.000,0.000,93.000,5.000,0.000,0.000,0.000,0.000,0.125,0.109,0.045,0.000,0.000,93.000,5.000,0.000,0.000,0.000,0.000: // measure 0
0000
0000
0000
0000
,  // measure 1
0000
0000
0000
0000
,  // measure 2
0000
0000
0000
0000
,  // measure 3
0000
0000
0000
0000
,  // measure 4
1000
0000
0000
0000
,  // measure 5
0001
0000
0000
0000
,  // measure 6
0100
0000
0000
0000
,  // measure 7
0010
0000
0010
0000
,  // measure 8
1000
0000
1000
0000
,  // measure 9
0100
0000
0000
0000
,  // measure 10
0010
0000
0010
0000
,  // measure 11
0001
0000
0000
0000
,  // measure 12
1000
0000
1000
0000
,  // measure 13
0010
0000
0010
0000
,  // measure 14
0100
0000
0000
0000
,  // measure 15
0001
0000
0000
0000
,  // measure 16
1000
0000
1000
0000
,  // measure 17
0100
0000
0000
0000
,  // measure 18
0010
0000
0010
0000
,  // measure 19
0001
0000
0000
0000
,  // measure 20
0100
0000
0100
0000
,  // measure 21
0010
0000
0010
0000
,  // measure 22
0100
0000
0000
0000
,  // measure 23
0010
0000
0000
0000
,  // measure 24
1001
0000
0000
0000
,  // measure 25
0000
0000
0000
1000
,  // measure 26
1000
0000
0100
0000
,  // measure 27
0010
0000
0001
0000
,  // measure 28
0100
0000
0100
0000
,  // measure 29
0010
0000
0010
0000
,  // measure 30
1000
0000
1000
0000
,  // measure 31
0001
0000
0001
0000
,  // measure 32
1001
0000
0000
0000
,  // measure 33
0100
0000
0000
0000
,  // measure 34
0010
0000
0010
0000
,  // measure 35
1000
0000
1000
0000
,  // measure 36
0001
0000
0001
0000
,  // measure 37
0100
0000
0100
0000
,  // measure 38
0010
0000
0010
0000
,  // measure 39
0100
0000
0100
0000
,  // measure 40
0001
0000
0000
0000
,  // measure 41
1000
0000
0000
0000
,  // measure 42
0100
0000
0100
0000
,  // measure 43
1000
0000
1000
0000
,  // measure 44
0010
0000
0010
0000
,  // measure 45
0100
0000
0100
0000
,  // measure 46
0001
0000
0001
0000
,  // measure 47
1000
0000
1000
0000
,  // measure 48
0010
0000
0000
0000
,  // measure 49
1001
0000
0000
0000
,  // measure 50
1000
0000
1000
0000
,  // measure 51
0100
0000
0100
0000
,  // measure 52
0010
0000
0010
0000
,  // measure 53
0001
0000
0001
0000
,  // measure 54
1000
0000
1000
0000
,  // measure 55
0001
0000
0001
0000
,  // measure 56
0100
0000
0000
0000
,  // measure 57
0010
0000
0000
0000
,  // measure 58
1000
0000
0001
0000
,  // measure 59
1001
0000
0000
0000
,  // measure 60
0100
0000
0010
0000
,  // measure 61
1001
0000
0000
0000
;

//---------------dance-single - ----------------
#NOTES:
     dance-single:
     :
     Easy:
     4:
     0.286,0.303,0.143,0.053,0.000,203.000,16.000,6.000,0.000,0.000,0.000,0.286,0.303,0.143,0.053,0.000,203.000,16.000,6.000,0.000,0.000,0.000:
0000
0000
0000
0000
,
0000
0000
0000
0000
,
0000
0000
0000
0000
,
0000
0000
0000
0000
,
1000
1000
0100
0000
,
0001
0001
0100
0000
,
1000
1000
0010
0000
,
0001
0010
0100
1001
,
1000
0100
0010
0010
,
0100
1000
0001
0000
,
0001
0100
0010
0010
,
0100
0001
1000
0000
,
1000
0100
0010
0100
,
1000
0010
0100
0001
,
0100
0010
1000
0100
,
0010
0000
0010
0100
,
1000
1000
0001
0100
,
0010
0100
0001
0000
,
1000
0010
0100
0001
,
0010
0100
1000
0000
,
0001
0001
1000
0010
,
0100
0010
1000
0010
,
0100
0001
0010
0100
,
1000
0001
1000
0100
,
0110
0000
0000
0000
,
0000
0000
0000
0101
,
1100
0010
0100
0100
,
0001
1000
1000
0010
,
0100
0010
0100
0001
,
0010
0100
1100
0101
,
0001
1000
1000
0001
,
1000
0001
0001
1000
,
0001
0100
0010
1000
,
0020
0000
0000
0030
,
1000
0100
0010
0001
,
0100
0010
0100
0001
,
0010
0100
1000
1000
,
0001
0100
0010
0010
,
0100
0001
0010
0100
,
1000
1000
0001
0001
,
1001
1000
0100
0010
,
0100
1100
0100
0101
,
1001
1000
0100
0100
,
1000
0001
0100
0100
,
0010
0100
0001
0001
,
1000
0100
0010
0010
,
0100
1000
0010
0100
,
0001
0001
1000
1000
,
0100
0010
0100
1000
,
0002
0000
0000
1003
,
1000
0010
0100
0100
,
0001
0010
0100
1000
,
1000
0001
0100
0010
,
0100
0001
0010
0100
,
1000
1000
0001
0001
,
0100
0010
0100
0010
,
1000
0100
0010
0100
,
1000
1000
0001
0001
,
0101
0000
0000
1100
0000
0000
2002
0000
,
0000
0000
0000
3003
,
0110
0000
0000
1010
0000
0000
2002
0000
,
0000
0000
0000
3003
;

//---------------dance-single - ----------------
#NOTES:
     dance-single:
     :
     Medium:
     6:
     0.419,0.386,0.428,0.125,0.013,267.000,48.000,14.000,0.000,0.000,0.000,0.419,0.386,0.428,0.125,0.013,267.000,48.000,14.000,0.000,0.000,0.000:
0000
0000
0000
0000
,
0000
0000
0000
0000
,
0000
0000
0000
0000
,
0000
0000
0000
0000
,
1000
0000
0000
1000
0000
0000
1000
0000
0000
0000
0000
0000
0001
0000
0000
0000
,
0001
0000
0000
0001
0000
0000
0001
0000
0000
0000
0000
0000
1000
0000
0000
0000
,
0100
0000
0000
0100
0000
0000
0100
0000
0000
0000
0000
0000
0010
0000
0000
0000
,
0100
0010
0100
0000
0010
0100
0010
0000
,
1000
0000
1100
0000
0001
0100
1000
0000
,
0110
0000
0001
0001
1000
0000
0100
0000
,
0010
0000
1100
0000
0001
0000
0010
0100
,
1000
0000
0101
0001
0100
0000
0110
0000
,
0010
0000
1000
0000
0100
1000
0100
0000
,
0010
0000
0001
0000
0100
0010
0100
0000
,
0010
1000
0100
0010
,
0100
0000
0000
0100
1000
0100
0010
0001
,
0100
0100
0010
0010
,
1000
0000
0000
1100
0000
0000
0101
0000
,
0001
1000
0001
1000
,
0001
0000
0000
0011
0000
0000
1010
0000
,
0010
1000
0100
0000
0010
0000
0010
0000
,
0100
0001
0010
0000
0100
0000
0100
0000
,
1000
1000
0001
0001
,
1000
0001
1000
0000
0001
1000
0001
1000
,
2002
0000
0000
0000
,
0000
0000
0000
0000
3003
0000
0110
0010
,
1010
0000
0010
1000
0100
0000
1100
0000
,
0100
0000
0010
0001
0100
0000
0101
0000
,
0000
0100
0000
0100
0010
1000
0010
0100
,
0001
0010
0100
1000
0001
0000
0001
0000
,
1000
1100
0001
0101
,
0001
0010
0100
1000
,
0001
0000
0001
0000
0000
1000
0010
0100
,
0001
0000
0001
0000
1000
0100
0010
0100
,
1000
0000
1100
0100
0010
0000
0011
0000
,
0101
0000
0001
0100
0010
0000
0110
0000
,
0000
0010
0000
0010
1000
0010
0100
0001
,
0000
0001
1000
0100
0010
0000
1100
0000
,
0010
0101
1100
1001
,
0001
1000
0001
0000
1000
0001
1000
0000
,
0100
0000
0110
0000
0010
0100
1000
1000
,
0000
0001
0001
1000
0000
1000
1000
0001
,
0100
0000
0110
0010
1000
0000
1100
0000
,
0110
0000
0010
0001
0100
0000
0101
0000
,
0000
0001
0100
0010
0100
0001
1000
0000
,
1000
0100
0010
0000
0110
0000
1100
0000
,
0001
0101
1000
1100
,
0001
0001
1000
0000
1000
1000
0001
0000
,
0100
0000
0110
0000
0000
0010
1000
0100
,
0010
0000
0010
0000
0100
1000
0010
0100
,
0001
0000
0001
1000
0100
0000
1100
0000
,
0110
0000
0010
0001
0100
0000
0110
0000
,
0000
0010
1000
0100
0010
0100
1000
0000
,
0001
0001
1001
1001
,
0010
1000
1100
0101
,
0001
0001
1000
1000
,
0110
0000
0010
0000
0000
0010
0100
1000
,
0010
0000
0010
0100
0000
0100
0001
1000
,
2200
0000
3300
0202
0000
0303
2002
0000
,
0000
0000
0000
3003
,
2020
0000
3030
0022
0000
0033
2002
0000
,
0000
0000
0000
0000
0000
0000
0000
3003
;

//---------------dance-single - ----------------
#NOTES:
     dance-single:
     :
     Hard:
     8:
     0.527,0.475,0.472,0.143,0.036,345.000,53.000,16.000,0.000,0.000,0.000,0.527,0.475,0.472,0.143,0.036,345.000,53.000,16.000,0.000,0.000,0.000:
0000
0000
0000
0000
,
0000
0000
0000
0000
,
0000
0000
0000
0000
,
0000
0000
0000
0000
,
1000
0000
0000
0100
0000
0000
1100
0000
0000
0000
0100
0000
0010
0000
0001
0000
,
0100
0000
0000
0001
0000
0000
0101
0000
0000
0000
0001
0000
0100
0000
0010
0000
,
1000
0000
0000
0100
0000
0000
0110
0000
0000
0000
0010
0000
0001
0000
0100
0000
,
0010
1000
0100
0010
0100
1000
0001
0100
,
0010
0000
0110
0000
0010
1000
0100
0010
,
0100
1000
0001
0100
0010
0100
0001
0010
,
0100
0000
1100
0000
1000
0100
0010
0001
,
0100
0010
0100
0001
0010
0100
1000
0001
,
1000
0000
1010
0000
0010
1000
0100
0100
,
0010
0001
0100
0100
0001
1000
0100
0100
,
1000
0000
1001
0000
0001
0010
0100
1000
,
0001
0000
0001
0000
1000
0000
0010
0100
0010
0000
0100
0000
0001
0000
0001
0000
,
1000
0000
1100
0000
1000
0100
0010
0001
,
0010
0100
1000
0001
0100
0010
0100
0001
,
1000
0000
1010
0000
0010
1000
0100
0010
,
0001
0100
0010
0100
0001
0010
0100
1000
,
0001
0001
0100
0100
0001
1000
0100
0100
,
1000
0001
0010
0010
0001
1000
0010
0010
,
1000
0100
0010
0100
0000
0100
1000
0100
,
0010
0001
0100
0010
0000
0010
0100
0001
,
2002
0000
0000
0000
,
0000
0000
0000
0000
3003
0000
1100
0100
,
0110
0010
0001
0100
0010
0010
0100
0000
,
0001
1000
0100
0100
1000
0001
0100
0000
,
0010
1000
0100
0010
0100
1000
0001
0100
,
0010
0100
0001
1000
1100
0000
0101
0000
,
0010
1001
0100
1001
,
2000
0100
3100
0000
0002
0100
0103
0000
,
0010
0000
0000
0000
1001
0000
0000
0000
0000
0000
1000
0000
0100
0010
0001
0010
,
0200
1000
1300
0000
2000
0010
3010
0100
,
0001
0000
0101
0001
0100
0000
0110
0000
,
0010
0000
1000
0100
0010
0000
1100
0000
,
0000
0001
0000
0100
0010
0100
0001
0010
,
0100
0100
1000
1000
0101
0001
0100
0000
,
0010
1100
0010
0101
,
0002
0010
0013
0000
2000
0010
3010
0000
,
1000
0000
0100
0000
0000
0100
0010
0001
,
0100
0110
0110
0010
1000
1100
1100
0100
,
0110
0000
0010
0001
0100
0000
0101
0000
,
1100
0000
0001
1000
0100
0000
0110
0000
,
0000
0010
0001
0100
0010
0010
0100
0100
,
0001
0010
0010
0001
1010
0000
0011
0000
,
1000
1100
0001
0101
,
0020
0100
0130
0000
0200
0010
0310
0000
,
1000
0000
0000
0000
1100
0000
0000
0000
0000
0000
0100
0000
0010
0001
0010
0100
,
1000
0000
0101
0000
0001
0001
1100
1100
,
0100
0000
0110
0010
0001
0000
0101
0000
,
0110
0000
0010
1000
0100
0000
1100
0000
,
0000
0100
0010
0100
1000
1000
0001
0001
,
0100
0010
0100
0001
0100
0110
0010
0000
,
1000
0110
0001
0110
,
0020
1000
1030
0000
0020
0001
0031
0000
,
0100
0000
1001
0000
0000
0001
0010
0100
,
1000
0000
1000
0001
0000
0001
0100
0010
,
1010
0100
0100
1001
0000
0001
0022
0000
,
0000
0000
0000
0033
,
0110
0001
0001
1100
0000
0100
2002
0000
,
0000
0000
0000
0000
,
0000
0000
0000
3003
;
