#VERSION:0.81;
#TITLE:squall;
#SUBTITLE:;
#ARTIST:猫叉Master+;
#TITLETRANSLIT:;
#SUBTITLETRANSLIT:;
#ARTISTTRANSLIT:Nekomata Master+;
#GENRE:;
#ORIGIN:;
#CREDIT:;
#BANNER:[jubeat] - squall-bn.png;
#BACKGROUND:[jubeat] - squall-bg.png;
#PREVIEWVID:;
#JACKET:[jubeat] - squall-jacket.png;
#CDIMAGE:;
#DISCIMAGE:;
#LYRICSPATH:;
#CDTITLE:cdtitle.png;
#MUSIC:[jubeat] - squall.ogg;
#OFFSET:-0.663;
#SAMPLESTART:73.924;
#SAMPLELENGTH:12.000;
#SELECTABLE:YES;
#BPMS:0.000=190.000;
#STOPS:;
#DELAYS:;
#WARPS:;
#TIMESIGNATURES:0.000=4=4;
#TICKCOUNTS:0.000=4;
#COMBOS:0.000=1;
#SPEEDS:0.000=1.000=0.000=0;
#SCROLLS:0.000=1.000;
#FAKES:;
#LABELS:0.000=Song Start;
#BGCHANGES:;
#KEYSOUNDS:;
#ATTACKS:
;

//---------------dance-single - ----------------
#NOTEDATA:;
#CHARTNAME:;
#STEPSTYPE:dance-single;
#DESCRIPTION:;
#CHARTSTYLE:;
#DIFFICULTY:Hard;
#METER:9;
#RADARVALUES:0.614,0.596,0.207,0.182,0.058,471.000,25.000,22.000,0.000,0.000,1.000,0.000,0.000,0.614,0.596,0.207,0.182,0.058,471.000,25.000,22.000,0.000,0.000,1.000,0.000,0.000;
#CREDIT:;
#NOTES:
// measure 0
0000
0000
0000
0000
,  // measure 1
0000
0000
0000
0000
,  // measure 2
0000
0000
0000
0000
,  // measure 3
0000
0000
0000
0000
,  // measure 4
0001
0010
0100
1000
,  // measure 5
0001
0010
0100
2000
,  // measure 6
3000
0010
0100
0001
,  // measure 7
1000
0000
0010
0000
0100
0000
0001
1000
,  // measure 8
0001
0000
0010
0000
0001
0000
1000
0000
0100
0000
1000
0000
,  // measure 9
0020
0000
0000
0230
0000
0000
0302
0000
,  // measure 10
1000
0000
1003
0000
0001
0010
1000
0010
,  // measure 11
0200
0000
0000
2300
0000
0000
3002
0000
,  // measure 12
0100
0000
0103
0000
0010
1000
0100
0010
,  // measure 13
0011
0000
0000
1100
0000
0000
1001
0000
,  // measure 14
1000
0000
0010
0000
0100
0001
0010
0100
,  // measure 15
1100
0000
0000
0011
0000
0000
1001
0000
,  // measure 16
0010
0000
0100
0000
0100
0000
0200
0000
0000
0300
0000
0000
,  // measure 17
0001
1000
0100
0000
1000
0010
0001
0010
,  // measure 18
0100
1000
0100
0001
0010
0100
1000
0001
,  // measure 19
1000
0000
0010
0100
0001
1000
0100
0001
,  // measure 20
0100
0010
0001
1000
0010
0100
0010
0000
,  // measure 21
1000
0100
0010
0000
0001
1000
0010
0001
,  // measure 22
0010
1000
0001
0010
0100
0010
0001
1000
,  // measure 23
0001
0100
0010
1000
0001
0010
0200
0000
,  // measure 24
0000
1300
0001
0100
0000
0001
1000
0001
,  // measure 25
0010
0000
0000
0001
0100
0000
0001
0010
,  // measure 26
0100
0000
0000
1000
0010
0000
0100
0001
,  // measure 27
1000
0000
0001
0010
0100
0000
1000
0010
,  // measure 28
0100
0000
0010
0100
0001
0100
1000
0100
,  // measure 29
0001
0000
1000
0100
0010
0000
0100
1000
,  // measure 30
0001
0000
1000
0010
2000
0000
0000
3001
,  // measure 31
0100
0000
0001
0010
0100
0000
0010
0001
,  // measure 32
1000
0000
0100
0001
0100
1000
0100
0010
,  // measure 33
0001
0000
1000
0010
0100
0000
0010
0100
,  // measure 34
0001
0000
1000
0100
0010
0000
0100
1000
,  // measure 35
0001
0000
1000
0010
0000
1000
0100
0001
,  // measure 36
0100
0000
0000
0000
0000
0000
0010
0000
0000
0001
0000
0000
0010
0000
0100
0000
1000
0000
0001
0000
0010
0000
0100
0000
,  // measure 37
4000
0000
3000
1001
,  // measure 38
0101
0000
0010
1000
0001
0000
1001
0000
,  // measure 39
1000
0100
0010
0000
0100
1000
0010
0100
,  // measure 40
0010
0000
0100
1000
0100
0010
0100
0001
,  // measure 41
0101
0000
0000
1010
0000
0000
1001
0000
,  // measure 42
1000
0100
0010
0000
0010
0100
1000
0001
,  // measure 43
1000
0000
0010
0100
0000
0010
1000
0000
,  // measure 44
0001
0010
0100
0000
0100
0010
0001
1000
,  // measure 45
1001
0000
0000
0101
0000
0000
1010
0000
,  // measure 46
1000
0100
0001
0000
0001
0100
1000
0100
,  // measure 47
0010
0000
0001
0100
0000
0001
0010
0000
,  // measure 48
0001
0100
1000
0000
1000
0100
0001
0100
,  // measure 49
1010
0000
0000
2020
0000
0000
0000
0000
,  // measure 50
3030
0000
0000
0000
1000
0100
1000
0001
,  // measure 51
0011
0000
0000
0022
0000
0000
0000
0000
,  // measure 52
0033
0001
0100
1000
0100
0010
0100
0001
,  // measure 53
1000
0000
0100
0010
0000
0100
1000
0001
,  // measure 54
0100
1000
0100
0001
0010
0100
1000
0001
,  // measure 55
1000
0000
0010
0100
0000
0001
1000
0001
,  // measure 56
0010
1000
0010
0001
0100
0010
1000
0100
,  // measure 57
1000
0000
0010
0000
0100
0000
0001
0000
0100
0000
0010
0000
,  // measure 58
2000
0000
0000
3002
0000
0000
0023
0000
,  // measure 59
0100
0000
0130
0000
1000
0010
0001
0010
,  // measure 60
0200
0000
0000
0320
0000
0000
2030
0000
,  // measure 61
0001
0000
3001
0000
0010
0001
0010
0100
,  // measure 62
1100
0000
0000
1001
0000
0000
0101
0000
,  // measure 63
0001
0000
0010
0000
0100
1000
0001
0010
,  // measure 64
0011
0000
0000
1001
0000
0000
1010
0000
,  // measure 65
0010
0100
0001
1000
0001
0010
0100
1000
,  // measure 66
0001
0000
0001
0100
0000
0100
0010
0000
,  // measure 67
1000
0000
0001
0010
0001
0100
0010
1000
,  // measure 68
0001
0000
0001
0010
0000
0010
0100
0000
,  // measure 69
1000
0000
0001
0100
0001
1000
0010
0100
,  // measure 70
0010
0000
0010
1000
0000
1000
0001
0000
,  // measure 71
0010
0000
0100
1000
0100
0010
0001
0100
,  // measure 72
0010
0000
0010
1000
0000
1000
0100
0000
,  // measure 73
0010
0000
0001
0010
0001
0100
1000
0100
,  // measure 74
0001
0000
1000
0100
0000
0010
0100
1000
,  // measure 75
0001
0000
1000
0010
0001
0010
0100
0001
,  // measure 76
1000
0000
0001
0010
0000
0100
0010
0001
,  // measure 77
1000
0000
0001
0100
1000
0100
0001
0100
,  // measure 78
0010
0000
1000
0100
0000
0010
0001
1000
,  // measure 79
0001
0000
1000
0010
1000
0100
0001
0100
,  // measure 80
0010
0000
0001
0100
0000
0010
1000
0001
,  // measure 81
1000
0000
0001
0100
1000
0100
0010
0100
,  // measure 82
0001
0010
0100
1000
,  // measure 83
0001
0010
0100
2000
,  // measure 84
3000
0010
0100
0001
,  // measure 85
1000
0000
0010
0000
0100
0000
0001
1000
,  // measure 86
0001
1000
0100
0010
,  // measure 87
0001
1000
0100
0020
,  // measure 88
0030
0001
0100
0010
,  // measure 89
1000
0000
0001
0000
0100
0000
0010
1000
;

//---------------dance-single - ----------------
#NOTEDATA:;
#CHARTNAME:;
#STEPSTYPE:dance-single;
#DESCRIPTION:;
#CHARTSTYLE:;
#DIFFICULTY:Medium;
#METER:7;
#RADARVALUES:0.508,0.485,0.075,0.249,0.000,390.000,9.000,30.000,0.000,0.000,0.000,0.000,0.000,0.508,0.485,0.075,0.249,0.000,390.000,9.000,30.000,0.000,0.000,0.000,0.000,0.000;
#CREDIT:;
#NOTES:
0000
0000
0000
0000
,
0000
0000
0000
0000
,
0000
0000
0000
0000
,
0000
0000
0000
0000
,
0001
0010
0001
1000
,
0001
0100
0001
1000
,
0000
0100
1000
0001
,
1000
0000
0010
0000
1000
0000
0001
1000
,
0001
0010
0100
1000
,
0002
0000
0000
0203
0000
0000
0320
0000
,
0000
0000
0000
0000
1030
0000
0001
1000
,
0002
0000
0000
0023
0000
0000
0230
0000
,
0000
0000
0000
0000
1300
0001
0100
0001
,
2000
0000
0000
3200
0000
0000
0320
0000
,
0000
0000
0000
0000
0031
0000
1000
0001
,
2000
0000
0000
3020
0000
0000
0230
0000
,
0301
1000
1001
0000
,
0010
0000
1000
0000
0001
1000
0001
0000
,
1000
0000
0100
0000
0010
0100
1000
0001
,
1000
0000
0010
0000
0100
0001
1000
0000
,
0001
0000
0010
0000
0100
1000
0100
0010
,
0001
0000
1000
0000
0010
0100
0010
0000
,
1000
0000
0001
0000
1000
0100
0010
0100
,
1000
0001
1000
0000
0010
0000
0101
0000
,
0000
0000
0010
0000
1000
0001
0010
0001
,
1000
0000
0000
0010
0100
0000
0000
0001
,
1000
0000
0000
0100
0010
0000
0000
0001
,
1000
0000
0001
1000
0001
0000
1000
0000
,
0100
0000
0001
0000
0100
0000
1000
0001
,
1000
0000
0000
0001
1000
0000
0010
0000
,
0100
0000
0001
1000
0100
0000
0010
0001
,
1000
0000
0000
0001
1000
0000
0010
0000
,
0001
0000
0010
0000
1000
0000
0001
1000
,
0001
0000
0000
0010
0100
0000
0000
1000
,
0001
0000
0000
0100
0010
0000
0000
1000
,
0001
0000
1000
0001
1000
0000
0100
0000
,
0001
0000
0100
0000
1000
0010
0100
0001
,
2000
0000
3000
1001
,
0010
0000
0000
1000
0001
0000
1000
0000
,
0100
0010
0200
0000
0000
0000
1300
0000
,
0001
0000
0100
0000
0010
0100
0010
1000
,
0001
0000
0000
1001
0000
0000
1000
0000
,
0001
0010
0001
0000
1000
0100
1000
0000
,
0001
0000
0100
0010
0000
1000
0001
0000
,
1000
0100
0010
0000
0001
0010
0100
0000
,
1000
0000
0000
1001
0000
0000
0001
0000
,
1000
0010
1000
0000
0001
0100
0001
0000
,
1000
0000
0100
0010
0000
0001
1000
0000
,
0001
0100
0010
0000
1000
0010
0100
0001
,
1001
0000
0000
2002
0000
0000
0000
0000
,
3003
0000
0000
0000
1000
0100
0010
0001
,
1001
0000
0000
2002
0000
0000
0000
0000
,
3003
0000
0001
0100
0001
0010
0100
1000
,
0001
0000
1000
0010
0000
0100
0010
0000
,
1000
0000
0100
0000
0010
0100
1000
0001
,
1000
0000
0001
0100
0000
0010
0100
0000
,
0001
0000
0010
0000
0100
0010
0001
1000
,
0001
0100
0010
1000
,
0002
0000
0000
2003
0000
0000
3200
0000
,
0000
0000
0000
0000
0310
0000
0100
1000
,
0002
0000
0000
2003
0000
0000
3020
0000
,
0000
0000
0000
0000
0130
0010
1000
0001
,
2000
0000
0000
3002
0000
0000
0023
0000
,
0100
0000
0001
0000
0130
0000
1000
0001
,
2000
0000
0000
3002
0000
0000
0203
0000
,
0010
0000
0310
0000
1000
0001
0010
0001
,
1000
0000
0001
0100
0000
0001
1000
0000
,
0001
0000
1000
0000
0001
0010
0100
0010
,
0001
0000
1000
0010
0000
1000
0001
0000
,
1000
0000
0100
0000
0010
0001
1000
0001
,
0100
0000
0010
1000
0000
0001
0100
0000
,
0010
0000
0100
0000
0001
1000
0001
0010
,
0100
0000
0010
0001
0000
1000
0100
0000
,
0010
0000
0100
0000
1000
0001
0100
0001
,
1000
0000
0001
0010
0000
0100
0010
0000
,
0001
0000
0100
0000
0010
1000
0001
1000
,
0001
0000
1000
0100
0000
0010
0100
0000
,
1000
0000
0010
0000
0100
0001
1000
0100
,
1000
0000
0010
0100
0000
0001
0100
0000
,
0010
0000
1000
0000
0001
0010
0100
0010
,
0001
0000
1000
0010
0000
0100
0010
0000
,
1000
0000
0001
0000
1000
0100
0010
0000
,
0001
0010
0001
1000
,
0001
0100
0001
1000
,
0000
0100
1000
0001
,
1000
0000
0010
0000
1000
0000
0001
1000
,
0001
0010
0100
0010
,
0001
0010
0100
1000
,
0000
0010
0100
0010
,
1000
0000
0010
0000
0100
0000
0001
1000
;

//---------------dance-single - ----------------
#NOTEDATA:;
#CHARTNAME:;
#STEPSTYPE:dance-single;
#DESCRIPTION:;
#CHARTSTYLE:;
#DIFFICULTY:Easy;
#METER:4;
#RADARVALUES:0.340,0.335,0.133,0.133,0.000,255.000,16.000,16.000,0.000,0.000,0.000,0.000,0.000,0.340,0.335,0.133,0.133,0.000,255.000,16.000,16.000,0.000,0.000,0.000,0.000,0.000;
#CREDIT:;
#NOTES:
0000
0000
0000
0000
,
0000
0000
0000
0000
,
0000
0000
0000
0000
,
0000
0000
0000
0000
,
0001
0100
0001
0100
,
0010
1000
0010
1000
,
0000
0100
1000
0100
,
0010
0001
0010
0001
,
2000
0000
3020
0000
,
2030
0000
0100
0000
,
0001
3000
0001
0100
,
0002
0000
0010
0000
,
1000
0003
1000
0010
,
1000
0000
1010
0000
,
0101
0000
0001
0010
,
0001
0000
0011
0000
,
2002
0000
0000
3003
,
1000
0010
1000
0001
,
1000
0000
0001
0010
,
0001
0000
0001
0100
,
0001
1000
0100
0010
,
0001
0100
0001
0100
,
0010
1000
0001
1000
,
0100
0010
0100
2000
,
0000
3001
1000
0010
,
0100
0000
0100
0000
,
0001
0000
0001
0000
,
1000
0100
1000
0000
,
0001
0100
0010
1000
,
0001
1000
0001
0000
,
1000
0100
0010
0000
,
0010
0001
0010
0000
,
0011
0000
1001
0000
,
1000
0000
1000
0000
,
0010
0000
0010
0000
,
0100
0001
0100
0000
,
0001
1000
0100
1000
,
0002
0000
0000
0003
,
1000
0000
1000
0001
,
0100
0001
0000
0001
,
1000
0100
0010
0001
,
1000
0000
1001
0000
,
0001
0100
0001
0000
,
1000
0000
1100
0000
,
0100
1000
0001
1000
,
0001
0000
1001
0000
,
1000
0100
1000
0000
,
0001
0000
0101
0000
,
0100
0001
1000
0100
,
2000
0000
0000
0000
,
3000
0000
0001
0100
,
0002
0000
0000
0000
,
0003
1000
0100
0010
,
0001
0000
1001
0000
,
1000
0010
0100
0001
,
1000
0000
1001
0000
,
0001
0010
0100
1000
,
0002
0000
0203
0000
,
0302
0000
0010
0000
,
1000
0003
1000
0010
,
2000
0000
0100
0000
,
0001
3000
0001
0100
,
0001
0000
0101
0000
,
1001
0000
1000
0100
,
1000
0000
1100
0000
,
2002
0000
0000
3003
,
0001
0100
0001
0100
,
0000
0100
0010
1000
,
0001
0010
0001
0010
,
0000
0100
1000
0001
,
1000
0010
1000
0010
,
0000
0010
0100
0001
,
1000
0100
1000
0100
,
0000
0010
0001
0010
,
0100
1000
0100
1000
,
0000
1000
0001
1000
,
0010
1000
0010
1000
,
0000
0001
0100
0010
,
0100
0001
0100
0001
,
0000
0001
1000
0100
,
0010
0001
0010
0001
,
0000
1000
0100
1000
,
0001
0100
0001
0100
,
0010
1000
0010
1000
,
0000
0100
1000
0100
,
0010
0001
0010
0001
,
1000
0010
0100
0001
,
1000
0100
0010
0001
,
0000
0100
0010
1000
,
0001
0010
0100
1000
;
