#TITLE:chaplet;
#SUBTITLE:;
#ARTIST:DJ TOTTO;
#TITLETRANSLIT:;
#SUBTITLETRANSLIT:;
#ARTISTTRANSLIT:;
#GENRE:;
#CREDIT:;
#BANNER:chaplet-banner.png;
#BACKGROUND:;
#LYRICSPATH:;
#CDTITLE:;
#MUSIC:chaplet.mp3;
#OFFSET:-0.012000;
#SAMPLESTART:21.011999;
#SAMPLELENGTH:11.400003;
#SELECTABLE:YES;
#BPMS:0.000000=200.000000
;
#STOPS:
;
#BGCHANGES:;
#KEYSOUNDS:;
#ATTACKS:;

//---------------dance-single - ----------------
#NOTES:
     dance-single:
     :
     Hard:
     9:
     0.676372,0.930565,0.129126,0.232426,1.000000,508.000000,15.000000,27.000000,0.000000,0.000000,0.000000,0.676372,0.930565,0.129126,0.232426,1.000000,508.000000,15.000000,27.000000,0.000000,0.000000,0.000000:
0000
0000
0000
0000
,
0000
0000
0000
0000
,
0000
0000
0000
0000
,
0000
0000
0000
0000
,
0000
0000
0000
0000
,
0000
0000
0000
0000
,
0000
0000
0000
0000
,
0000
0000
0000
0000
,
0000
0000
0000
0000
,
0010
1000
1001
0001
,
0100
0010
0101
0001
,
0010
0100
1010
0010
,
0100
0001
0011
0001
,
1000
0010
0101
0001
,
0010
0001
1100
1000
,
0010
0100
1001
0100
,
0010
0001
1010
0001
,
0020
0000
0000
0030
,
0100
0000
0100
1000
0000
1000
0010
0000
0010
0100
0000
0100
,
0001
0000
0001
0010
0001
0010
0100
1000
0100
1000
0001
1000
,
0001
0100
0001
0100
0010
0100
0010
1000
0010
1000
0001
1000
,
0001
0000
0001
0010
0000
0010
0100
0000
0100
1000
0000
1000
,
0001
0100
0001
0100
0000
0100
0010
1000
0010
1000
0000
1000
,
0100
1000
0100
1000
0000
1000
0001
0100
0001
0100
0000
0100
,
0010
0000
0010
1000
0001
1000
0001
0000
0001
0010
0100
0010
,
0100
1000
0100
0010
0001
0010
0100
1000
0100
1000
0000
1000
,
0001
0000
0001
0100
0000
0100
0010
0000
0010
1000
0000
1000
,
0100
0000
0100
0010
0001
0010
0100
1000
0100
1000
0001
1000
,
0001
0100
0001
0100
0010
0100
0010
1000
0010
1000
0001
1000
,
0001
0000
0011
0000
0110
0000
1100
0000
1001
0000
0110
0000
,
0010
0000
0010
1000
0100
1000
0100
0000
0100
0010
0000
0010
,
0001
0000
0001
1000
0010
1000
0010
0000
0010
0100
0000
0100
,
0001
0000
0001
0010
0001
0010
0001
0000
0001
0100
0001
0100
,
0010
1000
0010
1000
0001
1000
0010
1000
0010
0100
0001
0100
,
0001
0000
0000
0010
0000
0010
0100
0000
0000
1000
0000
1000
,
0001
0000
0000
0100
0000
0100
0010
0000
0000
1000
0000
1000
,
0001
0000
0000
0010
0000
0010
0100
0000
0000
1000
0000
1000
,
0001
0000
0000
0100
0000
0100
1000
0000
0000
0100
0000
0100
,
0010
0000
0000
1000
0000
1000
0100
0000
0000
0001
0000
0001
,
1000
0000
0000
0010
0000
0010
0001
0000
0000
1000
0000
1000
,
0010
0000
0000
0100
0000
0100
0001
0000
0000
0010
0000
0010
,
0100
0000
0000
1000
0100
1000
0100
0000
0000
0010
0001
0010
,
0001
0000
0000
0100
0000
0100
1000
0000
0000
0100
0000
0100
,
0010
0000
0000
1000
0000
1000
0100
0000
0000
0001
0000
0001
,
1000
0000
0000
0010
0000
0010
0001
0000
0000
0100
0000
0100
,
0010
0000
0000
1000
0000
1000
0100
0000
0000
0001
0000
0001
,
1000
0000
0000
0010
0000
0010
0100
0000
0000
1000
0000
1000
,
0001
0100
0001
0100
0000
0100
0010
1000
0010
1000
0000
1000
,
0001
0000
0001
0010
0000
0010
0100
0000
0100
1000
0000
1000
,
0002
0000
0000
0000
,
0023
0000
0000
0000
,
0230
0000
0000
0000
,
2300
0000
0000
0000
,
3002
0000
0203
0000
,
0302
0000
0000
0000
,
0023
0000
0000
0000
,
0230
0000
0000
0000
,
2300
0000
3020
0000
,
0230
0000
1000
0000
,
0302
0000
1000
0000
,
0023
0000
0001
0000
,
0230
0000
0010
0000
,
2300
0000
0100
0000
,
3002
0000
1000
0000
,
0203
0000
0010
0000
,
0320
0000
0000
0000
,
1030
0100
0010
0001
,
1000
0000
1000
0010
0000
0010
0100
0000
0100
0001
0000
0001
,
1000
0000
1000
0100
0000
0100
0001
0000
0001
0010
0000
0010
,
2000
0000
3002
0000
,
1003
0000
1000
0010
0000
0000
0010
0000
0010
0100
0000
0000
,
0100
0000
0100
0001
0000
0000
0001
0000
0001
1000
0000
1000
,
0200
0000
0320
0000
,
0032
0000
2003
0000
,
3001
0000
0001
0100
0000
0100
0010
0000
0010
1000
0000
1000
,
0001
0000
0001
0010
0001
0010
0100
1000
0100
1000
0001
1000
,
0001
0100
0001
0100
0010
0100
0010
1000
0010
1000
0001
1000
,
0001
0000
0010
0000
0100
0000
1000
0000
0010
0000
0100
0000
,
0001
0000
0001
0010
0000
0010
0001
0000
0001
1000
0000
1000
,
0010
0000
0010
0100
0000
0100
0001
0000
0001
1000
0000
1000
,
0100
0000
0100
0010
0001
0010
0001
0000
0001
1000
0100
1000
,
0100
0010
0100
0010
0001
0010
0001
1000
0001
0100
0010
1000
,
0001
0011
0100
1100
,
0010
0000
0010
0100
0001
0100
0001
0010
0001
1000
0100
1000
,
0001
0100
0001
0100
0001
0000
1000
0100
1000
0100
1000
0000
,
0010
0000
0010
0100
0000
0100
0001
1000
0001
0100
0010
0100
,
0001
0010
0001
0010
0001
0000
1000
0100
1000
0100
1000
0000
,
0010
0100
0010
1000
0001
1000
0001
0010
0100
1000
0100
0010
,
0001
0100
0001
0100
0000
0100
0010
1000
0010
1000
0000
1000
,
0001
0010
0001
0010
0100
0010
0100
1000
0100
1000
0001
1000
,
0020
0000
0000
0000
,
0000
0000
0000
0000
,
0000
0000
0000
0000
,
0000
0000
0000
0000
,
0030
0000
0000
0000
;

//---------------dance-single - ----------------
#NOTES:
     dance-single:
     :
     Medium:
     7:
     0.475920,0.566431,0.008608,0.413202,0.378768,338.000000,1.000000,48.000000,0.000000,0.000000,0.000000,0.475920,0.566431,0.008608,0.413202,0.378768,338.000000,1.000000,48.000000,0.000000,0.000000,0.000000:
0000
0000
0000
0000
,
0000
0000
0000
0000
,
0000
0000
0000
0000
,
0000
0000
0000
0000
,
0000
0000
0000
0000
,
0000
0000
0000
0000
,
0000
0000
0000
0000
,
0000
0000
0000
0000
,
0000
0000
0000
0000
,
0010
0000
1000
0000
,
0100
1000
0001
0100
,
0010
0000
1000
0000
,
0100
0001
0100
1000
,
0001
0000
0100
0000
,
0010
1000
0001
0100
,
0010
0000
0100
0000
,
0001
0010
0100
1000
,
0002
0000
0000
0000
,
1003
0100
1000
0010
,
0100
0000
0000
0001
0000
0001
0010
0000
0010
1000
0000
1000
,
0001
0000
0001
0100
0000
0100
1000
0000
1000
0010
0000
0010
,
0002
0000
2003
0000
,
3001
0000
0001
0010
0000
0000
0100
0000
0100
0001
0000
0000
,
0100
0000
0100
0010
0000
0010
1000
0000
1000
0100
0000
0100
,
0010
0000
0000
0001
0000
0001
1000
0000
0000
0010
0000
0010
,
0100
0000
0000
0001
0000
0001
0010
0000
0010
0100
0000
0100
,
1000
0010
0100
0001
,
0010
0000
0000
0100
0000
0100
1000
0000
1000
0010
0000
0010
,
0001
0000
0001
1000
0000
1000
0100
0000
0100
0001
0000
0001
,
1000
0000
1000
0000
0010
0000
0010
0000
0100
0000
0100
0000
,
0010
0000
0000
0100
0000
0100
0001
0000
0000
0100
0000
0000
,
0010
0000
0000
1000
0000
1000
0100
0000
0000
0001
0000
0000
,
0100
0000
0000
1000
0000
1000
0010
0000
0000
0100
0000
0100
,
0001
0000
0001
0010
0000
0010
0100
0000
0100
1000
0000
1000
,
0002
0010
0100
0013
,
2000
0100
0010
3100
,
0002
0103
2000
0100
,
3002
0010
2003
3010
,
0001
0000
0000
1000
0000
0000
0100
0000
0000
0001
0000
0001
,
0010
0000
0010
0100
0000
0100
1000
0000
0001
0000
0100
0000
,
0010
0000
0000
1000
0000
0000
0100
0000
0000
0010
0000
0010
,
0001
0100
0010
1000
,
0002
0010
0100
0010
,
2003
0010
0100
3010
,
0002
0010
2003
0100
,
3001
0000
0000
0100
0000
0000
0010
0000
1000
0000
0001
0000
,
0010
0000
0000
0100
0000
0000
1000
0000
0000
0001
0000
0001
,
0100
0000
0100
0010
0000
0010
1000
0000
1000
0001
0000
0001
,
0010
0000
0000
0100
0000
0000
1000
0000
0000
0100
0000
0100
,
0020
0000
0000
0000
,
0230
0000
0000
0000
,
2300
0000
0000
0000
,
3002
0000
0000
0000
,
0023
0000
0032
0000
,
2003
0000
0000
0000
,
3020
0000
0000
0000
,
0230
0000
0000
0000
,
0302
0000
2003
0000
,
3200
0000
0010
0000
,
2300
0000
0001
0000
,
3020
0000
0100
0000
,
0032
0000
1000
0000
,
0023
0000
0100
0000
,
0032
0000
1000
0000
,
0023
0000
2030
0000
,
3002
0000
0000
0003
,
1000
0010
0100
0001
,
0010
0100
1000
0010
,
0100
0000
0100
0001
0000
0001
0010
0000
0010
0100
0000
0100
,
2000
0000
3002
0000
,
0103
0000
0100
0010
0000
0000
1000
0000
1000
0001
0000
0000
,
0010
0000
0000
1000
0000
0000
0010
0000
0000
0001
0000
1000
,
0002
0000
0203
0000
,
0320
0000
0000
0000
0000
0000
1000
0000
0000
0000
0030
0000
,
1000
0010
0100
0001
,
1000
0000
0000
0100
0000
0100
0010
0000
0010
0001
0000
0001
,
1000
0000
1000
0010
0000
0010
0100
0000
0100
0001
0000
0001
,
1000
0000
0001
0000
1000
0000
0010
0000
0100
0000
0010
0000
,
1000
0000
0000
0001
0000
1000
0001
0000
0000
0010
0000
0000
,
0100
0000
0000
1000
0000
0001
1000
0000
0000
0001
0000
0000
,
0100
0000
0000
0010
0000
1000
0010
0000
0000
0100
0000
0001
,
0100
0000
0000
0010
0000
0000
1000
0000
1000
0001
0000
0001
,
0020
0000
0230
0000
,
1300
0000
0000
0010
0000
0010
0100
0000
0100
0001
0000
0001
,
2000
0000
3002
0000
,
0013
0000
0000
0100
0000
0100
1000
0000
1000
0001
0000
0001
,
0200
0000
0320
0000
,
1030
0000
1000
0100
0000
0100
0010
0000
0010
0001
0000
0001
,
2000
0000
3002
0000
,
0103
0000
0100
0010
0000
0010
1000
0000
1000
0001
0000
0000
,
2002
0000
0000
0000
,
0000
0000
0000
0000
,
0000
0000
0000
0000
,
0000
0000
0000
0000
,
3003
0000
0000
0000
;

//---------------dance-single - ----------------
#NOTES:
     dance-single:
     :
     Easy:
     5:
     0.318510,0.323675,0.077475,0.094692,0.000000,239.000000,9.000000,11.000000,0.000000,0.000000,0.000000,0.318510,0.323675,0.077475,0.094692,0.000000,239.000000,9.000000,11.000000,0.000000,0.000000,0.000000:
0000
0000
0000
0000
,
0000
0000
0000
0000
,
0000
0000
0000
0000
,
0000
0000
0000
0000
,
0000
0000
0000
0000
,
0000
0000
0000
0000
,
0000
0000
0000
0000
,
0000
0000
0000
0000
,
0000
0000
0000
0000
,
0010
0000
1000
0000
,
0010
0000
1000
0000
,
0001
0000
0010
0000
,
0001
0000
0010
0000
,
0100
0000
1000
0000
,
0100
0000
1000
0000
,
0001
0000
0100
0000
,
0001
0000
0100
0000
,
0020
0000
0030
0000
,
1000
0100
1000
1000
,
0001
0100
0001
0001
,
0010
0010
0100
0100
,
1000
0000
0001
0000
,
1000
0010
0010
1000
,
1000
0001
0001
0010
,
0010
0100
1000
0001
,
0100
0010
1000
0001
,
0010
0100
1000
0001
,
0100
0010
0100
0100
,
0001
0010
0001
0001
,
1001
0000
0110
0000
,
0010
1000
0100
1000
,
0010
0100
0001
0010
,
0100
1000
0001
0100
,
0010
1000
0100
0001
,
0010
1000
0010
1000
,
0001
0010
0001
0000
,
1000
0100
1000
0100
,
1000
0001
1000
0000
,
0001
0100
0001
0100
,
0010
0100
0010
0010
,
1000
0010
1000
0010
,
1000
1000
0001
0001
,
0010
0001
0010
0001
,
0100
0001
0100
0001
,
1000
0100
1000
0100
,
1000
0010
1000
1000
,
0010
0100
0010
0100
,
0001
1000
0001
1000
,
0001
0010
0100
0010
,
0002
0000
0000
0000
,
1003
0000
0000
0000
,
0010
0000
0000
0000
,
0100
0000
0000
0000
,
0001
0000
1000
0000
,
0001
0000
0000
0000
,
0010
0000
0000
0000
,
0100
0000
0000
0000
,
1000
0000
0001
0000
,
2000
0000
3001
0000
,
0200
0000
0310
0000
,
2000
0000
3010
0000
,
0200
0000
0301
0000
,
0020
0000
0031
0000
,
2000
0000
3100
0000
,
2000
0000
3001
0000
,
1001
0000
0000
0000
,
0010
0000
0010
0000
,
1000
0100
0010
0001
,
1000
0010
0100
0001
,
1000
0000
0001
0000
,
0010
0010
0100
0100
,
1000
0010
0001
0100
,
1000
0000
0001
0000
,
0200
0000
0000
0000
,
0310
1000
0010
1000
,
0010
0100
0001
0100
,
0010
1000
0001
0010
,
0110
0000
1001
0000
,
0001
0100
1000
0100
,
0001
0010
1000
0010
,
0100
1000
0010
0100
,
0001
0010
0100
1000
,
1000
0000
0001
0000
,
1000
0010
0100
0001
,
0010
0000
0100
0000
,
0010
0001
1000
0010
,
0110
0000
1001
0000
,
0001
0010
0100
1000
,
1001
0000
0110
0000
,
0010
1000
0100
0001
,
0020
0000
0000
0000
,
0000
0000
0000
0000
,
0000
0000
0000
0000
,
0000
0000
0000
0000
,
0030
0000
0000
0000
;

//---------------dance-single - ----------------
#NOTES:
     dance-single:
     :
     Beginner:
     1:
     0.106990,0.116213,0.025825,0.043042,0.000000,79.000000,3.000000,5.000000,0.000000,0.000000,0.000000,0.106990,0.116213,0.025825,0.043042,0.000000,79.000000,3.000000,5.000000,0.000000,0.000000,0.000000:
// measure 0
0000
0000
0000
0000
,  // measure 1
0000
0000
0000
0000
,  // measure 2
0000
0000
0000
0000
,  // measure 3
0000
0000
0000
0000
,  // measure 4
0000
0000
0000
0000
,  // measure 5
0000
0000
0000
0000
,  // measure 6
0000
0000
0000
0000
,  // measure 7
0000
0000
0000
0000
,  // measure 8
0000
0000
0000
0000
,  // measure 9
0001
0000
0000
0000
,  // measure 10
0010
0000
0000
0000
,  // measure 11
0100
0000
0000
0000
,  // measure 12
1000
0000
0000
0000
,  // measure 13
0010
0000
0000
0000
,  // measure 14
0100
0000
0000
0000
,  // measure 15
0001
0000
0000
0000
,  // measure 16
1000
0000
0000
0000
,  // measure 17
0000
0000
0000
0000
,  // measure 18
0001
0000
0000
0000
,  // measure 19
0001
0000
0000
0000
,  // measure 20
1000
0000
1000
0000
,  // measure 21
1000
0000
0000
0000
,  // measure 22
0010
0000
0000
0000
,  // measure 23
0010
0000
0000
0000
,  // measure 24
0100
0000
0100
0000
,  // measure 25
0100
0000
0000
0000
,  // measure 26
0001
0000
0000
0000
,  // measure 27
0010
0000
0000
0000
,  // measure 28
0100
0000
0000
0000
,  // measure 29
1000
0000
0000
0000
,  // measure 30
0001
0000
0000
0000
,  // measure 31
0100
0000
0000
0000
,  // measure 32
0010
0000
0000
0000
,  // measure 33
1000
0000
0000
0000
,  // measure 34
1001
0000
0000
0000
,  // measure 35
0100
0000
0000
0000
,  // measure 36
0010
0000
0000
0000
,  // measure 37
0100
0000
0000
0000
,  // measure 38
1000
0000
0000
0000
,  // measure 39
0001
0000
0000
0000
,  // measure 40
0010
0000
0000
0000
,  // measure 41
0100
0000
0000
0000
,  // measure 42
0110
0000
0000
0000
,  // measure 43
0001
0000
0000
0000
,  // measure 44
1000
0000
0000
0000
,  // measure 45
0010
0000
0000
0000
,  // measure 46
0100
0000
0000
0000
,  // measure 47
0001
0000
0000
0000
,  // measure 48
1000
0000
0000
0000
,  // measure 49
0100
0000
0000
0000
,  // measure 50
0010
0000
0000
0000
,  // measure 51
0000
0000
0000
0000
,  // measure 52
0001
0000
0000
0000
,  // measure 53
0000
0000
0000
0000
,  // measure 54
1000
0000
0000
0000
,  // measure 55
0000
0000
0000
0000
,  // measure 56
0010
0000
0000
0000
,  // measure 57
0000
0000
0000
0000
,  // measure 58
0200
0000
0000
0000
,  // measure 59
0000
0000
0300
0000
,  // measure 60
0002
0000
0000
0000
,  // measure 61
0000
0000
0003
0000
,  // measure 62
2000
0000
0000
0000
,  // measure 63
0000
0000
3000
0000
,  // measure 64
0020
0000
0000
0000
,  // measure 65
0030
0000
0000
0000
,  // measure 66
0100
0000
0000
0000
,  // measure 67
0100
0000
0000
0000
,  // measure 68
0001
0000
0001
0000
,  // measure 69
0001
0000
0000
0000
,  // measure 70
0010
0000
0000
0000
,  // measure 71
0010
0000
0000
0000
,  // measure 72
0200
0000
0000
0000
,  // measure 73
0300
0000
0000
0000
,  // measure 74
1000
0000
0000
0000
,  // measure 75
1000
0000
0000
0000
,  // measure 76
0001
0000
0000
0000
,  // measure 77
0001
0000
0000
0000
,  // measure 78
0100
0000
0000
0000
,  // measure 79
0010
0000
0000
0000
,  // measure 80
1000
0000
0000
0000
,  // measure 81
0001
0000
0000
0000
,  // measure 82
0010
0000
0010
0000
,  // measure 83
0010
0000
0000
0000
,  // measure 84
0100
0000
0100
0000
,  // measure 85
0100
0000
0000
0000
,  // measure 86
1000
0000
1000
0000
,  // measure 87
1000
0000
0000
0000
,  // measure 88
0001
0000
0001
0000
,  // measure 89
0001
0000
0000
0000
,  // measure 90
1001
0000
0000
0000
;
