#TITLE:ZZ;
#SUBTITLE:;
#ARTIST:D.J.Amuro;
#TITLETRANSLIT:;
#SUBTITLETRANSLIT:;
#ARTISTTRANSLIT:;
#CREDIT:;
#BANNER:[Jubeat] - ZZ.png;
#BACKGROUND:[Jubeat] - ZZ-background.png;
#JACKET:[Jubeat] - ZZ-jacket.png;
#LYRICSPATH:;
#CDTITLE:;
#MUSIC:ZZ.mp3;
#OFFSET:-0.638;
#SAMPLESTART:13.100;
#SAMPLELENGTH:12.000;
#SELECTABLE:YES;
#BPMS:0.000=154.000;
#STOPS:;
#BGCHANGES:;

//---------------dance-single - ----------------
#NOTES:
     dance-single:
     :
     Hard:
     10:
     0.726,0.804,0.071,0.062,0.580:
0000
0000
0000
0000
,
0000
0000
0000
0000
,
0000
0000
0000
0000
,
0000
0000
0000
0000
,
0101
0000
0000
1010
,
1100
0000
0000
1100
,
1001
0000
0000
0101
,
0001
0100
0010
0100
0001
0010
0100
1000
,
0001
0000
0100
0001
0000
0100
0001
0000
1000
0000
0100
0000
1000
0000
0010
0000
,
0100
0000
0001
0100
0000
0001
0100
0000
0010
0000
1000
0000
0001
0000
0010
0000
,
0100
0000
1000
0100
0000
1000
0100
0000
1000
0000
0010
0000
0100
0000
0001
0000
,
1000
0001
1000
0000
0001
0100
0001
0000
0100
0010
0100
0000
0010
1000
0010
0000
,
0100
0000
0010
1000
0000
0010
1000
0000
0100
0000
1000
0000
0010
0000
1000
0000
,
0010
0000
0100
0010
0000
0100
0010
0000
0100
0000
1000
0000
0100
0000
0001
0000
,
1000
0000
0001
1000
0000
1000
0001
0000
0010
0000
0100
0000
1000
0000
0010
0000
,
0100
0001
0100
0000
0010
1000
0010
0000
0100
0010
0100
0000
0001
0100
0001
0000
,
0010
0000
0001
0100
0000
0100
0010
0000
0100
0000
0010
0000
1000
0000
0001
0000
,
0010
0000
0100
1000
0000
0100
0010
0000
0001
0000
0010
0000
1000
0000
0010
0000
,
0100
0000
0010
0001
0000
0001
0100
0000
0010
0000
1000
0000
0001
0000
1000
0000
,
0001
0100
0001
0000
0001
1000
0001
0000
0001
0010
0001
0000
0001
1000
0001
0000
,
0100
0000
0010
1000
0000
0010
0100
0000
0010
0000
1000
0000
0001
0000
0010
0000
,
0100
0000
0010
0001
0000
0001
0100
0000
0010
0000
1000
0000
0001
0000
0010
0000
,
0001
0000
0100
0010
0000
0010
1000
0000
0010
0000
0001
0000
0010
0000
0100
0000
,
0010
1000
0010
0000
0010
0100
0010
0000
0010
0001
0010
0000
0010
0100
0010
0000
,
0001
0100
0010
1000
0001
0000
1000
0010
0100
0001
1000
0000
0001
0100
0010
1000
,
0001
0000
1000
0000
1000
0100
0010
0001
1000
0000
0000
0000
0001
0100
0000
0100
,
0010
1000
0100
0010
0001
1000
0100
0010
,
0001
0100
0001
0000
0100
0000
0010
1000
0010
0000
0100
0000
0001
0000
1000
0100
,
1000
0001
0010
0100
0010
0001
1000
0100
,
0010
0000
0001
0000
0100
0000
1000
0000
0100
0000
0000
0000
0010
0100
0010
0100
,
0001
1000
0001
0100
0000
0001
1000
0100
,
0010
0001
0010
1000
0010
0001
0010
1000
,
0010
0100
1000
0010
,
1000
0100
0010
0001
1000
0100
0010
0001
,
1000
0100
0010
0100
1000
0100
0010
0001
,
0010
0100
1000
0100
0010
0001
0100
0001
,
1000
0010
1000
0010
1000
0010
1000
0010
1000
0010
1000
0010
1000
0010
1000
0010
,
1000
0100
1000
0100
1000
0001
1000
0001
,
0100
0000
0000
0100
0000
0000
0001
0000
0000
0001
0000
0000
1000
0000
0100
0000
,
0011
0000
0001
0010
0100
1000
0001
0010
,
0100
0010
0001
1000
0010
0000
0100
0010
1000
0010
0100
0000
0001
0010
0100
1000
,
0001
0000
0100
0001
0000
0001
0010
0000
0100
0000
0010
0000
0001
0000
0100
0000
,
0010
0000
1000
0010
0000
0100
0010
0000
0100
0000
0001
0000
0010
0000
1000
0000
,
0010
0000
0100
1000
0000
1000
0100
0000
0010
0000
0001
0000
0100
0000
0010
0000
,
1000
0010
0100
0000
0010
1000
0001
0000
0010
0100
1000
0000
0100
0010
0001
0000
,
1000
0000
0001
0100
0000
0010
1000
0000
0100
0000
1000
0000
0010
0000
0100
0000
,
0001
0000
0010
0100
0000
0100
1000
0000
0100
0000
1000
0000
0010
0000
0001
0000
,
0010
0000
0100
0001
0000
0001
0010
0000
0001
0000
1000
0000
0100
0000
1000
0000
,
0010
0100
0001
0000
0001
0010
0100
0000
0100
0010
0001
0000
0001
1000
0010
0000
,
0100
0000
0010
1000
0000
0100
0001
0000
0010
0000
0100
0000
1000
0000
0010
0000
,
0100
0000
0010
0100
0000
0001
1000
0000
0100
0000
0010
0000
0100
0000
1000
0000
,
0010
0000
0100
0010
0000
1000
0001
0000
0010
0000
0001
0000
0100
0000
0001
0000
,
0010
0100
0010
0000
0100
1000
0100
0000
1000
0010
0100
0000
0010
1000
0001
0000
,
0010
0000
0100
0010
0000
0001
0100
0000
0010
0000
0100
0000
0001
0000
0010
0000
,
0100
0000
0010
0001
0000
0100
0010
0000
0100
0000
1000
0000
0100
0000
0010
0000
,
1000
0000
0010
0100
0000
0001
0010
0000
0100
0000
0010
0000
0001
0000
1000
0000
,
0010
0100
0001
0000
0001
0010
0100
0000
0100
1000
0010
0000
0100
0001
1000
0000
,
0002
0000
0000
1003
0000
0000
1000
0000
,
0200
0000
2300
0000
,
3020
0000
0000
0130
0000
0000
0200
0000
,
0301
0000
0000
0001
0100
0000
0000
0001
0100
0000
0010
0000
0100
0000
0010
0000
,
0100
0000
0010
0100
0000
0001
0010
0000
0100
0000
1000
0000
0010
0000
0100
0000
,
0001
0000
1000
0010
0000
0010
0100
0000
0010
0000
1000
0000
0100
0000
0010
0000
,
0001
0000
1000
0010
0000
0010
0100
0000
0001
0000
0010
0000
0100
0000
1000
0000
,
0001
0100
0010
0000
0100
0010
1000
0000
1000
0100
0001
0000
0001
0100
1000
0000
,
0010
0100
0001
0010
0100
0000
0010
0001
0100
1000
0100
0000
0100
0010
1000
0001
,
0010
0000
0001
1000
0010
0000
0202
0000
0000
0000
0000
0000
0303
0000
0000
0000
;

//---------------dance-single - ----------------
#NOTES:
     dance-single:
     :
     Medium:
     7:
     0.528,0.506,0.286,0.125,0.129:
0000
0000
0000
0000
,
0000
0000
0000
0000
,
0000
0000
0000
0000
,
0000
0000
0000
0000
,
0101
0000
0000
1001
,
1100
0000
0000
1100
,
0110
0000
0000
0011
,
0102
0000
2003
0000
,
3100
0000
0000
1000
0000
0000
0010
0000
0100
0000
0001
0000
0010
0000
0100
0000
,
0010
0000
0000
0001
0000
0000
0010
0000
0001
0000
1000
0000
0010
0000
0100
0000
,
0001
0000
0000
0100
0000
0000
0010
0000
0100
0000
0010
0000
1000
0000
0001
0000
,
1000
0100
0010
0001
0010
0100
1000
0001
,
0100
0000
0000
0001
0000
0000
1000
0000
0100
0000
1000
0000
0010
0000
0100
0000
,
0001
0000
0000
1000
0000
0000
0100
0000
1000
0000
0010
0000
0100
0000
0001
0000
,
0010
0000
0000
0100
0000
0000
0010
0000
0001
0000
0100
0000
1000
0000
0100
0000
,
0010
1000
0001
0010
,
0100
0000
0000
1000
0000
0000
0010
0000
0100
0000
0001
0000
0010
0000
1000
0000
,
0010
0000
0000
0100
0000
0000
0010
0000
0001
0000
0100
0000
1000
0000
0100
0000
,
0010
0000
0000
1000
0000
0000
0001
0000
0010
0000
0100
0000
0010
0000
0001
0000
,
0100
0001
0010
0100
0010
0001
0100
0010
,
1000
0000
0000
0001
0000
0000
0010
0000
0100
0000
0010
0000
0001
0000
0100
0000
,
1000
0000
0000
0100
0000
0000
0010
0000
1000
0000
0010
0000
0100
0000
0001
0000
,
1000
0000
0000
0100
0000
0000
0010
0000
0100
0000
0010
0000
0001
0000
1000
0000
,
0001
0010
0100
1000
0100
1000
0001
0100
,
0110
0000
0000
1001
0000
0000
0110
0000
,
1001
0000
0001
1000
0010
0000
0100
0001
,
1000
0100
1000
0010
,
0100
0010
0100
0000
0010
0100
0010
0100
,
0001
1000
0100
0010
,
0001
0010
0100
0010
0100
0000
0010
0000
,
0001
0100
0100
0001
0000
0100
0001
0100
,
0010
1000
0100
0010
,
0011
0110
1100
1001
,
0001
0100
0101
0000
0100
0010
0110
0000
,
0010
1000
1010
0000
1000
0100
1100
0000
,
0100
0010
0110
0000
0010
0001
0011
0000
,
0002
0023
0230
2300
,
3001
0100
0110
0000
0010
1000
0101
0000
,
0001
0010
0110
0000
0010
0001
1100
0000
,
1001
0000
0001
0100
0110
0000
0100
0000
,
0010
0000
0000
1000
0000
0000
0010
0000
0000
0100
0000
0000
0002
0000
0000
0000
,
1003
0000
0000
0100
0000
0000
0010
0000
0100
0000
1000
0000
0010
0000
0100
0000
,
0010
0000
0000
0010
0000
0000
1000
0000
0001
0000
0010
0000
0001
0000
0100
0000
,
0010
0000
0000
0010
0000
0000
0100
0000
0001
0000
0010
0000
0100
0000
1000
0000
,
0010
0001
0010
0100
0001
1000
0001
0010
,
0100
0000
0000
0100
0000
0000
0010
0000
0100
0000
1000
0000
0010
0000
0100
0000
,
0001
0000
0000
1000
0000
0000
0010
0000
0100
0000
0010
0000
1000
0000
0010
0000
,
1000
0000
0000
0100
0000
0000
0010
0000
0100
0000
0010
0000
0001
0000
0100
0000
,
0010
1000
0001
0100
,
0001
0000
0000
0100
0000
0000
0010
0000
1000
0000
0100
0000
1000
0000
0100
0000
,
1000
0000
0000
0100
0000
0000
1000
0000
0001
0000
1000
0000
0010
0000
1000
0000
,
0100
0000
0000
1000
0000
0000
1000
0000
0100
0000
0010
0000
0100
0000
0010
0000
,
0001
1000
0100
0010
0100
1000
0001
1000
,
0100
0000
0000
0010
0000
0000
0010
0000
0001
0000
1000
0000
0001
0000
1000
0000
,
0010
0000
0000
0100
0000
0000
0010
0000
0100
0000
0010
0000
1000
0000
0100
0000
,
0010
0000
0000
0100
0000
0000
1000
0000
0001
0000
1000
0000
0100
0000
1000
0000
,
0010
0100
0010
1000
0001
0010
0100
1000
,
0002
0000
0000
0103
0000
0000
0001
0000
,
0020
0000
0230
0000
,
2300
0000
0000
3100
0000
0000
2000
0000
,
3010
0100
0001
1000
,
0001
0000
0000
0100
0000
0000
0010
0000
1000
0000
0010
0000
0100
0000
0001
0000
,
0010
0000
0000
1000
0000
0000
0010
0000
0100
0000
0010
0000
0001
0000
0010
0000
,
0001
0000
0000
0010
0000
0000
0100
0000
0010
0000
0001
0000
0100
0000
1000
0000
,
0100
0010
1000
0010
0001
0010
1000
0001
,
1001
0000
0000
0110
0000
0000
0101
0000
,
1010
0000
0100
2002
0000
0000
3003
0000
;

//---------------dance-single - ----------------
#NOTES:
     dance-single:
     :
     Easy:
     4:
     0.323,0.387,0.170,0.107,0.000:
0000
0000
0000
0000
,
0000
0000
0000
0000
,
0000
0000
0000
0000
,
0000
0000
0000
0000
,
0001
0000
0000
0010
,
0100
0000
0000
0100
,
1000
0000
0000
0001
,
0200
0000
0320
0000
,
1030
0010
1000
1000
,
0001
0100
0001
0001
,
1000
0100
0010
0010
,
0100
0010
0001
1000
,
0010
0100
0001
0001
,
0100
0010
1000
1000
,
0010
0100
0001
0001
,
2000
0000
0002
3003
,
0001
0100
0010
0010
,
0100
0001
1000
1000
,
0100
1000
0010
0010
,
0100
0001
0100
1000
,
0100
0010
1000
1000
,
0010
0100
0001
0001
,
1000
0100
0010
0010
,
0100
0010
0001
1000
,
1001
0000
0000
0110
0000
0000
1001
0000
,
0001
0100
0010
0100
,
0001
1000
0100
0010
,
0010
0001
0010
0001
,
0100
0001
0010
0100
,
1000
0100
1000
0010
,
0100
0001
1000
0010
,
0100
0100
0100
0100
,
0001
0010
0100
1000
,
0001
1001
1000
1001
,
0001
0101
0100
0101
,
0100
0110
0010
0110
,
0200
0000
0000
0300
,
1001
0001
1000
0100
,
0010
0100
1000
0010
,
0101
0001
0010
0100
,
1100
0000
0000
0011
0000
0000
0102
0000
,
0013
0100
0010
0001
,
0100
1000
0100
0010
,
1000
0010
0100
0001
,
1000
0100
0010
0001
,
1000
0100
0001
0100
,
0010
0001
0100
1000
,
0100
0010
1000
0010
,
0200
0000
0000
0300
,
0010
1000
0010
1000
,
0100
0010
0100
1000
,
0010
0001
0010
0100
,
0001
0010
0100
1000
,
0100
1000
0010
0100
,
0001
0100
1000
0100
,
0010
1000
0010
0001
,
0010
0100
0001
1000
,
0002
0000
0000
0003
,
2000
0000
0000
3000
,
0020
0000
0000
0030
,
0100
0100
0100
0100
,
0001
0100
0010
0010
,
0100
0001
1000
1000
,
0100
0010
0001
0001
,
0010
0001
0100
0010
,
1010
0000
0000
0101
0000
0000
0011
0000
,
1100
0000
0000
2002
0000
0000
3003
0000
;

//---------------dance-single - ----------------
#NOTES:
     dance-single:
     :
     Beginner:
     1:
     0.115,0.207,0.062,0.000,0.000: // measure 1
0000
0000
0000
0000
,  // measure 2
0000
0000
0000
0000
,  // measure 3
0000
0000
0000
0000
,  // measure 4
0000
0000
0000
0000
,  // measure 5
0001
0000
0000
1000
,  // measure 6
1000
0000
0000
0100
,  // measure 7
0100
0000
0000
0100
,  // measure 8
1000
0000
0001
0000
,  // measure 9
0100
0000
0000
0000
,  // measure 10
0001
0000
0000
0000
,  // measure 11
1000
0000
0000
0000
,  // measure 12
0100
0000
0010
0000
,  // measure 13
0001
0000
0000
0000
,  // measure 14
1000
0000
0000
0000
,  // measure 15
0001
0000
0000
0000
,  // measure 16
0100
0000
0001
0000
,  // measure 17
0010
0000
0000
0000
,  // measure 18
0001
0000
0000
0000
,  // measure 19
1000
0000
0000
0000
,  // measure 20
0010
0000
1000
0000
,  // measure 21
0100
0000
0000
0000
,  // measure 22
1000
0000
0000
0000
,  // measure 23
0001
0000
0000
0000
,  // measure 24
0100
0000
0001
0000
,  // measure 25
1001
0000
0000
0000
,  // measure 26
1001
0000
0000
0000
,  // measure 27
0001
0000
0000
0000
,  // measure 28
0100
0000
0000
0000
,  // measure 29
0001
0000
0000
0000
,  // measure 30
1000
0000
0000
0000
,  // measure 31
0100
0000
0000
0000
,  // measure 32
1000
0000
0000
0000
,  // measure 33
0010
0000
0000
0000
,  // measure 34
0100
0000
0000
0000
,  // measure 35
0001
0000
0000
0000
,  // measure 36
1000
0000
0000
0000
,  // measure 37
0100
0000
0010
0000
,  // measure 38
0001
0000
0000
0000
,  // measure 39
1000
0000
0000
0000
,  // measure 40
0100
0000
0000
0000
,  // measure 41
0110
0000
0000
1001
,  // measure 42
0110
0000
0000
0000
,  // measure 43
0100
0000
0000
0000
,  // measure 44
0001
0000
0000
0000
,  // measure 45
1000
0000
1000
0000
,  // measure 46
0100
0000
0000
0000
,  // measure 47
1000
0000
0000
0000
,  // measure 48
0001
0000
0000
0000
,  // measure 49
0100
0000
0100
0000
,  // measure 50
0010
0000
0000
0000
,  // measure 51
0010
0000
0000
0000
,  // measure 52
0010
0000
0000
0000
,  // measure 53
0100
0000
0001
0000
,  // measure 54
1000
0000
0000
0000
,  // measure 55
0100
0000
0000
0000
,  // measure 56
1000
0000
0000
0000
,  // measure 57
0001
0000
0100
0000
,  // measure 58
0110
0000
0000
0000
,  // measure 59
0100
0000
0000
0000
,  // measure 60
0001
0000
0000
0000
,  // measure 61
1000
1000
0001
0001
,  // measure 62
0100
0000
0000
0000
,  // measure 63
0001
0000
0000
0000
,  // measure 64
1000
0000
0000
0000
,  // measure 65
0100
0000
1000
0000
,  // measure 66
0010
0000
0010
0000
,  // measure 67
0100
0000
0000
1001
0000
0000
0000
0000
;
