#TITLE:Tengoku to Jigoku;
#SUBTITLE:;
#ARTIST:Mutsuhiko Izumi;
#TITLETRANSLIT:;
#SUBTITLETRANSLIT:;
#ARTISTTRANSLIT:;
#GENRE:;
#CREDIT:;
#BANNER:[Jubeat] - Tengoku to Jigoku.png;
#BACKGROUND:[Jubeat] - Tengoku to Jigoku - bg.png;
#LYRICSPATH:;
#CDTITLE:chen.png;
#MUSIC:[Jubeat] - Tengoku to Jigoku.ogg;
#OFFSET:0.033;
#SAMPLESTART:40.628;
#SAMPLELENGTH:20.640;
#SELECTABLE:YES;
#BPMS:0.000=186.035;
#STOPS:;
#BGCHANGES:;
#KEYSOUNDS:;

//---------------dance-single - C. Yakumo----------------
#NOTES:
     dance-single:
     C. Yakumo:
     Challenge:
     17:
     1.000,1.000,0.190,0.067,1.000:
0000
0000
0000
0000
,
0000
0000
0000
0000
,
0000
0000
0000
0000
,
0000
0000
0000
0000
,
0001
0100
0001
0010
0100
1000
0010
0100
,
0010
1000
0001
0100
0010
1000
0100
0000
,
0010
0100
1000
0001
1000
0010
0100
0010
,
1000
0001
1000
0000
0001
0010
0001
0000
1000
0100
1000
0000
0010
1000
0010
0000
,
0100
0001
0010
0100
0010
0001
1000
0010
,
0100
0001
0100
0010
1000
0100
0010
0000
,
0100
1000
0001
0100
0010
1000
0100
0010
,
0001
1000
0001
0000
0100
0001
0100
0000
0010
0000
1000
0000
0001
0000
0000
0000
,
0011
0101
1010
1100
,
0100
0010
0001
1000
0010
1000
0100
0000
,
0110
0011
0101
0110
,
0010
1000
0001
0010
0100
1000
0100
0000
,
0110
0011
1001
1100
,
0100
1000
0001
0100
0010
1000
0100
0000
,
0110
1100
1001
0011
,
0010
0100
0010
0001
1000
0010
1000
0100
,
0010
0001
0100
0001
1000
0100
1000
0010
,
0100
0000
0001
0000
0010
0000
0001
0000
1000
0001
1000
0100
0010
0001
0100
0001
,
1000
0000
0000
0010
0000
0000
1000
0000
0000
0001
0000
0000
0100
0000
0000
0010
0000
0000
1000
0000
0000
0001
0000
0000
1000
0000
0100
0000
1000
0000
0001
0000
0010
0000
0001
0000
1000
0000
0100
0000
0010
0000
0001
0000
0010
0000
0100
0000
,
1000
0000
0001
0000
1000
0000
0100
0000
0010
0000
0001
0000
1000
0000
0001
0000
1000
0000
0100
0000
0010
0000
0001
0000
1000
0000
0000
0001
0000
0000
1000
0000
0000
0010
0000
0000
0100
0000
0000
0010
0000
0000
1000
0000
0000
0001
0000
0000
,
0010
0100
0010
0001
1000
0010
0100
0001
0010
0100
1000
0001
0100
0001
1000
0010
,
0100
0001
0010
0001
1000
0100
0010
0100
1000
0001
0100
0010
1000
0100
0010
0001
,
1000
0010
1000
0001
0100
0001
0010
0100
1000
0010
1000
0001
0100
0010
0100
0001
,
1000
0000
0010
0000
1000
0000
0001
0000
0100
0000
0010
0000
1000
0000
0001
0000
0100
0000
0001
0000
1000
0000
0010
0000
0100
0000
0000
0001
0000
0000
1000
0000
0000
0100
0000
0000
0010
0000
0000
0001
0000
0000
1000
0000
0000
0010
0000
0000
,
0100
0001
0010
0100
1000
0010
0100
0001
0010
0100
0010
0001
1000
0010
1000
0001
,
0100
0010
1000
0100
0010
0001
0010
0100
1000
0001
0100
0001
1000
0010
0100
0001
,
0010
0100
1000
0001
1000
0010
0100
0001
0100
0010
1000
0001
1000
0100
0010
0001
,
1000
0000
0100
0000
0010
0000
0100
0000
1000
0000
0001
0000
1000
0000
0001
0000
0010
0000
0100
0000
0010
0000
0001
0000
1000
0000
0000
0001
0000
0000
0100
0000
0000
0001
0000
0000
1000
0000
0000
0010
0000
0000
1000
0000
0000
0001
0000
0000
,
0100
0001
1000
0100
0010
0001
1000
0100
1000
0001
0100
0010
1000
0001
1000
0010
,
0100
0001
0010
0100
0010
0001
1000
0100
1000
0001
0100
0010
1000
0001
1000
0010
,
0100
0001
1000
0100
0010
0001
0010
0100
1000
0001
0100
0001
1000
0001
0010
0001
,
1000
0000
0010
0000
1000
0000
0001
0000
0100
0000
0010
0000
1000
0000
0001
0000
1000
0000
0010
0000
0100
0000
0010
0000
1000
0000
0000
0001
0000
0000
0010
0000
0000
0100
0000
0000
1000
0000
0000
0001
0000
0000
0010
0000
0000
0001
0000
0000
,
1000
0010
1000
0001
0100
0001
1000
0010
0100
0001
1000
0001
0010
0100
0010
0001
,
1000
0010
1000
0001
0100
0010
1000
0001
0010
0100
1000
0001
0010
0001
1000
0100
,
0010
0001
1000
0010
0100
0001
1000
0001
0010
0001
1000
0100
1000
0001
0010
0100
,
1000
0001
0100
0001
1000
0010
1000
0001
0100
0010
1000
0001
1000
0000
0000
0010
0000
0000
0100
0000
0000
0001
0000
0000
,
0010
0100
0100
0001
1000
0010
0100
0001
,
1000
0010
0010
0000
0001
0010
0010
1000
,
0001
0000
0100
0000
0100
0000
0010
0000
0001
1000
0001
0000
0100
0001
0100
0000
,
0010
1000
0010
0000
1000
0100
1000
0000
0001
0000
0010
0000
0100
0000
0010
0000
,
0001
0100
0100
0010
0001
1000
0010
0100
,
0001
0010
0010
0000
1000
0010
0010
0001
,
0100
0010
0010
0001
1000
0100
0100
0001
,
1000
0000
0100
0000
0100
0000
0010
0000
1000
0001
1000
0100
0010
0001
1000
0010
,
0100
0000
0000
0001
0000
0000
0100
0000
0000
0010
0000
0000
1000
0000
0000
0001
0000
0000
0010
0000
0000
0100
0000
0000
1000
0000
0001
0000
1000
0000
0100
0000
0010
0000
0001
0000
1000
0000
0001
0000
0010
0000
0100
0000
1000
0000
0001
0000
,
1000
0001
1000
0010
0100
0001
1000
0001
0100
0010
1000
0001
0010
0100
1000
0001
1000
0100
0010
0100
1000
0001
1000
0100
,
0010
0000
0100
0000
1000
0000
0001
0000
1000
0000
0100
0000
0010
0000
0100
0000
1000
0000
0001
0000
1000
0000
0100
0000
0010
0000
0000
0001
0000
0000
0010
0000
0000
0001
0000
0000
1000
0000
0000
0010
0000
0000
0100
0000
0000
0001
0000
0000
,
1000
0010
1000
0010
0100
0001
0010
0100
1000
0001
1000
0001
0100
0010
0100
0001
,
1000
0010
1000
0010
0100
0001
0010
0100
1000
0001
1000
0001
0100
0010
1000
0010
,
0100
0001
0100
0001
1000
0100
0010
0001
1000
0010
0100
0001
0010
0100
0010
0001
,
1000
0000
0100
0000
1000
0000
0001
0000
0010
0000
0001
0000
1000
0000
0100
0000
1000
0000
0001
0000
0010
0000
0001
0000
1000
0000
0000
0100
0000
0000
1000
0000
0000
0100
0000
0000
0010
0000
0000
0001
0000
0000
1000
0000
0000
0001
0000
0000
,
0100
0010
1000
0010
1000
0001
0100
0001
1000
0100
0010
0100
0010
0001
1000
0100
,
1000
0001
0100
0001
0100
0010
1000
0001
1000
0001
0010
0001
0010
0100
1000
0100
,
0010
0001
1000
0001
1000
0010
0100
0010
1000
0001
0010
0100
1000
0001
0100
0001
,
1000
0000
0010
0000
0100
0000
0001
0000
1000
0000
0001
0000
0100
0000
0010
0000
1000
0000
0001
0000
1000
0000
0010
0000
0100
0000
0000
0001
0000
0000
0100
0000
0000
0001
0000
0000
1000
0000
0000
0010
0000
0000
1000
0000
0000
0100
0000
0000
,
0010
0001
0010
0001
1000
0100
0010
0100
1000
0010
1000
0010
0100
0001
1000
0010
,
1000
0100
1000
0100
0010
0001
0010
0100
1000
0001
1000
0001
0100
0010
0100
0001
,
0010
0100
0010
0100
1000
0001
0010
0001
1000
0010
1000
0010
0100
0001
1000
0010
,
1000
0000
0001
0000
1000
0000
0001
0000
0010
0000
0100
0000
1000
0000
0001
0000
0010
0000
0001
0000
1000
0000
0100
0000
1000
0000
0000
0001
0000
0000
0100
0000
0000
0001
0000
0000
0100
0000
0000
0010
0000
0000
1000
0000
0000
0001
0000
0000
,
1000
0100
0010
0100
0010
0001
1000
0001
0100
0010
1000
0010
1000
0001
0100
0001
,
0010
0100
1000
0100
1000
0001
1000
0100
0010
0001
0100
0001
0100
0010
1000
0010
,
0100
0001
0010
0001
0010
0100
1000
0001
2000
0000
0000
0000
3002
0000
0000
0000
,
0203
0000
0320
0000
1030
0100
0100
0001
,
1000
0010
0010
0001
0101
0000
0200
0000
,
0320
0000
2030
0000
3001
0010
0010
1000
,
0001
0000
0100
0000
0100
0000
1000
0000
0001
0100
0001
1000
0100
1000
0001
0100
,
0001
1000
0100
1000
0001
0100
0010
1000
0001
0010
0001
1000
0010
1000
0001
0010
,
0001
0000
0000
1000
0000
0000
0010
0000
0000
1000
0000
0000
0100
0000
0000
0010
0000
0000
0001
0000
0000
1000
0000
0000
0001
0000
0010
0000
0100
0000
1000
0000
0001
0000
0010
0000
0001
0000
1000
0000
0001
0000
1000
0000
0100
0000
0010
0000
,
0001
0010
0100
1000
0001
0010
0001
1000
0001
1000
0100
0010
0001
1000
0010
0100
0001
1000
0001
0100
0010
1000
0001
0100
,
0001
0000
1000
0000
0010
0000
0100
0000
0001
0000
1000
0000
0001
0000
0100
0000
0010
0000
1000
0000
0001
0000
0100
0000
0001
0000
0000
1000
0000
0000
0010
0000
0000
1000
0000
0000
0001
0000
0000
1000
0000
0000
0100
0000
0000
1000
0000
0000
,
0010
0100
0001
0100
0010
1000
0001
1000
0100
0010
0001
0010
0100
1000
0001
1000
,
0010
1000
0001
1000
0100
0010
0001
0010
0100
1000
0010
1000
0001
0100
0010
0100
,
0001
1000
0100
1000
0010
0100
0001
0100
0010
1000
0001
1000
0100
0010
0001
1000
,
0001
0010
0100
0010
0001
1000
0010
1000
0100
0010
0100
1000
0001
0100
0001
0010
,
0100
1000
0010
0100
0001
1000
0100
0010
0001
0000
0000
0000
0000
0000
0000
0000
,
1001
0000
0110
0000
,
1001
0000
0000
0000
0000
0000
0000
0000
0000
0000
0000
0000
1000
0010
0100
0010
1000
0010
0100
0001
0100
0010
0100
0001
,
1000
0100
0010
0100
1000
0100
0010
0001
0010
0100
0010
0001
1000
0000
0000
0000
0000
0000
0000
0000
0000
0000
0000
0000
;

//---------------dance-single - C. Yakumo----------------
#NOTES:
     dance-single:
     C. Yakumo:
     Hard:
     10:
     0.830,0.969,0.314,0.143,0.304:
0000
0000
0000
0000
,
0000
0000
0000
0000
,
0000
0000
0000
0000
,
0000
0000
0000
0000
,
0001
0100
0001
0010
0100
1000
1000
0010
,
0100
0001
1000
0100
0010
0001
0001
0000
,
0100
0010
0100
0001
1000
0100
0010
0100
,
2000
3002
2003
3002
0023
0032
0023
0032
,
0103
0010
1000
0001
0010
0100
0100
1000
,
0010
0100
0001
1000
0100
0010
0010
0000
,
0100
1000
0001
0100
0010
1000
0001
0010
,
0002
0203
0302
0203
0310
1000
0010
0000
,
0110
1001
0011
1100
,
0001
0100
0010
1000
0100
0010
0001
0000
,
0101
1010
1001
0110
,
0001
1000
0010
0100
0001
1000
0001
0000
,
0011
1100
1010
0101
,
1000
0010
0100
0001
1000
0100
0010
0000
,
1001
0110
0101
1010
,
0001
0010
0100
0010
0001
0100
0001
0010
,
0100
1000
0001
0100
0010
1000
0100
0010
,
0001
0100
0010
1000
0100
0010
0100
1000
,
0010
0110
0101
0011
,
0110
1100
2000
0000
,
3001
0100
0010
1000
0100
M00M
0100
0000
,
0001
0010
0100
1000
0010
M00M
0010
0000
,
0001
0100
0010
1000
0001
0010
0100
1000
,
0010
0100
0010
1000
0001
0100
0001
1000
0100
0000
M00M
0000
0100
0000
0000
0000
,
0001
1000
0100
0010
0100
M00M
0100
0000
,
0010
1000
0001
0100
0010
M00M
0010
0000
,
0100
1000
0100
0010
0001
1000
0010
0100
,
0002
0000
0013
0000
0100
M00M
0100
0000
,
0010
1000
0001
0010
0100
M00M
0100
0000
,
0010
1000
0001
0010
0100
M00M
0100
0000
,
0010
1000
0001
1000
0100
0010
0001
0100
,
0010
0100
0001
1000
0100
0010
0001
1000
0010
0000
M00M
0000
0010
0000
0000
0000
,
0001
0010
0100
1000
0010
M00M
0010
0000
,
0001
0100
0010
1000
0100
M00M
0100
0000
,
0001
1000
0010
0100
0001
0010
0100
0010
,
0002
0000
1003
0000
0010
0100
0001
0010
,
1000
0010
0001
0100
0010
1000
0100
0010
,
1000
0010
0001
0000
0100
0010
0001
0010
,
1000
0001
0010
1000
0010
0010
0100
0100
,
1000
1000
0001
0001
0100
0010
1000
0100
,
0010
0001
0010
0100
1000
0001
0100
0001
,
1000
0010
1000
0000
0100
0010
0001
0010
,
0100
1000
0001
0100
0010
1000
0100
0010
,
0100
0000
1000
0000
0010
0000
0100
0000
0001
1000
0001
1000
0001
1000
0001
1000
,
0001
0010
0001
0010
0001
0010
0001
0010
0100
1000
0100
1000
0100
1000
0100
1000
,
0001
0100
0001
0100
0001
0100
0001
0100
0040
0000
0000
0000
0000
0000
0000
0000
,
0000
0000
0000
0000
1030
0001
0010
0100
,
0010
0000
0001
0000
1000
0000
0010
0000
0100
M00M
0100
0000
0010
M00M
0010
0000
,
1000
0000
0010
0000
0100
0000
0001
0000
0010
M00M
0010
0000
0100
M00M
0100
0000
,
1000
0001
0100
0010
0001
0010
1000
0001
,
1000
0010
0100
0001
1000
0010
0100
0001
1000
0000
0001
0000
0100
0000
0010
0000
,
1000
0000
0001
0000
1000
0000
0100
0000
0010
M00M
0010
0000
0100
M00M
0100
0000
,
1000
0000
0001
0000
0010
0000
0001
0000
0100
M00M
0100
0000
0010
M00M
0010
0000
,
1000
0001
0010
0100
1000
0010
0100
0001
,
1000
0001
1000
0100
0010
0001
1000
0001
0100
0000
0001
0000
0100
0000
0010
0000
,
1000
0000
0100
0000
1000
0000
0001
0000
0100
M00M
0100
0000
0010
M00M
0010
0000
,
1000
0000
0010
0000
0100
0000
0001
0000
0010
M00M
0010
0000
0100
M00M
0100
0000
,
0010
0001
0100
0010
0001
0010
1000
0100
,
1000
0001
0100
0010
1000
0010
0100
0001
1000
0000
0001
0000
1000
0000
0010
0000
,
0100
0000
0001
0000
0010
0000
0100
0000
0010
M00M
0010
0000
0100
M00M
0100
0000
,
1000
0000
0010
0000
0100
0000
0001
0000
0100
M00M
0100
0000
0010
M00M
0010
0000
,
1000
0001
0010
0100
0110
0000
1100
0000
,
0011
0000
0101
0000
0100
0010
1000
0001
,
0010
0100
1000
0010
0110
0000
1010
0000
,
1001
0000
0011
0000
0010
0100
1000
0010
,
0100
0001
1000
0100
0010
0001
0100
0010
,
1000
0100
0010
0001
0100
0010
0100
0001
,
0010
0100
1000
0010
0100
0001
0010
0100
,
0010
0001
0100
0010
1000
0100
0010
0100
,
1000
0010
0100
0001
1000
0000
0100
0000
,
0010
0001
0100
0010
,
1000
0001
0010
0100
,
1000
0100
0010
0001
,
0100
0000
0000
0000
0010
0000
0000
0000
1010
0000
0000
1000
0100
0000
0000
1000
,
0010
0000
0000
0100
0001
0000
0000
0010
0001
0000
0000
0000
0000
0000
0000
0000
,
1001
0000
0110
0000
,
1001
0000
0000
0000
0000
0000
0000
0000
1000
0100
0010
0001
1000
0100
0010
0001
,
1000
0100
0010
0001
1000
0100
0010
0001
1000
0000
0000
0000
0000
0000
0000
0000
;

//---------------dance-single - C. Yakumo----------------
#NOTES:
     dance-single:
     C. Yakumo:
     Beginner:
     3:
     0.125,0.233,0.029,0.038,0.000:
0000
0000
0000
0000
,
0000
0000
0000
0000
,
0000
0000
0000
0000
,
0000
0000
0000
0000
,
0001
0000
0000
0000
,
1000
0000
0000
0000
,
0100
0000
0000
0000
,
0010
0000
0010
0000
,
0010
0000
0000
0000
,
0001
0000
0000
0000
,
0100
0000
0000
0000
,
0010
0000
0010
0000
,
1000
0000
0000
0000
,
0001
0000
0000
0000
,
0010
0000
0000
0000
,
0100
0000
0000
0000
,
0010
0000
0000
0000
,
0001
0000
0000
0000
,
1000
0000
0000
0000
,
0010
0000
0100
0000
,
0100
0000
0100
0000
,
0100
0000
0200
0000
,
0000
0000
0000
0000
,
0000
0000
0301
0000
,
0000
0000
1000
0000
,
0000
0000
0100
0000
,
0000
0000
0010
0000
,
0000
0000
0001
0000
,
0000
0000
1000
0000
,
0000
0000
0010
0000
,
0000
0000
0100
0000
,
0000
0000
0010
0000
,
0000
0000
1000
0000
,
0000
0000
0010
0000
,
0000
0000
0100
0000
,
0000
0000
0001
0000
,
0000
0000
0010
0000
,
0000
0000
0100
0000
,
0000
0000
0010
0000
,
0000
0000
0001
0000
,
0000
0000
0000
0000
,
0000
0000
1000
0000
,
0000
0000
0001
0000
,
0001
0000
0001
0000
,
0000
0000
0100
0000
,
0000
0000
0010
0000
,
0000
0000
0000
0000
,
0000
0000
2000
0000
,
0000
0000
3002
0000
,
0000
0000
0000
0000
,
0000
0000
1003
0000
,
0000
0000
0010
0000
,
0000
0000
0100
0000
,
0000
0000
0001
0000
,
0000
0000
1000
0000
,
0000
0000
0100
0000
,
0000
0000
0010
0000
,
0000
0000
0001
0000
,
0000
0000
0100
0000
,
0000
0000
0010
0000
,
0000
0000
1000
0000
,
0000
0000
0001
0000
,
0000
0000
0010
0000
,
0000
0000
0100
0000
,
0000
0000
1000
0000
,
0000
0000
0010
0000
,
0100
0000
0010
0000
,
0000
0000
1000
0000
,
0001
0000
1000
0000
,
0000
0000
0100
0000
,
0000
0000
0100
0000
,
0000
0000
0100
0000
,
0100
0000
0100
0000
,
0100
0000
0010
0000
,
0000
0000
0000
0000
,
0000
0000
0001
0000
,
0000
0000
0000
0000
,
0000
0000
1001
0000
,
1001
0000
1001
0000
,
0001
0000
1000
0000
,
0001
0000
2000
0000
,
0000
0000
3001
0000
;

//---------------dance-single - C. Yakumo----------------
#NOTES:
     dance-single:
     C. Yakumo:
     Easy:
     6:
     0.398,0.504,0.314,0.124,0.000:
0000
0000
0000
0000
,
0000
0000
0000
0000
,
0000
0000
0000
0000
,
0000
0000
0000
0000
,
0001
0100
0001
0000
,
0010
0001
1000
0000
,
0100
0000
0010
0000
,
0100
1000
0100
1000
,
0001
0000
0100
0000
,
0010
0000
1000
0000
,
0001
0000
0010
0000
,
0100
0000
0010
0000
,
0011
0000
0101
0000
,
0100
0010
1000
0000
,
1001
0000
1100
0000
,
0100
0010
0001
0000
,
0101
0000
0110
0000
,
0010
1000
0001
0000
,
0011
0000
0110
0000
,
0100
1000
0001
0100
,
0001
0100
0001
0100
,
0001
0100
0010
0110
,
0110
0110
0110
0110
,
0110
0010
2000
0000
,
3100
0010
0001
0001
,
0100
0010
1000
1000
,
0001
0010
0100
0010
,
0001
1000
0010
0010
,
0100
0001
0010
0010
,
0100
0010
0001
0001
,
1000
0010
0100
0001
,
1000
1100
1000
1000
,
0001
0100
0010
0010
,
1000
0001
0100
0100
,
0010
1000
0001
0010
,
0100
1000
0100
0100
,
0010
0001
1000
1000
,
0010
0100
0001
0001
,
0010
0100
1000
0100
,
0010
0011
0001
0000
,
0100
0000
0010
0000
,
1000
0000
0100
0000
,
0001
0000
0100
1000
,
0001
0100
0010
0000
,
1000
0000
0001
0000
,
0010
0000
1000
0000
,
0001
0000
0100
0000
,
0010
0000
0012
0000
,
0203
0000
0000
0300
0120
0000
0000
0000
,
2030
0000
0000
3000
1002
0000
0000
0000
,
0000
0000
0103
0100
,
0010
1000
0001
0001
,
0010
0100
1000
1000
,
0010
0100
0001
1000
,
0100
0010
0001
0001
,
1000
0010
0100
0100
,
0001
1000
0100
0100
,
0010
0001
1000
0010
,
0100
0110
0100
1000
,
0010
0100
0001
0001
,
1000
0100
0010
0010
,
0001
1000
0010
0100
,
0001
1000
0100
0100
,
0020
0031
1000
1000
,
0020
0130
0001
0001
,
0100
0010
1010
1010
,
0101
0101
0001
0010
,
0001
0100
0110
0110
,
1010
1010
1000
0100
,
1000
0010
0100
0100
,
0001
0001
1000
1000
,
0100
0100
0010
0010
,
0001
0001
0100
0100
,
0010
0010
2000
0000
,
0000
0000
3002
0000
,
0000
0000
0023
0000
,
0000
0000
0230
0000
,
0000
0000
1300
0001
,
1000
0001
1001
0000
,
0110
0000
1001
0000
,
0110
0000
2001
0000
,
0000
0000
3010
0000
;

//---------------dance-single - C. Yakumo----------------
#NOTES:
     dance-single:
     C. Yakumo:
     Medium:
     9:
     0.694,0.620,0.371,0.076,0.000:
0000
0000
0000
0000
,
0000
0000
0000
0000
,
0000
0000
0000
0000
,
0000
0000
0000
0000
,
0001
0100
0001
0100
0001
0100
0010
0000
,
1000
0001
1000
0001
0010
0100
1000
0000
,
0010
1000
0010
0100
0001
0100
0010
1000
,
0001
0010
0001
0010
0001
1000
0001
1000
,
0010
0100
0001
0100
0010
1000
0100
0000
,
0010
0001
0010
0100
1000
0001
0100
0000
,
0010
0100
0010
1000
0001
1000
0100
0010
,
0001
1000
0001
1000
0010
0100
0010
0000
,
1010
0101
0011
1100
,
1000
0100
0010
0001
0010
0100
1000
0000
,
1010
0101
0011
1100
,
1000
0001
0100
0010
1000
0001
0100
0000
,
0110
1010
1100
0110
,
0010
0001
1000
0010
0100
0001
0010
0000
,
0110
1100
0101
0110
,
0010
1000
0001
0010
0100
1000
0001
1000
,
0100
1000
0001
1000
0010
0100
0010
1000
,
0010
0100
0010
1000
1001
0000
0011
0000
,
0110
1100
0101
0110
,
1010
1000
0002
0000
,
0013
0100
1000
0001
0100
0000
0100
0000
,
0010
1000
0001
0010
0100
0000
0100
0000
,
0010
0001
1000
0010
0100
0001
1000
0100
,
0010
0001
0100
0010
1000
0000
1000
0000
,
0001
0010
0100
1000
0010
0000
0010
0000
,
0100
0001
1000
0100
0010
0000
0010
0000
,
0001
0010
0100
1000
0010
0100
0001
1000
,
0100
0110
0010
0010
,
0001
1000
0010
0100
0001
0000
0001
0000
,
0010
0100
0010
0001
1000
0000
1000
0000
,
0001
0100
0001
1000
0100
0010
0001
1000
,
0001
0010
0100
1000
0001
0000
0001
0000
,
0100
0010
1000
0001
0010
0000
0010
0000
,
0100
0010
0001
1000
0010
0000
0010
0000
,
0100
0010
1000
0001
1000
0100
0010
0001
,
1000
0000
1010
0000
0010
0100
0001
1000
,
0100
0010
0001
0000
1000
0001
0100
0010
,
1000
0010
0100
0000
0001
1000
0100
0010
,
0100
1000
0001
0010
0001
0100
0001
0100
,
0001
1000
0001
1000
0100
0010
0001
0010
,
0100
1000
0001
0100
0010
1000
0001
0100
,
0001
1000
0100
0000
0010
0001
0010
0001
,
1000
0100
1000
0100
1000
0010
1000
0010
,
0100
0001
0100
0001
0020
0000
0000
0000
,
0230
0000
2300
0000
,
3002
0000
0203
0000
,
0000
0000
0310
0010
,
1000
0001
1000
0100
0010
0000
0010
0000
,
0001
1000
0001
0100
0010
0000
0010
0000
,
1000
0001
0100
0010
1000
0001
1000
0100
,
0010
0001
0010
0100
1000
0000
1000
0000
,
0001
0100
0010
1000
0100
0000
0100
0000
,
0010
0001
0010
0100
1000
0000
1000
0000
,
0001
0100
0001
1000
0100
0010
0001
1000
,
0001
0100
0010
0010
,
1000
0001
1000
0100
0010
0000
0010
0000
,
0001
1000
0001
0010
0100
0000
0100
0000
,
1000
0001
1000
0010
0100
0001
0010
0100
,
1000
0100
0010
0001
1000
0000
1000
0000
,
0010
1000
0010
0100
0001
0000
0001
0000
,
0010
0001
1000
0001
0010
0000
0010
0000
,
0100
1000
0001
0100
0010
0000
1010
0000
,
1100
0000
0110
0000
0010
0001
0100
0010
,
1000
0100
0010
0001
1000
0000
1001
0000
,
0101
0000
0110
0000
0010
1000
0100
0010
,
0001
0100
0010
1000
0100
1000
0001
1000
,
0100
1000
0001
1000
0001
0100
0001
0010
,
0001
0100
0001
0010
0100
1000
0001
1000
,
0100
1000
0001
1000
0010
0100
0001
1000
,
0100
0010
0001
1000
0010
0000
0100
0000
,
0001
1000
0100
0010
,
0001
0100
0010
1000
,
0001
0010
0100
1000
,
0001
0100
0010
1010
,
1100
0011
0101
0000
,
1001
0000
0110
0000
,
1001
0000
0220
0000
,
0000
0000
0330
0000
;
