#VERSION:0.81;
#TITLE:Shine On Me;
#SUBTITLE:;
#ARTIST:kors k;
#TITLETRANSLIT:;
#SUBTITLETRANSLIT:;
#ARTISTTRANSLIT:;
#GENRE:;
#ORIGIN:;
#CREDIT:;
#BANNER:[Jubeat] - Shine On Me-bn.png;
#BACKGROUND:[Jubeat] - Shine On Me-bg.png;
#PREVIEWVID:;
#JACKET:[Jubeat] - Shine On Me-jacket.png;
#CDIMAGE:;
#DISCIMAGE:;
#LYRICSPATH:;
#CDTITLE:cdtitle.png;
#MUSIC:[Jubeat] - Shine On Me.ogg;
#OFFSET:-0.322;
#SAMPLESTART:73.732;
#SAMPLELENGTH:12.000;
#SELECTABLE:YES;
#BPMS:0.000=170.000,
80.000=85.000,
127.000=170.000,
287.000=85.000;
#STOPS:126.000=0.706;
#DELAYS:;
#WARPS:;
#TIMESIGNATURES:0.000=4=4;
#TICKCOUNTS:0.000=4;
#COMBOS:0.000=1;
#SPEEDS:0.000=1.000=0.000=0;
#SCROLLS:0.000=1.000;
#FAKES:;
#LABELS:0.000=Song Start;
#BGCHANGES:;
#KEYSOUNDS:;
#ATTACKS:
;

//---------------dance-single - ----------------
#NOTEDATA:;
#CHARTNAME:;
#STEPSTYPE:dance-single;
#DESCRIPTION:;
#CHARTSTYLE:;
#DIFFICULTY:Hard;
#METER:8;
#RADARVALUES:0.503,0.618,0.244,0.099,0.084,417.000,32.000,13.000,0.000,0.000,0.000,0.000,0.000,0.503,0.618,0.244,0.099,0.084,417.000,32.000,13.000,0.000,0.000,0.000,0.000,0.000;
#CREDIT:;
#NOTES:
0000
0000
0000
0000
,
0000
0000
0000
0000
,
0000
0000
0000
0000
,
0000
0000
0000
0000
,
0000
0101
0000
1000
0100
1000
0000
1001
,
0000
0001
0100
0001
1000
0100
0010
0100
,
0000
1100
0000
1000
0001
0100
0000
1010
,
0000
1000
0001
1000
0100
0001
0100
1000
,
0000
0011
0000
0001
0100
0001
0000
1010
,
0000
1000
0100
1000
0010
0100
0001
0010
,
0000
1100
0000
1000
0001
1000
0000
1001
,
0000
0001
0100
0001
0010
1000
0010
0100
,
1000
0010
0000
0100
0001
1000
0000
1100
,
0000
0100
1000
0100
0010
0001
1000
0010
,
0100
0001
0000
1000
0100
0010
0000
0011
,
0000
0001
0100
0001
1000
0100
0010
0100
,
1000
0000
0010
0000
1000
0001
1000
0000
,
0001
0010
0001
0000
1000
0100
0010
0001
,
1001
0000
1010
0000
,
0200
0000
0000
0300
,
2002
0000
0000
0000
,
0000
0000
0000
0000
,
0000
0000
0000
0000
,
0000
0000
3003
0000
,
0001
0000
0000
0010
0100
0000
0010
0100
1000
0000
0010
0000
0100
0001
1000
0001
,
1000
0000
0000
0100
0010
0000
0100
0010
0001
0000
1000
0000
0010
0100
0001
1000
,
0001
0000
0000
1000
0100
0000
1000
0001
1000
0000
0010
0000
0100
0001
1000
0001
,
1000
0000
0000
0001
0010
0000
0001
1000
0001
0000
0100
0000
0010
1000
0010
0100
,
0002
0000
0000
0000
1003
0000
0100
0010
0100
0000
1000
0000
0001
0100
0001
0000
,
2000
0000
0000
0000
3010
0000
0100
0001
0100
0000
0001
0000
1000
0100
1000
0000
,
0020
0000
0130
0001
1000
0100
0001
0100
,
1000
0000
0010
0000
1000
0000
0100
0000
0010
0000
0100
1000
0001
0000
0000
0000
,
1010
0001
1100
1000
,
0101
1000
0011
0001
,
1010
1000
0101
0001
,
1100
0000
1000
0000
0011
0000
0001
1000
,
0010
0100
0000
0010
0100
0001
0000
1000
,
0100
0010
0000
0100
0010
0001
1000
0010
,
0100
0010
1000
0010
0100
0010
2000
0000
,
3001
0000
0000
0000
0010
0000
0000
0010
0000
0000
0010
0000
0100
0000
0000
0000
,
1000
0010
0100
0010
0100
0000
0001
0000
,
1000
0100
0010
0001
0010
0001
1000
0000
,
0001
0100
0010
0100
0010
0000
1000
0000
,
0001
0100
0001
0010
0100
1000
0001
0000
,
1000
0010
0100
0001
0100
0000
0010
0000
,
1000
0100
0010
0100
0010
0100
1000
0000
,
0010
0100
0001
1000
0001
0100
0001
0010
,
0100
1000
0000
0001
0010
0100
0010
0000
,
0001
0100
0010
1000
0010
0000
1000
0000
,
0001
1000
0100
0010
0100
0010
0001
0000
,
1000
0010
1000
0100
1000
0000
0001
0000
,
1000
0010
1000
0100
0010
0001
0100
0000
,
0010
0100
0001
1000
0001
0000
0010
0000
,
0100
1000
0001
0100
0001
0100
0010
0000
,
1000
0100
0010
0100
0010
0000
0011
0000
,
1100
2002
3003
1001
,
0010
0100
0001
1000
0100
0000
0010
0000
,
0001
0100
0001
0010
1000
0010
0001
0000
,
1000
0010
0100
0001
0010
0000
0100
0000
,
1000
0010
1000
0100
0010
0001
1000
0000
,
0010
0100
0010
1000
0001
0000
1000
0000
,
0001
0010
1000
0010
0100
1000
0001
0000
,
1000
0010
1000
0001
0100
0001
1000
0100
,
0010
0001
0000
1000
0100
0010
0100
1000
,
0010
1000
0001
1000
0100
0010
0001
1000
,
0010
0100
0001
0100
0001
0000
0010
0001
,
1000
0001
0100
0001
0010
0100
1000
0001
,
1000
0010
1000
0100
0010
0001
0010
1000
,
0010
0001
1000
0010
0100
0010
1000
0100
,
0001
0100
1000
0001
1000
0000
2010
0000
,
3001
0012
1003
1100
,
0011
0101
0110
2002
,
0000
0000
0000
0000
,
0000
0000
0000
3003
;

//---------------dance-single - ----------------
#NOTEDATA:;
#CHARTNAME:;
#STEPSTYPE:dance-single;
#DESCRIPTION:;
#CHARTSTYLE:;
#DIFFICULTY:Medium;
#METER:6;
#RADARVALUES:0.397,0.393,0.122,0.091,0.000,337.000,16.000,12.000,0.000,0.000,0.000,0.000,0.000,0.397,0.393,0.122,0.091,0.000,337.000,16.000,12.000,0.000,0.000,0.000,0.000,0.000;
#CREDIT:;
#NOTES:
0000
0000
0000
0000
,
0000
0000
0000
0000
,
0000
0000
0000
0000
,
0000
0000
0000
0000
,
0001
1000
0100
1000
,
0010
0000
1000
0000
0001
0100
0010
0000
,
1000
0001
0010
0001
,
0100
0000
0001
0000
1000
0100
0010
0001
,
1000
0010
1000
0001
,
0010
0000
0100
0000
0010
0001
1000
0000
,
0001
0100
0001
1000
,
0100
0000
0010
0000
0100
1000
0001
0010
,
0001
0000
1000
0000
0010
0100
0010
0000
,
0100
0000
0001
0000
0010
0100
0010
0100
,
1000
0000
0001
0000
0100
0010
0100
0000
,
0010
0000
1000
0000
0100
0010
0100
0010
,
0001
0000
0100
0000
0010
1000
0010
0000
,
1000
0000
0100
0000
0010
0001
0010
0000
,
1001
0000
1010
0000
,
0101
0000
0000
0000
,
2002
0000
0000
0000
,
0000
0000
0000
0000
,
3003
0000
0000
0000
,
0000
0000
0000
0000
,
0001
0000
1000
0010
0001
0010
1000
0001
,
1000
0000
0001
0010
1000
0010
0001
1000
,
0001
0000
1000
0010
0100
0001
0010
0100
,
1000
0000
0001
0100
0010
1000
0100
0010
,
0002
0000
0103
0010
0100
0001
1000
0000
,
0002
0000
1003
0100
0010
0100
1000
0000
,
0020
0000
0130
0001
1000
0000
0100
0000
,
0020
0000
0000
0000
0030
0001
1000
0000
,
0010
0100
0001
0000
1000
0000
0001
0000
,
0010
0100
1000
0000
0001
0000
1000
0000
,
0010
0100
0001
0000
1000
0000
0001
0000
,
0010
0100
1000
0000
0001
0000
1000
0010
,
0100
0000
0001
0010
0100
0000
1000
0001
,
0010
0000
0100
0010
0001
0000
0011
0000
,
0101
0110
1010
2002
,
0000
0000
3003
1001
,
0001
0010
0100
0000
1000
0000
1000
0000
,
0001
0100
0010
1000
0001
0000
1000
0000
,
0100
0010
0100
0000
1000
0000
1000
0000
,
0001
0100
0010
1000
0010
0100
0001
0000
,
1000
0100
1000
0000
0010
0000
0100
0000
,
0001
1000
0100
0010
0100
0000
1000
0000
,
0001
0100
0001
0000
0010
0000
0100
1000
,
0001
1000
0000
0001
1000
0001
0100
0000
,
0010
1000
0010
0000
1000
0000
0001
0000
,
1000
0100
1000
0010
0100
0000
0001
0000
,
1000
0100
1000
0000
0010
0000
0100
0000
,
0001
0010
0100
1000
0100
0010
0001
0000
,
1000
0010
0100
0000
0001
0000
1000
0000
,
0100
0001
0100
1000
0001
0000
1000
0000
,
0010
0100
0001
1000
0100
0000
1100
0000
,
0011
1010
0000
0001
,
1000
0010
0100
0000
0001
0000
1000
0000
,
0100
0000
0010
0001
0010
0001
1000
0000
,
0010
0100
0001
0000
1000
0000
0100
0000
,
1000
0100
0010
0001
0010
0100
1000
0000
,
0001
0100
0010
0000
1000
0000
0001
0000
,
0010
0000
0100
1000
0100
1000
0001
0000
,
1000
0010
0100
0000
0001
0000
0010
0100
,
1000
0001
0000
1000
0001
1000
0010
0000
,
0100
0000
0010
1000
0001
0000
1000
0000
,
0100
0010
0100
1000
0100
1000
0001
0000
,
0100
0000
0010
1000
0010
0000
1000
0000
,
0001
0010
0100
1000
0100
0010
0001
0000
,
1000
0000
0010
0100
0001
0000
1000
0000
,
0100
0010
0001
1000
0001
1000
0020
0000
,
0000
0000
0230
0000
0000
0000
0310
1000
,
0010
1010
0101
2002
,
0000
0000
0000
0000
,
0000
0000
0000
3003
;

//---------------dance-single - ----------------
#NOTEDATA:;
#CHARTNAME:;
#STEPSTYPE:dance-single;
#DESCRIPTION:;
#CHARTSTYLE:;
#DIFFICULTY:Easy;
#METER:3;
#RADARVALUES:0.256,0.337,0.046,0.061,0.000,221.000,6.000,8.000,0.000,0.000,0.000,0.000,0.000,0.256,0.337,0.046,0.061,0.000,221.000,6.000,8.000,0.000,0.000,0.000,0.000,0.000;
#CREDIT:;
#NOTES:
// measure 0
0000
0000
0000
0000
,  // measure 1
0000
0000
0000
0000
,  // measure 2
0000
0000
0000
0000
,  // measure 3
0000
0000
0000
0000
,  // measure 4
0001
1000
0010
0100
,  // measure 5
0010
1000
0001
0001
,  // measure 6
1000
0001
0010
0100
,  // measure 7
0010
0001
1000
1000
,  // measure 8
0001
0100
0010
0100
,  // measure 9
0001
0010
0100
0100
,  // measure 10
1000
0010
0100
0010
,  // measure 11
1000
0100
0010
0010
,  // measure 12
0001
0100
0001
1000
,  // measure 13
0001
0010
0100
1000
,  // measure 14
0001
0010
0001
1000
,  // measure 15
0001
0100
0010
1000
,  // measure 16
0001
0010
0100
0000
,  // measure 17
1000
0010
0100
0000
,  // measure 18
0101
0000
0011
0000
,  // measure 19
1100
0000
0000
0000
,  // measure 20
2002
0000
0000
0000
,  // measure 21
0000
0000
0000
0000
,  // measure 22
3003
0000
0000
0000
,  // measure 23
0000
0000
0000
0000
,  // measure 24
0001
0000
1000
0000
0010
0000
0100
0001
,  // measure 25
1000
0000
0001
0000
0010
0000
0100
1000
,  // measure 26
0100
0000
0010
0000
0001
0000
0100
0010
,  // measure 27
0100
0000
0001
0000
1000
0000
0001
1000
,  // measure 28
0002
0000
1003
0000
0100
0000
1000
0010
,  // measure 29
2000
0000
3001
0000
0100
0000
0001
0010
,  // measure 30
0100
1000
0001
1000
,  // measure 31
0010
0100
0001
1000
,  // measure 32
0010
1000
0000
0001
,  // measure 33
0100
0001
0000
1000
,  // measure 34
0010
1000
0000
0001
,  // measure 35
0100
0001
0000
1000
,  // measure 36
0100
1000
0001
1000
,  // measure 37
0100
1000
0001
1000
,  // measure 38
0000
0001
0000
2002
,  // measure 39
0000
0000
3003
1000
,  // measure 40
0010
1000
0000
0001
,  // measure 41
0100
0001
0010
0001
,  // measure 42
1000
0001
0000
1000
,  // measure 43
0010
1000
0100
1000
,  // measure 44
0100
0010
0000
0001
,  // measure 45
1000
0001
0100
0001
,  // measure 46
0010
0100
0000
1000
,  // measure 47
0000
0001
0000
1000
,  // measure 48
0010
1000
0000
0001
,  // measure 49
1000
0001
1000
0100
,  // measure 50
0010
0100
0000
0010
,  // measure 51
0001
0010
0001
1000
,  // measure 52
0001
1000
0000
0010
,  // measure 53
1000
0010
1000
0001
,  // measure 54
1000
0001
0000
1000
,  // measure 55
0100
1000
0000
0001
,  // measure 56
0010
0001
0000
1000
,  // measure 57
0000
0001
0100
0001
,  // measure 58
0100
0010
0000
1000
,  // measure 59
0001
1000
0100
1000
,  // measure 60
0001
1000
0000
0001
,  // measure 61
0000
1000
0010
1000
,  // measure 62
0010
0100
0000
0001
,  // measure 63
1000
0001
0000
1000
,  // measure 64
0001
1000
0000
0001
,  // measure 65
0000
1000
0100
1000
,  // measure 66
0100
0010
0000
0001
,  // measure 67
1000
0001
0100
0001
,  // measure 68
1000
0001
0000
1000
,  // measure 69
0000
0001
0100
0001
,  // measure 70
0000
1000
0000
0001
,  // measure 71
1000
0001
0000
2002
,  // measure 72
0000
0000
0000
0000
,  // measure 73
0000
0000
0000
3003
;
