#TITLE:終末を追う者;
#SUBTITLE:;
#ARTIST:S-C-U x PON;
#TITLETRANSLIT:Shuumatsu wo ou mono;
#SUBTITLETRANSLIT:;
#ARTISTTRANSLIT:;
#GENRE:Judgement;
#CREDIT:;
#BANNER:banner.png;
#BACKGROUND:;
#LYRICSPATH:;
#CDTITLE:;
#MUSIC:music.mp3;
#OFFSET:-10.599001;
#SAMPLESTART:53.389816;
#SAMPLELENGTH:11.675674;
#SELECTABLE:YES;
#DISPLAYBPM:185.000000;
#BPMS:0.000000=185.000000
,30.000000=92.500000
,30.500000=185.000000
,31.000000=370.000000
,32.000000=185.000000
;
#STOPS:
;
#BGCHANGES:;
#KEYSOUNDS:;
#ATTACKS:;

//---------------dance-single - ----------------
#NOTES:
     dance-single:
     :
     Hard:
     10:
     0.730644,0.708373,0.091168,0.036467,0.259828,547.000000,10.000000,4.000000,0.000000,0.000000,0.000000,0.730644,0.708373,0.091168,0.036467,0.259828,547.000000,10.000000,4.000000,0.000000,0.000000,0.000000:
0001
0100
0010
1000
0000
1000
0100
0000
,
0010
0000
0000
0000
0001
0000
0100
0000
0010
0000
0000
1000
0000
0000
0001
0000
,
0010
0000
0100
1000
0000
1000
0010
0000
,
0100
0000
0001
0000
0100
0000
0001
0000
0000
0000
0001
0000
1000
0000
0100
1000
,
0100
0010
0001
0100
0000
0100
0010
0000
,
1000
0000
0000
0000
0001
0000
1000
0000
0100
0000
0000
0010
0000
0000
0001
0000
,
1000
0010
1000
0001
0100
0001
0010
0001
,
1000
0010
0100
0001
0020
0000
0000
0000
,
0130
0000
0000
1000
0000
0000
1100
0000
0000
0000
0010
0000
0100
0000
0001
0000
,
0100
0000
0000
0010
0000
0000
0110
0000
0000
0000
1000
0000
0100
0000
0001
0000
,
0100
0000
0000
0010
0000
0000
0011
0000
0000
0000
0100
0000
1000
0000
0100
0000
,
0001
0010
0100
1000
0001
0100
1000
0100
,
0010
0000
1000
0100
0000
0000
1100
0000
0000
0000
0100
0000
0010
0000
0100
0000
,
1000
0000
0001
0100
0000
0000
0110
0000
0000
0000
0010
0000
1000
0000
0001
0000
,
1000
0000
0010
0100
0000
0000
1001
0000
0000
0000
0100
0000
0010
0000
0100
0000
,
1000
0001
0100
0010
0100
0001
0010
0100
,
1000
0000
0000
0101
0000
0000
0010
0000
0000
1100
0000
0000
1001
0000
0000
1000
,
0001
0100
1000
0000
0001
0010
1000
0000
,
0001
0010
0100
0000
1000
0010
0100
0000
,
0001
0100
1000
0000
0001
0010
1000
0000
,
0001
0010
0100
0000
1000
0010
0100
0000
,
1000
0100
0001
0000
0010
1000
0001
0000
,
0100
0010
0001
0000
1000
0010
0100
0000
,
0001
1000
0100
1000
0001
0100
0010
0100
,
0001
0010
0100
1000
0001
0100
0010
1000
,
0001
0010
0100
0010
0001
0100
0010
0100
,
1000
0100
0001
0010
1000
0010
0100
1000
,
0001
0100
0010
0100
0001
1000
0100
0010
,
0100
1000
0010
0100
1000
0100
0001
0010
,
0100
0010
0001
0100
0010
0100
0001
1000
,
0100
0010
0100
1000
0010
0100
1000
0100
,
0001
0010
0100
1000
0001
1000
0010
0100
,
0001
0100
0001
0100
0001
1000
0001
1000
0001
0000
0010
0000
1000
0000
0010
0000
,
0001
0100
0010
1000
0000
1000
0100
0000
,
0010
0000
0001
1000
0001
0000
0100
0000
0010
0000
0000
1000
0000
0000
0100
0000
,
1000
0001
0100
0010
0000
0010
1000
0100
,
1000
0001
0100
0010
0100
0001
0010
0100
,
1000
0010
0100
0001
0000
0001
1000
0000
,
0100
0000
0010
0001
0010
0000
0100
0000
1000
0000
0000
0001
0000
0000
0100
0000
,
0010
0000
0100
0000
0001
0000
1000
0000
0000
0100
0000
0000
1000
0000
0010
0000
,
0100
0001
0010
0100
1000
0001
1000
0010
,
0100
0001
0010
0100
0000
0100
1000
0000
,
0001
0000
0100
0010
0100
0000
0001
0000
1000
0000
0100
0000
0000
0000
0100
0000
,
1000
0010
0100
0001
1000
0100
0010
0100
,
1000
0000
0001
0000
0100
0000
0010
0000
0100
0000
0001
0000
0010
0000
0100
1000
,
0100
0010
0001
0100
0000
0100
0010
0000
,
1000
0000
0001
0010
0001
0000
0100
0000
0010
0000
0000
1000
0000
0000
0100
0000
,
1000
0001
0100
0010
1000
0100
0010
0001
,
1000
0010
1000
0010
0100
0001
0100
0001
0000
0000
1000
0000
0200
0000
0000
0000
,
0310
0001
0100
0010
1000
0100
0010
0001
,
0100
0000
0010
0000
1000
0000
0100
0000
0010
0001
0010
0001
0010
0000
0100
0000
,
1000
0010
0100
0001
0010
0100
1000
0010
,
0100
0000
0001
0000
0010
0100
0010
0100
0010
0000
0001
0000
0100
0000
1000
0000
,
0001
0010
1000
0001
0010
0100
1000
0001
,
0100
1000
0100
0000
0010
0000
1000
0000
0100
0000
0010
0000
0001
0000
1000
0000
,
0010
0000
0100
0000
0001
0000
0010
0000
0100
0000
1000
0000
0001
1000
0001
1000
,
0100
0010
0001
1000
0000
1000
0010
0100
,
0001
1000
0000
1000
0100
0010
0001
0100
,
0010
0100
0001
0010
0000
0010
0100
1000
,
0001
0100
0000
0100
0010
1000
0100
0001
,
1000
0010
0001
0100
0000
0100
0010
1000
,
0001
0100
0000
0100
1000
0100
0001
0010
,
0100
1000
0010
0100
0000
0100
0001
0010
,
0100
1000
0000
1000
0001
0100
0010
1000
,
0001
0000
0100
0010
0000
0100
0010
0000
0000
0000
1000
0000
0001
0000
0100
0000
,
0010
0000
1000
0001
0000
1000
0001
0000
0000
0000
0010
0000
0100
0000
1000
0000
,
0001
0000
1000
0100
0000
1000
0100
0000
0000
0000
0010
0000
0001
0000
1000
0000
,
0100
0010
0100
0000
1000
0000
0010
0000
0100
0001
0100
0001
1000
0100
1000
0100
,
1000
0000
0001
0100
0000
1000
0100
0000
0001
0000
0010
0000
0100
0000
0010
0000
,
1000
0000
0001
0100
0000
1000
0100
0000
0010
0000
0001
0000
1000
0000
0000
0000
,
0010
0000
0100
0001
0000
1000
0100
0000
0000
0000
0010
0000
0001
0000
0100
0000
,
0010
0000
1000
0000
0100
0000
1000
0000
0001
0100
0001
0100
0010
1000
0010
1000
,
0001
2002
0000
0000
,
0000
0000
0000
0000
,
3003
0000
0000
0000
;

//---------------dance-single - ----------------
#NOTES:
     dance-single:
     :
     Medium:
     8:
     0.475374,0.434072,0.009117,0.027350,0.068376,361.000000,1.000000,3.000000,0.000000,0.000000,0.000000,0.475374,0.434072,0.009117,0.027350,0.068376,361.000000,1.000000,3.000000,0.000000,0.000000,0.000000:
0010
0000
0100
0000
0000
0010
0100
0000
,
0001
0000
1000
0000
0000
0001
1000
0000
,
0001
0000
0010
0000
0000
0001
0010
0000
,
0100
0000
1000
0000
0100
1000
0100
0000
,
1000
0010
0100
0001
,
1000
0100
0010
0001
,
1000
0010
0100
0001
,
1000
0001
1000
0001
2000
0000
0000
0000
,
3010
0000
0000
0100
0000
0000
0010
0000
0000
0000
1000
0000
0000
0000
0100
0000
,
1000
0000
0000
0001
0000
0000
1000
0000
0000
0000
0001
0000
0000
0000
0010
0000
,
0100
0000
0000
0010
0000
0000
0100
0000
0000
0000
1000
0000
0000
0000
0001
0000
,
0100
0000
0001
0000
0100
0010
1000
0001
,
0010
0000
0000
0100
0000
0000
1000
0000
0000
0000
0010
0000
0000
0000
0100
0000
,
0001
0000
0000
0100
0000
0000
0010
0000
0000
0000
1000
0000
0000
0000
0100
0000
,
0001
0000
0000
0100
0000
0000
0010
0000
0000
0000
0001
0000
0000
0000
0100
0000
,
0010
1000
0100
0001
0100
1000
0010
0100
,
0001
0000
0000
0100
0000
0000
1000
0000
0000
0100
0000
0000
0001
0000
0000
0001
,
0010
0100
1000
0010
,
0100
0000
0001
0000
1000
0100
0001
0000
,
1000
0010
0100
1000
,
0010
0000
0100
0000
0001
1000
0100
0000
,
1000
0010
0100
0001
,
0010
0000
0100
0000
1000
0010
0100
0000
,
1000
0100
0001
0010
,
0100
0000
1000
0000
0001
0100
0010
0000
,
0100
0000
0010
0000
0100
0001
1000
0000
,
0100
0000
0010
0000
0001
1000
0010
0000
,
0100
0000
0001
0000
1000
0100
0010
0000
,
0001
0000
1000
0010
0000
0010
0100
0000
,
0001
0000
0010
0000
0100
1000
0001
0000
,
0100
0000
0010
0000
1000
0100
0010
0000
,
0001
0100
0010
0000
1000
0100
0010
0000
,
0001
1000
0001
1000
0001
0000
1000
0000
,
0010
0000
0100
0010
0000
0010
0100
0000
,
0000
0001
1000
0001
1000
0000
0100
0000
,
0010
0000
0001
1000
0000
1000
0010
0000
,
0100
0001
0010
0100
,
1000
0000
0001
0100
0000
0100
0010
0000
,
0000
1000
0001
1000
0001
0000
0010
0000
,
0100
0000
0000
1000
0000
0000
0001
0000
,
0100
0010
1000
0100
,
0010
0000
0001
0010
0000
0001
0010
0000
,
0100
0000
1000
0000
0010
1000
0000
1000
,
0001
0010
0100
1000
,
0001
0000
0100
0000
0010
1000
0100
0000
,
1000
0000
0001
0100
0000
0100
0010
0000
,
1000
0000
0100
0000
1000
0001
0000
0001
,
1000
0010
0100
0001
,
0010
0000
0100
1000
0000
0010
0100
0000
,
0001
0010
0100
0000
1000
0010
0000
0100
,
0001
0000
0010
0100
0000
1000
0010
0100
,
0001
0000
1000
0100
0000
0010
0001
0000
,
1000
0010
0000
0100
0001
0010
0100
0000
,
1000
0010
0000
0100
0001
0000
0010
0100
,
0000
1000
0010
0100
0001
0000
1000
0100
,
0000
0010
0001
0000
1000
0010
0000
0100
,
0001
0000
0001
0100
0000
0100
0010
0000
,
0010
1000
0000
1000
0001
0000
0010
0000
,
0100
0000
1000
0100
0000
0100
1000
0000
,
1000
0010
0000
0010
0100
0000
0001
0000
,
0010
0000
0100
1000
0000
1000
0001
0000
,
0001
0100
0000
0100
0010
0000
1000
0000
,
0001
0000
0010
0100
0000
0100
1000
0000
,
1000
0010
0000
0010
0100
0000
0001
0000
,
0100
0000
0000
0010
0000
0000
0100
0000
0000
0000
0001
0000
0000
0000
1000
0000
,
0100
0000
0000
1000
0000
0000
0100
0000
0000
0000
1000
0000
0000
0000
0010
0000
,
1000
0000
0000
0010
0000
0000
1000
0000
0000
0000
0010
0000
0000
0000
0100
0000
,
0001
1000
0001
0000
0010
0100
0010
0000
,
0100
0000
0000
1000
0000
0000
0100
0000
0000
0000
1000
0000
0000
0000
1000
0000
,
0001
0000
0000
0100
0000
0000
0001
0000
0000
0000
0100
0000
0000
0000
0100
0000
,
0001
0000
0000
0010
0000
0000
0001
0000
0000
0000
0010
0000
0000
0000
0010
0000
,
0001
1000
0010
1000
0001
0100
0010
1000
,
0000
2002
0000
0000
,
0000
3003
0000
0000
;

//---------------dance-single - ----------------
#NOTES:
     dance-single:
     :
     Easy:
     5:
     0.319087,0.263475,0.009117,0.009117,0.000000,243.000000,1.000000,1.000000,0.000000,0.000000,0.000000,0.319087,0.263475,0.009117,0.009117,0.000000,243.000000,1.000000,1.000000,0.000000,0.000000,0.000000:
0010
0000
1000
0000
,
0100
1000
0001
0000
,
0100
0000
0010
0000
,
1000
0001
0010
0000
,
0100
1000
0100
1000
,
0001
0100
0001
0100
,
0010
1000
0100
0010
,
0001
0000
2000
0000
,
3010
0000
0000
0100
0000
0010
0000
0000
,
1000
0000
0000
0001
0000
1000
0000
0000
,
0001
0000
0000
0010
0000
0001
0000
0000
,
0100
0010
1000
0001
,
0010
0000
0000
0100
0000
0010
0000
0000
,
0100
0000
0000
1000
0000
0100
0000
0000
,
1000
0000
0000
0001
0000
1000
0000
0000
,
0001
0100
0010
1000
,
0001
0000
0000
1000
0000
0000
0001
0000
,
0100
0100
0010
0010
,
1000
1000
0001
0001
,
0010
0010
0100
0100
,
1000
1000
0001
0001
,
0100
0010
0100
0010
,
1000
0001
1000
0001
,
0010
0100
1000
0010
,
0100
0001
1000
0100
,
0010
0001
0010
0010
,
0001
0000
1000
0000
,
0010
0100
0010
0010
,
1000
0000
0100
0000
,
1000
0001
0100
0100
,
0001
0000
0010
0000
,
0100
1000
0010
0100
,
0001
0010
0100
1000
,
0010
0000
0000
0100
0000
0000
0010
0000
,
0000
1000
0100
0010
,
0001
1000
0010
0100
,
0001
0010
0100
1000
,
0001
0000
0000
0100
0000
0000
0001
0000
,
0000
0010
0100
1000
,
0010
0100
1000
0100
,
0001
0010
0100
1000
,
0010
0000
0000
0100
0000
0000
0010
0000
,
1000
0000
0100
0000
0010
0001
0000
0000
,
0010
0000
0000
0001
0000
0000
0100
0000
,
0010
1000
0100
1000
,
0001
0000
0000
1000
0000
0000
0001
0000
,
0000
0100
0010
1000
,
0100
0010
0001
1000
,
0010
0000
0100
0010
0000
0010
0100
0000
,
0001
0000
0010
0000
0000
0100
0000
0000
,
1000
0000
0000
0010
0000
0000
0100
0000
,
0001
0000
0000
0010
0000
0000
0100
0000
,
0000
1000
0000
0000
0010
0000
0100
0000
,
0000
1000
0000
0000
0100
0000
0000
0001
,
0000
0000
0010
0000
1000
0000
0000
0100
,
0000
0000
0001
0000
0000
0010
0000
0000
,
0100
1000
0100
1000
,
0001
0100
0001
0000
,
0010
0100
0010
0100
,
1000
0001
1000
0000
,
0010
0100
0001
0010
,
0100
1000
0001
0000
,
0100
0010
1000
0100
,
0010
0001
1000
0000
,
0010
0000
0000
0100
0000
0010
0000
0000
,
1000
0000
0000
0001
0000
1000
0000
0000
,
0001
0000
0000
0010
0000
0001
0000
0000
,
1000
0010
0100
0001
,
1000
0000
0000
0100
0000
1000
0000
0000
,
0001
0000
0000
0100
0000
0001
0000
0000
,
0010
0000
0000
0100
0000
0010
0000
0000
,
0100
1000
0001
0100
,
0000
0110
0000
0000
;

//---------------dance-single - ----------------
#NOTES:
     dance-single:
     :
     Beginner:
     1:
     0.093772,0.098803,0.045584,0.009117,0.000000,66.000000,5.000000,1.000000,0.000000,0.000000,0.000000,0.093772,0.098803,0.045584,0.009117,0.000000,66.000000,5.000000,1.000000,0.000000,0.000000,0.000000:
// measure 0
1000
0000
0000
0000
,  // measure 1
0010
0000
0000
0000
,  // measure 2
0100
0000
0000
0000
,  // measure 3
0001
0000
0000
0000
,  // measure 4
0010
0000
0000
0000
,  // measure 5
0100
0000
0000
0000
,  // measure 6
1000
0000
0000
0000
,  // measure 7
0001
0000
0000
0000
,  // measure 8
1000
0000
0000
0000
,  // measure 9
1000
0000
0000
0000
,  // measure 10
0010
0000
0000
0000
,  // measure 11
0010
0000
0000
0000
,  // measure 12
0100
0000
0000
0000
,  // measure 13
0100
0000
0000
0000
,  // measure 14
0001
0000
0000
0000
,  // measure 15
0001
0000
0000
0000
,  // measure 16
0020
0000
0030
0000
,  // measure 17
0100
0000
0000
0000
,  // measure 18
1000
0000
0000
0000
,  // measure 19
0100
0000
0000
0000
,  // measure 20
0000
0000
0000
0000
,  // measure 21
0010
0000
0000
0000
,  // measure 22
0001
0000
0000
0000
,  // measure 23
0010
0000
0000
0000
,  // measure 24
0000
0000
0000
0000
,  // measure 25
0001
0000
0000
0000
,  // measure 26
1000
0000
0000
0000
,  // measure 27
0001
0000
0000
0000
,  // measure 28
0000
0000
0000
0000
,  // measure 29
0010
0000
0000
0000
,  // measure 30
0100
0000
0000
0000
,  // measure 31
0010
0000
0000
0000
,  // measure 32
0000
0000
0000
0000
,  // measure 33
0001
0000
0000
0000
,  // measure 34
0000
0000
0000
0000
,  // measure 35
1000
0000
0000
0000
,  // measure 36
0010
0000
0000
0000
,  // measure 37
1000
0000
0000
0000
,  // measure 38
0000
0000
0000
0000
,  // measure 39
0010
0000
0000
0000
,  // measure 40
0100
0000
0000
0000
,  // measure 41
0010
0000
0000
0000
,  // measure 42
0000
0000
0000
0000
,  // measure 43
1000
0000
0000
0000
,  // measure 44
0001
0000
0000
0000
,  // measure 45
1000
0000
0000
0000
,  // measure 46
0000
0000
0000
0000
,  // measure 47
0100
0000
0000
0000
,  // measure 48
0010
0000
0000
0000
,  // measure 49
0110
0000
0000
0000
,  // measure 50
0000
0000
0000
1001
,  // measure 51
0000
0000
0000
0000
,  // measure 52
0000
0000
0110
0000
,  // measure 53
0000
0000
0000
0000
,  // measure 54
0000
1001
0000
0000
,  // measure 55
0000
0000
0000
0000
,  // measure 56
0100
0000
0100
0000
,  // measure 57
0100
0000
0000
0000
,  // measure 58
0010
0000
0010
0000
,  // measure 59
0010
0000
0000
0000
,  // measure 60
0001
0000
0001
0000
,  // measure 61
0001
0000
0000
0000
,  // measure 62
1000
0000
1000
0000
,  // measure 63
1000
0000
0000
0000
,  // measure 64
0010
0000
0000
0000
,  // measure 65
0100
0000
0000
0000
,  // measure 66
0010
0000
0000
0000
,  // measure 67
0000
0000
0000
0000
,  // measure 68
1000
0000
0000
0000
,  // measure 69
0001
0000
0000
0000
,  // measure 70
1000
0000
0000
0000
,  // measure 71
0001
0000
0001
0000
,  // measure 72
0000
1001
0000
0000
;
