#VERSION:0.81;
#TITLE:Plan 8;
#SUBTITLE:;
#ARTIST:Ryu☆;
#TITLETRANSLIT:;
#SUBTITLETRANSLIT:;
#ARTISTTRANSLIT:Ryu*;
#GENRE:;
#ORIGIN:;
#CREDIT:;
#BANNER:[Jubeat] - Plan 8-bn.png;
#BACKGROUND:[Jubeat] - Plan 8-bg.png;
#PREVIEWVID:;
#JACKET:[Jubeat] - Plan 8-jacket.png;
#CDIMAGE:;
#DISCIMAGE:;
#LYRICSPATH:;
#CDTITLE:cdtitle.png;
#MUSIC:[Jubeat] - Plan 8.ogg;
#OFFSET:-0.465;
#SAMPLESTART:10.651;
#SAMPLELENGTH:12.000;
#SELECTABLE:YES;
#BPMS:0.000=212.000,
256.000=106.000,
288.000=212.000;
#STOPS:;
#DELAYS:;
#WARPS:;
#TIMESIGNATURES:0.000=4=4;
#TICKCOUNTS:0.000=4;
#COMBOS:0.000=1;
#SPEEDS:0.000=1.000=0.000=0;
#SCROLLS:0.000=1.000;
#FAKES:;
#LABELS:0.000=Song Start;
#BGCHANGES:;
#KEYSOUNDS:;
#ATTACKS:
;

//---------------dance-single - ----------------
#NOTEDATA:;
#CHARTNAME:;
#STEPSTYPE:dance-single;
#DESCRIPTION:;
#CHARTSTYLE:;
#DIFFICULTY:Hard;
#METER:10;
#RADARVALUES:0.792,0.779,0.534,0.319,0.072,588.000,67.000,40.000,0.000,0.000,3.000,0.000,0.000,0.792,0.779,0.534,0.319,0.072,588.000,67.000,40.000,0.000,0.000,3.000,0.000,0.000;
#CREDIT:;
#NOTES:
0000
0000
0000
0000
,
0000
0000
0000
0000
,
0000
0000
0000
0000
,
0000
0000
0000
0101
,
1001
0000
1000
0100
0010
0000
0010
0001
,
0100
1000
0100
0010
1000
0001
1000
0001
,
0010
0100
1000
0001
0010
0100
1000
0001
,
1000
0010
0100
0001
0010
0100
1000
0010
,
0400
0000
0000
0300
,
1010
0000
0000
0000
1001
0000
0000
0000
0001
0000
0010
0000
0011
0000
0000
0001
,
0100
0010
1000
0100
0010
0000
0011
0000
,
1100
0000
0000
0000
1001
0000
0000
0000
0001
0000
0100
0000
0101
0000
0000
0010
,
0100
0001
1000
0100
0010
0001
0010
0001
,
1001
0000
0000
0000
1010
0000
0000
0000
0010
0000
0100
0000
0101
0000
0000
0001
,
1000
0100
0010
0100
1000
0000
1001
0000
,
0001
0100
0001
1000
0001
0010
0100
1000
,
0010
0100
0001
1000
0100
0010
0200
0000
,
1300
0010
1000
0001
1000
0100
1000
1000
,
0001
0100
0001
1000
0001
0010
0100
1000
,
0001
0010
0001
1000
0001
0100
0001
0001
,
1000
0100
1000
0001
1000
0010
0101
0000
,
0110
0000
0010
1000
0001
1000
0100
0010
,
0100
0000
0100
0000
1000
0010
1000
0001
,
1000
0100
0010
0001
1000
0100
0010
0001
,
1000
0010
0001
0010
0100
0010
1000
0000
,
1001
0000
0101
0000
1010
0000
1000
0100
,
1100
0000
0011
0000
1000
0010
0100
0010
,
1010
0000
0101
0000
1001
0000
1000
0100
,
1100
0000
0011
0000
0001
0100
0010
1000
,
1001
0000
0101
0000
1100
0000
1000
0010
,
1010
0000
0101
0000
0010
1000
0001
1000
,
1100
0000
0011
0000
1001
0000
1000
0010
,
1000
0100
0001
0100
1000
0100
0010
0001
,
1000
0000
0010
0000
1000
0000
0000
0000
0001
0000
0000
0100
0000
0000
0010
0000
,
1000
0000
0001
0000
1000
0000
0000
0000
0001
0000
0010
0100
0000
0010
0100
0000
,
1000
0000
0001
0000
1000
0000
0000
0000
0010
0000
0000
0100
0000
0000
0001
0000
,
1000
0000
0100
0000
1000
0000
0000
0000
0001
0000
1000
0010
0000
1000
0010
0000
,
0100
0000
0001
0000
0100
0000
0000
0000
0010
0000
0000
1000
0000
0000
0001
0000
,
0010
0000
0100
0000
1000
0000
0000
0000
0010
0000
0100
0001
0000
0100
0001
0000
,
1000
0000
0100
0000
1000
0000
0000
0000
0010
0000
0000
0100
0000
0000
0001
0000
,
2000
0100
3010
0101
,
1001
1000
0001
0200
0000
0310
0100
0001
,
0010
1000
0010
1000
0010
0100
1000
0001
,
1000
0010
0100
0010
0001
0010
0100
1000
,
0100
0010
0100
0010
0100
0001
1001
0000
,
1100
0100
1000
0001
0010
0100
0010
0001
,
0100
1000
0100
0010
1000
0001
1000
0100
,
1000
0010
0100
0001
1000
0010
0100
0001
,
1000
0100
0010
0001
1000
0100
0010
0000
,
0011
0000
0000
0000
1001
0000
0000
0000
1000
0000
0010
0000
1010
0000
0000
0100
,
0001
0010
0100
0010
0001
0000
1001
0000
,
1010
0000
0000
0000
0101
0000
0000
0000
1000
0000
0100
0000
1100
0000
0000
1000
,
0010
0100
0001
0010
0100
1000
0100
1000
,
1001
0000
0000
0000
0101
0000
0000
0000
0010
0000
1000
0000
1010
0000
0000
1000
,
0100
0010
0100
1000
0001
0000
1001
0000
,
1010
0000
0000
0000
0110
0000
0000
0000
0100
0000
0001
0000
0101
0000
0000
0010
,
1000
0100
0001
0100
1000
0001
1000
0001
,
1000
0010
0001
0010
1000
0001
1000
0001
,
1000
0010
0001
0010
1000
0001
1000
0001
,
1000
0100
0010
0100
1000
0100
0010
0100
,
0010
0001
0010
0100
0010
0001
0010
0100
,
1000
0010
0100
0001
1000
0010
0100
0001
,
0010
1000
0010
0100
1000
0010
0200
0000
,
0340
0000
0000
0030
,
1002
0000
0023
0230
,
2300
0000
0000
0000
3020
0000
0130
0001
,
2001
0000
3200
0320
,
0032
0000
0000
1003
0010
0100
0001
1000
,
1002
0000
0023
0230
,
2300
0000
0000
0000
3002
0000
0103
0010
,
2010
0000
3002
0023
,
0230
0000
0000
2300
,
3001
0000
0100
0000
0001
0100
0010
1000
,
0001
1000
0100
0100
,
1000
0000
0010
0000
1000
0010
0100
0001
,
1000
0100
0010
0011
,
1000
0010
0100
0001
1000
0100
0010
0001
,
1000
0010
0100
0001
0010
0100
1000
0010
,
0100
0001
1000
0100
0001
0100
0010
0001
,
1000
0010
0001
0010
1000
0001
0010
0100
,
4000
0000
0000
3001
,
0102
0000
1003
0000
0001
0010
0100
1000
,
0020
0130
0101
1010
,
2001
0000
3100
0000
0010
0001
0100
0010
,
0200
0301
1001
1100
,
0012
0000
1003
0000
0010
0100
1000
0100
,
0020
0130
0101
1010
,
2100
0000
3001
0000
1000
0010
0001
0010
,
0200
0000
0302
0023
0230
0320
0032
0000
,
1003
0010
0100
0020
0000
1030
0100
1000
,
0001
0000
0100
0000
1000
0000
0100
0000
0001
0000
0000
0010
0000
0000
0100
0000
,
1000
0010
0001
0010
0100
0001
1000
0100
,
0010
0100
2000
0000
3010
0100
0001
1000
,
0001
0010
0001
0100
0001
1000
0010
0100
,
0010
1000
0100
0010
0100
1000
0010
0100
,
0001
0010
1000
0010
0001
0100
0010
1000
,
0100
0001
0100
1000
0100
0010
0001
0000
,
2002
0000
0000
3003
;

//---------------dance-single - ----------------
#NOTEDATA:;
#CHARTNAME:;
#STEPSTYPE:dance-single;
#DESCRIPTION:;
#CHARTSTYLE:;
#DIFFICULTY:Medium;
#METER:8;
#RADARVALUES:0.622,0.624,0.327,0.351,0.000,461.000,41.000,44.000,0.000,0.000,0.000,0.000,0.000,0.622,0.624,0.327,0.351,0.000,461.000,41.000,44.000,0.000,0.000,0.000,0.000,0.000;
#CREDIT:;
#NOTES:
// measure 0
0000
0000
0000
0000
,  // measure 1
0000
0000
0000
0000
,  // measure 2
0000
0000
0000
0000
,  // measure 3
0000
0000
0000
0101
,  // measure 4
2010
0001
0100
0010
,  // measure 5
0100
0000
3001
0000
1000
0100
0010
0100
,  // measure 6
1000
0001
1000
0000
0001
0100
0001
0000
,  // measure 7
1000
0010
1000
0010
0100
0001
0100
0001
,  // measure 8
2000
0000
0000
3000
,  // measure 9
0001
0101
1000
1100
,  // measure 10
0001
0100
0010
1000
0001
0000
1000
0000
,  // measure 11
0001
0011
1000
1010
,  // measure 12
0001
0100
0010
1000
0001
0010
0001
0010
,  // measure 13
0100
1100
1000
1001
,  // measure 14
0001
0100
0010
0100
0001
0000
1000
0000
,  // measure 15
0001
0010
0001
0000
1000
0100
1000
0000
,  // measure 16
0001
0100
0001
0100
0010
1000
0001
0000
,  // measure 17
2000
0000
0100
0000
3100
0000
1000
0001
,  // measure 18
2000
0000
3010
0000
1000
0010
0100
0000
,  // measure 19
0002
0000
0010
0000
0013
0000
0001
1000
,  // measure 20
0002
0000
0103
0000
0010
1000
0001
0000
,  // measure 21
2000
0100
0010
3001
,  // measure 22
1000
0000
0010
0000
1000
0010
0100
0000
,  // measure 23
0001
1000
0001
0000
1000
0001
1000
0000
,  // measure 24
0001
0010
0001
0010
0100
1000
0001
0000
,  // measure 25
1001
0000
1001
0000
1010
0000
0010
0100
,  // measure 26
0001
0000
1001
0000
1000
0100
0010
0000
,  // measure 27
0011
0000
0011
0000
1001
0000
1000
0010
,  // measure 28
0100
0000
0101
0000
0001
0010
0100
0000
,  // measure 29
1100
0000
1100
0000
1001
0000
0001
0100
,  // measure 30
0010
0000
1010
0000
1000
0100
1000
0000
,  // measure 31
1001
0000
1001
0000
0101
0000
0010
1000
,  // measure 32
0002
0010
0100
1003
,  // measure 33
0001
0100
0001
0000
1000
0000
0100
0000
,  // measure 34
0010
0001
0010
0000
0001
0000
1000
0000
,  // measure 35
0010
1000
0010
0000
0100
0000
0001
0000
,  // measure 36
1000
0100
1000
0000
0001
0000
1000
0000
,  // measure 37
1010
0000
0101
0000
0001
1000
0001
0000
,  // measure 38
0011
0000
1100
0000
1000
0001
1000
0000
,  // measure 39
1001
0000
1010
0000
0010
0100
0001
0000
,  // measure 40
2000
0000
3200
0000
1300
0001
2000
0000
,  // measure 41
3001
0100
0000
0010
0000
1000
0000
0001
,  // measure 42
0000
1000
0000
0100
0000
0010
0000
0001
,  // measure 43
0000
1000
0000
0010
0000
1000
0000
0001
,  // measure 44
0000
0010
0000
0100
0000
1000
0001
0000
,  // measure 45
1000
0010
0000
0100
0000
0001
0000
1000
,  // measure 46
0000
0001
0000
0010
0000
0100
0000
1000
,  // measure 47
0001
0100
0001
0000
1000
0100
1000
0000
,  // measure 48
0001
0100
0001
0100
0010
1000
0001
0000
,  // measure 49
1000
1100
0001
0101
,  // measure 50
1000
0100
0010
0001
1000
0000
0001
0000
,  // measure 51
1000
1010
0001
0011
,  // measure 52
1000
0010
0100
0001
1000
0100
1000
0100
,  // measure 53
0010
0011
0001
1001
,  // measure 54
1000
0010
0100
0001
1000
0000
0001
0000
,  // measure 55
1000
1100
1000
1001
,  // measure 56
0001
0100
0001
0100
0020
0000
2030
0000
,  // measure 57
3001
0100
0001
0100
0020
0000
2030
0000
,  // measure 58
3001
0100
0001
0100
0020
0000
2030
0000
,  // measure 59
3001
0100
0001
0000
1000
0100
1000
0000
,  // measure 60
0001
0100
0001
0000
1000
0100
1000
0000
,  // measure 61
0001
0010
0001
0010
0100
1000
0100
1000
,  // measure 62
0001
0100
0001
0100
0010
1000
0001
0000
,  // measure 63
2000
0000
0000
3000
,  // measure 64
0002
0000
0023
0230
,  // measure 65
2300
0000
0000
0000
3002
0000
0103
0010
,  // measure 66
2000
0000
3002
0023
,  // measure 67
0230
0000
0000
0000
1300
0001
1000
0010
,  // measure 68
0200
0000
0302
2003
,  // measure 69
3200
0000
0000
0000
0320
0000
0031
1000
,  // measure 70
0002
0000
2003
3020
,  // measure 71
0200
0000
0000
0330
,  // measure 72
0001
0000
0001
0000
1000
0100
1000
0000
,  // measure 73
0001
0001
1000
0001
,  // measure 74
1000
0000
1000
0000
0001
0100
0001
0000
,  // measure 75
1000
1000
0001
1000
,  // measure 76
0001
0010
0001
0000
0001
1000
0001
0000
,  // measure 77
1000
0010
1000
0000
1000
0001
1000
0000
,  // measure 78
0001
0100
0001
0000
1000
0100
1000
0000
,  // measure 79
0001
0010
0001
0010
0100
1000
0100
1000
,  // measure 80
0002
0000
0000
0003
,  // measure 81
1000
0000
0010
0000
1000
0010
0100
0000
,  // measure 82
0002
0000
1003
1000
,  // measure 83
0001
0000
0010
0000
0001
0010
0100
0000
,  // measure 84
2000
0000
3001
0100
,  // measure 85
0001
0000
0001
0000
1000
0100
0010
0000
,  // measure 86
0200
0000
1300
0010
,  // measure 87
1000
0000
1000
0000
0001
0100
0010
0000
,  // measure 88
0110
1010
2002
3003
,  // measure 89
0001
0000
1000
0100
0000
1000
0001
1000
,  // measure 90
0001
0100
0010
1000
,  // measure 91
0001
0010
0100
0000
0010
0000
0001
0000
,  // measure 92
1000
0010
0100
0000
0001
0000
1000
0000
,  // measure 93
0001
0010
0001
0000
0001
1000
0001
0000
,  // measure 94
1000
0010
1000
0000
1000
0001
1000
0000
,  // measure 95
0001
0100
0001
0000
1000
0100
1000
0000
,  // measure 96
0001
0100
0010
1000
0001
0000
1000
0000
,  // measure 97
2002
0000
0000
3003
;

//---------------dance-single - ----------------
#NOTEDATA:;
#CHARTNAME:;
#STEPSTYPE:dance-single;
#DESCRIPTION:;
#CHARTSTYLE:;
#DIFFICULTY:Easy;
#METER:5;
#RADARVALUES:0.396,0.390,0.016,0.159,0.000,326.000,2.000,20.000,0.000,0.000,0.000,0.000,0.000,0.396,0.390,0.016,0.159,0.000,326.000,2.000,20.000,0.000,0.000,0.000,0.000,0.000;
#CREDIT:;
#NOTES:
0000
0000
0000
0000
,
0000
0000
0000
0000
,
0000
0000
0000
0000
,
0000
0000
0000
0001
,
1000
0010
1000
0010
,
1000
0001
1000
0001
,
0010
0010
0010
0010
,
0100
0100
0100
0100
,
2000
0000
0000
3000
,
0001
0100
0010
0100
,
0001
1000
0001
0000
,
1000
0100
0010
0100
,
1000
0001
1000
1000
,
0001
0100
0010
0100
,
0001
1000
0001
0000
,
1000
0100
0010
0100
,
1000
0001
1000
0010
,
2000
0000
0000
3000
,
0200
0000
0000
0300
,
0020
0000
0000
0030
,
0002
0000
0000
1003
,
0001
0100
0001
0100
,
0001
1000
0001
1000
,
0100
0100
0100
0100
,
0010
0010
0010
0010
,
0001
1000
0001
0000
,
1000
0001
1000
0100
,
1000
0010
1000
0000
,
0001
0100
0001
1000
,
0001
0010
0001
0000
,
1000
0100
1000
0001
,
1000
0010
1000
0000
,
0010
0100
0010
1000
,
0001
0001
0001
0000
,
1000
1000
0100
1000
,
0010
0010
0010
0000
,
0100
0100
0001
0100
,
0001
0001
0001
0000
,
1000
1000
0100
1000
,
0010
0010
0010
0000
,
2000
0000
0000
3000
,
0001
0010
0100
1000
,
0001
0100
0010
1000
,
0001
0010
0100
0010
,
0001
0100
0010
0100
,
0001
0010
0100
1000
,
0010
0100
0001
1000
,
0001
0001
0010
0010
,
0100
0100
1000
1000
,
0001
0100
0001
0100
,
0010
1000
0001
0000
,
1000
0100
1000
0100
,
0010
0001
1000
1000
,
0001
0100
0001
0100
,
0010
0100
0001
0000
,
1000
0100
1000
0100
,
0010
0001
1000
1000
,
0010
0100
0001
0001
,
0010
0100
1000
1000
,
0001
0001
0100
0100
,
0010
0010
1000
1000
,
0001
0010
0001
0010
,
0100
1000
0100
1000
,
0002
0000
0000
0003
,
2001
0000
3100
0010
,
0002
0000
0000
0000
1003
0000
0010
0100
,
0002
0000
1003
0100
,
0020
0000
0000
0000
0130
1000
0100
0000
,
2000
0000
3010
0100
,
0002
0000
0000
0000
1003
0000
0001
0010
,
0200
0000
1300
0001
,
2000
0000
0000
3000
,
0001
0100
0001
0100
,
0001
1000
0001
1000
,
0100
1000
0100
1000
,
0001
1000
0001
1000
,
0010
0010
0010
0010
,
0100
0100
0100
0100
,
0001
0001
0001
0001
,
1000
1000
1000
1000
,
2000
0000
0000
3000
,
0001
0010
0001
0010
,
0100
0000
1000
0001
,
1000
0010
1000
0010
,
0100
0000
0001
0001
,
1000
0100
0010
0100
,
1000
0000
0001
1000
,
0001
0100
0010
0100
,
0002
0003
2000
3000
,
0001
0010
0100
1000
,
0001
0100
0010
1000
,
0001
0001
0010
0010
,
0100
0100
1000
1000
,
0001
0100
0001
0100
,
0010
1000
0010
1000
,
0001
0010
0001
0010
,
0100
1000
0001
0000
,
2002
0000
0000
3003
;
