#TITLE:HEAVENLY MOON;
#SUBTITLE:;
#ARTIST:Tatsh;
#TITLETRANSLIT:;
#SUBTITLETRANSLIT:;
#ARTISTTRANSLIT:;
#GENRE:;
#CREDIT:;
#BANNER:[Jubeat] - HEAVENLY MOON-bn.png;
#BACKGROUND:[Jubeat] - HEAVENLY MOON-bg.png;
#LYRICSPATH:;
#CDTITLE:cdtitle.png;
#MUSIC:[Jubeat] - HEAVENLY MOON.ogg;
#OFFSET:-1.043;
#SAMPLESTART:69.797;
#SAMPLELENGTH:12.000;
#SELECTABLE:YES;
#DISPLAYBPM:185.000;
#BPMS:0.000=185.000
,101.000=240.000
,102.000=185.000
,132.000=240.000
,133.000=185.000
,329.000=240.000
,330.000=185.000
;
#STOPS:6.000=0.324,
21.000=0.324,
101.000=0.019,
101.250=0.019,
101.500=0.019,
101.750=0.018,
132.000=0.019,
132.250=0.019,
132.500=0.019,
132.750=0.018,
329.000=0.019,
329.250=0.019,
329.500=0.019,
329.750=0.018
;
#BGCHANGES:;
#KEYSOUNDS:;
#ATTACKS:;

//---------------dance-single - ----------------
#NOTES:
     dance-single:
     :
     Hard:
     9:
     0.662,0.693,0.331,0.116,0.153,506.000,40.000,14.000,0.000,0.000,0.000,0.662,0.693,0.331,0.116,0.153,506.000,40.000,14.000,0.000,0.000,0.000: // measure 0
0000
0000
0000
0000
,  // measure 1
0000
0000
0000
0000
,  // measure 2
0000
0000
0000
0000
,  // measure 3
0000
0000
0000
0000
0000
0000
0001
0100
,  // measure 4
0001
1000
0001
0010
0001
1000
0001
0100
,  // measure 5
0010
1000
0001
0000
1000
0100
2000
0000
,  // measure 6
3002
0000
0000
0000
1003
0000
0010
0000
1010
0000
0000
0101
0000
0000
1001
0000
,  // measure 7
1000
0100
0001
0100
1000
0000
0010
0000
,  // measure 8
0100
0001
0010
0100
,  // measure 9
0010
0001
0010
0100
1000
0000
0010
0000
,  // measure 10
0100
0001
1000
0100
,  // measure 11
0010
0001
0010
0000
0001
0000
0100
0000
,  // measure 12
0010
1000
0010
0000
1000
0000
0100
0000
,  // measure 13
0001
0100
1000
0010
,  // measure 14
0100
0000
0001
1000
0001
0000
0010
0000
,  // measure 15
0100
0000
1000
0001
2000
0000
0000
0000
,  // measure 16
0000
0000
3000
0000
,  // measure 17
0000
0000
0000
0000
0000
0000
0000
0000
0001
0000
0000
0100
0010
0000
1000
0000
,  // measure 18
0001
0000
0000
0010
0100
0000
1000
0000
0001
0000
0000
0100
0000
0000
0001
0000
,  // measure 19
1000
0000
0000
0100
0000
0000
1000
0000
0010
0000
0000
0100
0001
0000
1000
0000
,  // measure 20
0100
0000
0000
0010
0001
0000
1000
0000
0010
0000
0000
0001
0000
0000
0010
0000
,  // measure 21
0100
0000
1000
0000
0100
0000
0010
0000
1000
0000
0000
0100
0010
0000
0001
0000
,  // measure 22
1000
0000
0000
0010
0100
0000
0001
0000
1000
0000
0000
0100
0000
0000
1000
0000
,  // measure 23
0001
0000
0000
0100
0000
0000
0001
0000
0010
0000
0100
0000
1000
0000
0000
0000
,  // measure 24
0001
0000
0010
0000
0100
1000
0100
1000
0001
0000
0100
0000
1000
0000
0100
0000
,  // measure 25
0010
0000
1000
0000
0001
0010
0001
0010
0001
0000
0000
0000
1000
0000
0010
0000
,  // measure 26
0000
1000
0001
0010
0001
0000
1000
0100
,  // measure 27
0000
1000
0001
0100
0010
0000
1000
0100
,  // measure 28
0000
0010
0001
1000
0010
0001
0010
1000
,  // measure 29
0100
0001
0100
1000
0001
0100
0010
0100
,  // measure 30
0000
0010
1000
0000
0001
0010
0100
0010
,  // measure 31
0000
0100
1000
0001
0100
1000
0100
0001
,  // measure 32
0100
0010
1000
0001
1000
0100
0010
0100
,  // measure 33
1000
0001
1000
0001
1000
0000
0010
0000
0100
0000
0000
0000
0000
0000
0000
0000
,  // measure 34
0000
0000
0000
0000
1010
0000
0010
1000
,  // measure 35
0000
1000
0001
0000
0011
0000
0010
0001
,  // measure 36
0000
0001
0100
0000
1010
0000
1000
0100
,  // measure 37
0000
0100
0010
0000
0011
0001
0100
0010
,  // measure 38
0000
0010
1000
0000
1001
0000
0001
0010
,  // measure 39
0000
0010
0100
0000
1001
0000
1000
0010
,  // measure 40
0000
0010
0100
0000
0101
0000
0001
0100
,  // measure 41
0000
0001
1000
0000
0100
0010
0100
1000
,  // measure 42
0000
0000
0011
0000
1001
0000
1000
0010
,  // measure 43
0000
0010
1000
0000
0001
0010
0100
0010
,  // measure 44
0001
0010
1000
0010
0002
0000
0100
0000
,  // measure 45
0010
1003
2000
0100
,  // measure 46
0010
0000
3001
0000
1000
0010
0001
0010
,  // measure 47
0100
1000
0100
0010
0001
0010
1000
0001
,  // measure 48
1000
0100
0001
0100
0010
1000
0010
0100
,  // measure 49
0001
0100
1000
0001
1000
0010
0001
0010
,  // measure 50
1000
0100
0010
0100
1000
0001
1000
0001
,  // measure 51
1000
0000
0001
0000
1000
0010
1000
0010
2000
0000
0000
0000
0000
0000
0000
0000
,  // measure 52
0000
3000
0001
0101
,  // measure 53
1000
0000
0000
0100
0000
0000
1000
0000
0001
0000
0000
0000
1001
0000
0000
0000
,  // measure 54
1000
0000
0010
0000
0100
0001
0100
0000
0001
0000
0000
0000
1100
0000
0000
0000
,  // measure 55
1000
0000
0000
0010
0000
0000
1000
0000
0100
0000
0000
0000
0011
0000
0000
0000
,  // measure 56
0001
0000
0100
0000
0010
0100
0010
0000
1000
0000
0000
0000
1001
0000
0000
0000
,  // measure 57
0001
0000
0000
0010
0000
0000
0100
0000
0010
0000
0000
0000
0011
0000
0000
0000
,  // measure 58
0001
0000
1000
0000
0010
0000
1000
0001
1000
0000
0100
0000
1100
0000
0000
0000
,  // measure 59
1000
0010
1000
0001
0100
1000
0100
0001
,  // measure 60
0010
0100
0010
0001
1000
0010
0100
0001
,  // measure 61
0100
0010
1000
0100
0010
0001
0010
0100
,  // measure 62
1000
0010
0001
0010
1000
0001
0010
0100
,  // measure 63
0000
1000
0001
1000
0010
0100
1000
0100
,  // measure 64
0001
0000
1000
0000
0100
0010
0100
0000
1000
0000
0001
0000
0100
0000
0001
0000
,  // measure 65
1000
0100
1000
0001
0010
0001
1000
0010
,  // measure 66
1000
0000
0100
0000
0010
0000
0001
1000
0001
0000
0100
0000
0010
0000
1000
0000
,  // measure 67
0100
0000
0001
0000
0100
0000
1000
0000
0001
0100
0001
0000
1000
0100
1000
0000
,  // measure 68
0001
0000
0100
0000
0010
1000
0010
1000
0001
0000
0000
0000
1001
0000
0000
0000
,  // measure 69
1100
0000
1000
0010
0000
1000
0010
1000
,  // measure 70
0001
0010
1000
0010
0001
0000
1001
0000
,  // measure 71
0101
0000
1010
0000
1001
0000
1100
1000
,  // measure 72
0100
0000
0010
0000
0001
1000
0001
1000
0001
0000
0000
0000
1010
0000
0000
0000
,  // measure 73
1100
0000
0010
0001
1000
0010
0001
1000
,  // measure 74
0100
0001
1000
0001
0020
0000
0000
0000
,  // measure 75
0000
0030
0200
0000
,  // measure 76
1300
0000
0001
0000
0100
0000
0001
1000
0001
0000
0010
0000
0100
0000
1000
0000
,  // measure 77
0001
0010
0100
1000
0001
0010
0100
1000
,  // measure 78
0001
0010
0100
1000
0001
0100
0010
1000
,  // measure 79
0001
0100
0010
1000
0001
0010
0100
1000
,  // measure 80
0010
0100
0001
1000
1100
0000
0000
0011
,  // measure 81
0000
2002
0000
0000
,  // measure 82
3003
0000
0000
0000
0010
1000
0010
1000
0010
0000
0000
0000
0000
0000
0101
0000
,  // measure 83
0000
2002
0000
0000
,  // measure 84
0000
3003
1010
1001
,  // measure 85
0101
1001
1100
1001
,  // measure 86
0001
1000
2002
0000
0000
0000
0000
0000
,  // measure 87
0000
0000
0000
0000
,  // measure 88
0000
3003
0000
0000
;

//---------------dance-single - ----------------
#NOTES:
     dance-single:
     :
     Medium:
     7:
     0.544,0.584,0.405,0.116,0.000,397.000,49.000,14.000,0.000,0.000,0.000,0.544,0.584,0.405,0.116,0.000,397.000,49.000,14.000,0.000,0.000,0.000:
0000
0000
0000
0000
,
0000
0000
0000
0000
,
0000
0000
0000
0000
,
0000
0000
0000
0001
,
0100
0000
0001
1000
0001
0000
1000
0100
,
1000
0010
0100
0000
0010
1000
0001
0000
,
1001
1100
1000
0001
,
1000
0010
0100
0001
1000
0000
0001
0000
,
0100
0001
1000
0100
,
0010
0100
1000
0000
0001
0000
1000
0000
,
0010
1000
0001
0010
,
0100
0000
1000
0001
1000
0000
0010
0000
,
0001
0010
1000
0100
,
0010
0100
1000
0010
,
0100
0000
0001
1000
0001
0000
0010
0000
,
0100
1000
0002
0000
,
0000
0000
0003
0000
,
0000
0000
0000
0000
1000
0000
0010
0100
,
0001
0000
1000
0010
0100
0000
0100
0000
,
0010
0000
1000
0000
0001
0000
0010
0100
,
1000
0000
0001
0010
0100
0000
1000
0000
,
0001
0100
0010
0100
0001
0000
1000
0100
,
0010
0000
0001
1000
0100
0000
0010
0000
,
0100
0000
1000
0000
0001
1000
0001
0000
,
1000
0001
1000
0010
0100
0001
0100
0000
,
0010
0000
2000
0000
3001
0000
0010
0100
,
0000
1000
0001
0000
1000
0000
0010
0100
,
0000
0001
1000
0000
0001
0000
1000
0100
,
0000
0010
0001
0000
1000
0010
0100
0010
,
1000
0001
0100
0001
1000
0000
0100
0010
,
0000
0001
1000
0000
0001
0000
0100
0010
,
0000
1000
0001
1000
0100
0000
1100
0000
,
1000
0000
1001
0000
0001
0100
0001
1000
,
0100
1000
0010
0100
0001
0000
0000
0000
,
0000
0000
0000
0000
1001
0000
1000
0010
,
0000
0010
1000
0000
1001
0000
0001
0010
,
0000
0010
0100
0000
1100
0000
1000
0010
,
0000
0010
0100
0000
0101
0000
0001
0010
,
0000
0010
0100
1000
0001
0000
0001
0100
,
0000
0100
0010
0000
1010
0000
1000
0100
,
0000
0100
0010
0000
0011
0000
0001
0100
,
0000
0001
0100
0000
0010
0100
0001
1000
,
0000
0001
0010
0000
1100
0000
0000
0011
,
0000
1001
1000
0010
,
0100
0001
1000
0000
0002
0000
0000
0000
,
0010
0003
2000
0000
,
0100
0000
3000
0000
1000
0010
1000
0000
,
0001
0100
0001
0000
1000
0100
1000
0000
,
0001
0010
0001
0000
1000
0010
0100
0000
,
0001
0010
0100
0000
1000
0010
0100
0001
,
1000
0100
0010
0001
1001
0000
1010
0000
,
1001
0101
0220
0000
,
0000
0330
0010
1010
,
0101
0000
1000
0100
0010
0000
0011
0000
,
1001
0000
0001
0100
0010
0000
1010
0000
,
1100
0000
1000
0001
0100
0000
0101
0000
,
0010
0100
0001
1000
0001
0000
0011
0000
,
1100
0000
1000
0010
0100
0000
0101
0000
,
1001
0000
1000
0100
0010
0000
0011
0000
,
0001
0000
1001
0000
1000
0010
0100
0001
,
1000
0100
0010
0100
1000
0000
0001
0100
,
0000
0010
0100
0000
0010
1000
0000
1000
,
0001
0010
0100
1000
0001
0000
1000
0010
,
0000
1000
0001
1000
0001
0000
0010
0000
,
0100
1000
0001
1000
0001
0000
1000
0010
,
0000
0100
0001
0000
1000
0100
0000
0010
,
0100
0000
1000
0001
1000
0000
0010
0000
,
0100
0000
0001
0000
1000
0100
1000
0000
,
0001
0100
0001
1000
0001
0000
1001
0000
,
1100
0000
1000
0010
0000
0100
0001
0000
,
1000
0000
0001
0010
0100
0000
1100
0000
,
1001
0101
1001
1000
,
0001
0010
0100
0010
0001
0000
0011
0000
,
1001
0000
1000
0010
0100
0000
0101
0000
,
1001
1100
0002
0000
,
0000
0003
2000
0000
,
3010
0000
0100
0001
1000
0100
0010
0000
,
0001
1000
0100
0000
0010
0001
1000
0000
,
0100
0010
0001
0000
1000
0010
0100
0000
,
0001
1000
0010
0000
0100
0001
1000
0000
,
0010
0100
0001
1000
0001
0000
0000
0100
,
0000
2020
0000
0000
,
3030
0000
1000
0001
1000
0000
0000
0100
,
0000
0022
0000
0000
,
0000
0033
0100
1001
,
0010
1001
0100
1001
,
0110
2002
0000
0000
,
0000
0000
0000
0000
,
0000
3003
0000
0000
;

//---------------dance-single - ----------------
#NOTES:
     dance-single:
     :
     Easy:
     4:
     0.338,0.365,0.199,0.149,0.000,244.000,24.000,18.000,0.000,0.000,0.000,0.338,0.365,0.199,0.149,0.000,244.000,24.000,18.000,0.000,0.000,0.000:
0000
0000
0000
0000
,
0000
0000
0000
0000
,
0000
0000
0000
0000
,
0000
0000
0000
0001
,
0100
0001
1000
0001
,
0010
0001
1000
0010
,
1000
0000
0101
0000
,
1001
0000
1000
0100
,
1000
0100
0010
0000
,
0001
0000
1000
0010
,
1000
0010
0100
0000
,
0001
1000
0001
0000
,
1000
0100
0010
0000
,
0001
0000
1001
0000
,
1000
0001
0100
0000
,
0010
0100
0002
0000
,
0000
0000
0003
0000
,
0000
0000
1000
0100
,
1100
0000
1000
0100
,
0010
0001
0100
0010
,
1010
0000
1000
0001
,
1000
0100
0010
0001
,
1000
0000
0010
0100
,
0001
1000
0100
0010
,
0001
1000
0001
0100
,
0010
1000
0001
0000
,
1000
0100
1000
0000
,
0001
0100
0001
0000
,
1000
0100
1000
0010
,
0100
0001
1000
0000
,
0001
0010
0001
0000
,
1000
0010
1000
0001
,
1000
0001
1000
0100
,
0010
0001
1000
0000
,
0000
0000
0001
0000
,
0101
0000
1000
0000
,
1100
0000
0001
0000
,
0101
0000
1000
0100
,
0010
0001
1000
0000
,
1010
0000
0001
0000
,
0011
0000
1000
0000
,
1010
0000
0001
0010
,
0100
1000
0010
0000
,
0100
0000
0220
0000
,
0000
0330
0002
0000
,
0000
0003
2000
0000
,
0000
3000
0001
0010
,
0100
1000
0001
0010
,
0100
1000
0001
0100
,
0010
1000
0001
0100
,
0010
0100
0001
1000
,
0001
1000
2002
0000
,
0000
3003
0001
0100
,
0001
0000
1000
0100
,
1000
0001
1000
0010
,
1000
0000
0001
0010
,
0001
1000
0001
0100
,
0010
0000
1000
0100
,
0010
0100
1000
0010
,
0100
0000
0001
0010
,
0100
0010
0001
0000
,
0101
0000
1000
0000
,
1100
0100
1000
0000
,
1001
0000
0001
0100
,
0001
0010
0001
0000
,
0101
0000
1000
0000
,
1010
0000
2002
0000
,
0000
3003
0001
0100
,
0001
0100
0010
1000
,
0001
0000
1000
0100
,
0010
0100
1000
0010
,
0100
0001
1000
0010
,
0100
0010
1000
0001
,
1000
0010
1000
0001
,
1000
0100
0020
0000
,
0000
0030
0002
0003
,
2000
3000
0001
0100
,
0010
1000
0001
0100
,
0010
1000
0001
0010
,
0100
1000
0001
0010
,
0100
1000
0001
0000
,
1010
0000
2002
0000
,
0000
3003
1000
0000
,
0011
0000
2002
0000
,
0000
3003
0001
0100
,
0010
0100
0001
1000
,
0001
2002
0000
0000
,
0000
0000
0000
0000
,
0000
3003
0000
0000
;
