#VERSION:0.81;
#TITLE:Fly On the Wall;
#SUBTITLE:;
#ARTIST:Miley Cyrus;
#TITLETRANSLIT:;
#SUBTITLETRANSLIT:;
#ARTISTTRANSLIT:;
#GENRE:Teen Pop;
#ORIGIN:;
#CREDIT:;
#BANNER:[Jubeat] - Fly On the Wall.png;
#BACKGROUND:[Jubeat] - Fly On the Wall-bg.png;
#PREVIEWVID:;
#JACKET:[Jubeat] - Fly On the Wall-jacket.png;
#CDIMAGE:;
#DISCIMAGE:;
#LYRICSPATH:;
#CDTITLE:;
#MUSIC:[Jubeat] - Fly On the Wall.mp3;
#OFFSET:-0.038934;
#SAMPLESTART:33.139999;
#SAMPLELENGTH:15.000000;
#SELECTABLE:YES;
#DISPLAYBPM:144.000000;
#BPMS:0.000=144.040;
#STOPS:;
#DELAYS:;
#WARPS:;
#TIMESIGNATURES:0.000=4=4;
#TICKCOUNTS:0.000=4;
#COMBOS:0.000=1;
#SPEEDS:0.000=1.000=0.000=0;
#SCROLLS:0.000=1.000;
#FAKES:;
#LABELS:0.000=Song Start;
#BGCHANGES:-0.500=[Jubeat] - Fly On the Wall.avi=1.000=0=0=0=StretchNoLoop====,
99999=-nosongbg-=1.000=0=0=0 // don't automatically add -songbackground-
;
#KEYSOUNDS:;
#ATTACKS:
;

//---------------dance-single - ----------------
#NOTEDATA:;
#CHARTNAME:;
#STEPSTYPE:dance-single;
#DESCRIPTION:;
#CHARTSTYLE:;
#DIFFICULTY:Hard;
#METER:7;
#RADARVALUES:0.450974,0.448495,0.243582,0.058460,0.014615,293.000000,25.000000,6.000000,0.000000,0.000000,0.000000,0.000000,0.000000,0.450974,0.448495,0.243582,0.058460,0.014615,293.000000,25.000000,6.000000,0.000000,0.000000,0.000000,0.000000,0.000000;
#CREDIT:RIME;
#DISPLAYBPM:144.000000;
#NOTES:
0000
0000
0000
0000
,
0000
0000
0000
0000
,
0000
0000
0000
0000
,
0000
0000
0000
0000
0000
0000
0010
1000
,
0001
0100
0001
0000
0000
0000
0000
1000
,
0001
0100
0001
0000
0000
0000
0000
0001
,
1000
0100
1000
0000
0000
0000
0001
0001
,
1000
0100
1000
0000
0000
0010
1000
0100
,
1000
0010
0100
0000
0001
0100
1000
0000
,
0001
0010
0100
0000
1000
0100
0001
0000
,
1010
0101
0011
1100
,
1001
0000
0000
0000
1000
0100
0010
0001
,
1001
0000
0000
0000
0110
0000
0000
1000
,
0001
1000
0001
0000
0001
0010
0100
1000
,
1001
0000
0000
0000
0110
0000
0000
0001
,
1000
0001
1000
0000
1000
0001
0100
0010
,
1000
1010
0100
0101
,
0010
0010
0011
0000
1000
1000
1100
0000
,
1000
0010
1000
0001
0010
0001
1000
0000
,
0001
0100
0001
1000
0100
1000
0001
1000
,
0000
0001
1000
0100
0010
0100
0010
0100
,
1000
0001
0100
0001
0000
0000
0000
0001
,
1000
1000
0100
1000
0010
0010
1000
0010
,
1000
0001
0100
0001
0000
0000
0000
1001
,
0000
1000
0010
0100
0001
1000
0001
0000
,
0000
0001
0100
0010
1000
0000
0000
0110
,
0000
0010
1000
0100
0001
0100
0010
0001
,
0010
0010
0001
0100
0000
0000
0000
0001
,
0010
0010
0001
0010
0000
0000
0100
0000
,
0100
0100
0100
0110
,
1000
1000
0100
1000
0000
0000
0100
0000
,
0100
0100
0100
0110
,
0010
0010
0001
0010
0000
0000
0010
0000
,
0010
0010
0010
0110
,
1000
1000
0100
1000
0000
0000
0010
0000
,
0010
0010
0010
0010
,
0000
0000
0000
0000
,
0000
0000
0000
0000
0000
0000
1000
0001
,
0100
0001
0100
0000
0000
0000
0000
0000
,
0000
0000
0000
0000
0000
0000
0000
0001
,
1000
0100
1000
0100
0000
0000
0000
0000
,
0000
0000
0000
0000
0000
1000
0001
0100
,
0001
0100
0001
0000
0101
0000
0000
0000
,
0010
0000
0000
0000
0010
0000
0000
0000
0100
0001
0100
0001
0100
0001
0100
0000
,
0000
0000
0010
0000
1000
1000
0100
0000
,
0010
0001
0010
0001
0000
1000
0000
1001
,
0000
0000
0010
0000
0001
0001
0100
0000
,
0010
1000
0010
1000
0000
0001
0000
0000
,
0000
1001
0000
0000
1000
1000
0100
0000
,
0010
0001
0010
0001
0000
1000
0000
0100
,
0020
0032
0203
2300
,
3010
0010
0010
0010
0000
1100
0000
1000
,
0000
0001
1000
0100
0010
0100
0010
0100
,
1000
0001
0100
0001
0000
0000
0000
0001
,
1000
1000
0100
1000
0010
0010
1000
0010
,
1000
0001
0100
0001
0000
0000
0000
1001
,
0000
1000
0010
0100
0001
1000
0001
0000
,
0000
0001
0100
0010
1000
0000
0000
0110
,
0000
0010
0100
0001
1000
0100
0001
0100
,
0010
0010
0001
0100
0000
0000
0000
0001
,
0010
0010
0001
0020
0030
0000
0000
0200
,
1300
1000
0100
1100
0000
0000
0000
0000
;

//---------------dance-single - Blank----------------
#NOTEDATA:;
#CHARTNAME:;
#STEPSTYPE:dance-single;
#DESCRIPTION:Blank;
#CHARTSTYLE:;
#DIFFICULTY:Easy;
#METER:3;
#RADARVALUES:0.215744,0.329566,0.155892,0.048716,0.000000,134.000000,16.000000,5.000000,0.000000,0.000000,0.000000,0.000000,0.000000,0.215744,0.329566,0.155892,0.048716,0.000000,134.000000,16.000000,5.000000,0.000000,0.000000,0.000000,0.000000,0.000000;
#CREDIT:RIME;
#DISPLAYBPM:144.000000;
#NOTES:
0000
0000
0000
0000
,
0000
0000
0000
0000
,
0000
0000
0000
0000
,
0000
0000
0000
0010
,
1000
1000
0000
0000
,
0100
0100
0000
0000
,
0010
0010
0000
0010
,
0001
0001
0000
0001
,
1000
0000
1000
0000
,
1001
0000
0001
0000
,
0200
0320
2030
3002
,
0103
0000
0001
0001
,
1000
0000
1000
0000
,
0100
0010
0001
0001
,
1000
0000
1000
0000
,
0010
0100
0001
0001
,
1000
0001
1000
0000
,
0001
1000
0001
0000
,
1000
0100
0010
0001
,
0010
0100
1000
0000
,
1001
0000
0000
0000
,
0110
0000
0000
0000
,
1001
0000
0000
0000
,
0110
0000
0000
0000
,
0011
0000
0000
0000
,
1100
0000
0000
0000
,
1010
0000
0000
0000
,
0101
0000
0000
0000
,
0001
0001
0001
0000
,
0010
0010
0010
0000
,
1000
1000
1000
0000
,
0010
0010
0010
0000
,
0001
0001
0001
0000
,
0100
0100
0100
0000
,
1000
1000
1000
0000
,
0100
0010
0100
0020
,
0030
0000
0000
0000
,
0000
0000
0000
1000
,
1000
0000
0000
0000
,
0000
0000
0000
0001
,
0001
0000
0000
0000
,
0000
0000
0000
0100
,
0100
0000
0000
0000
,
0010
0010
0010
0010
,
0010
1000
0100
1000
,
0010
0100
0001
0000
,
0010
0001
0100
0001
,
0010
0100
1000
0000
,
0010
1000
0001
1000
,
0010
0100
0010
0000
,
1000
0001
1000
0001
,
1000
0000
0000
0000
,
1001
0000
0001
0000
,
1000
0000
0000
0000
,
1001
0000
1000
0000
,
0001
0000
0000
0000
,
0110
0000
0010
0000
,
0100
0000
0000
0000
,
0110
0000
0100
0000
,
0010
0000
0000
0000
,
0100
0100
0100
0000
,
0110
0110
0110
0000
;

//---------------dance-single - Blank----------------
#NOTEDATA:;
#CHARTNAME:;
#STEPSTYPE:dance-single;
#DESCRIPTION:Blank;
#CHARTSTYLE:;
#DIFFICULTY:Beginner;
#METER:1;
#RADARVALUES:0.094649,0.148585,0.058460,0.048716,0.000000,57.000000,6.000000,5.000000,0.000000,0.000000,0.000000,0.000000,0.000000,0.094649,0.148585,0.058460,0.048716,0.000000,57.000000,6.000000,5.000000,0.000000,0.000000,0.000000,0.000000,0.000000;
#CREDIT:RIME;
#DISPLAYBPM:144.000000;
#NOTES:
0000
0000
0000
0000
,
0000
0000
0000
0000
,
0000
0000
0000
0000
,
0000
0000
0000
0000
,
1000
0000
0000
0000
,
0001
0000
0000
0000
,
0100
0000
0000
0000
,
0100
0000
0000
0000
,
0001
0000
0001
0000
,
1000
0000
1000
0000
,
0100
0000
0000
0000
,
0100
0000
0000
0000
,
0020
0000
0000
0000
,
0000
0000
0000
0000
,
0230
0000
0000
0000
,
0000
0000
0000
0000
,
2300
0000
0000
0000
,
0000
0000
0000
0000
,
3002
0000
0000
0000
,
0000
0000
0000
0000
,
0103
0000
0000
0000
,
0100
0000
0000
0000
,
0010
0000
0000
0000
,
0010
0000
0000
0000
,
1000
0000
0000
0000
,
1000
0000
0000
0000
,
0001
0000
0000
0000
,
0001
0000
0000
0000
,
1001
0000
0000
0000
,
0000
0000
0000
0000
,
0110
0000
0000
0000
,
0000
0000
0000
0000
,
1001
0000
0000
0000
,
0000
0000
0000
0000
,
0110
0000
0000
0000
,
0000
0000
0000
0020
,
0030
0000
0000
0000
,
0000
0000
0000
0000
,
0000
0000
0000
0000
,
0000
0000
0000
0000
,
0100
0000
0100
0000
,
0100
0000
0100
0000
,
0100
0000
0100
0000
,
1000
0000
0000
0000
0001
0000
0000
1000
,
0000
0000
0001
0000
,
0100
0000
0000
0000
,
0001
0000
1000
0000
,
0100
0000
0000
0000
,
1000
0000
0001
0000
,
0010
0000
0000
0000
,
0001
0000
1000
0000
,
0010
0000
0000
0000
,
0100
0000
0000
0000
,
0100
0000
0000
0000
,
0010
0000
0000
0000
,
0010
0000
0000
0000
,
1000
0000
0000
0000
,
1000
0000
0000
0000
,
0001
0000
0000
0000
,
0001
0000
0000
0000
,
1001
0000
0000
0000
,
0110
0000
0000
0000
;

//---------------dance-single - ----------------
#NOTEDATA:;
#CHARTNAME:;
#STEPSTYPE:dance-single;
#DESCRIPTION:;
#CHARTSTYLE:;
#DIFFICULTY:Medium;
#METER:6;
#RADARVALUES:0.410609,0.418595,0.233838,0.087689,0.000000,262.000000,24.000000,9.000000,0.000000,0.000000,0.000000,0.000000,0.000000,0.410609,0.418595,0.233838,0.087689,0.000000,262.000000,24.000000,9.000000,0.000000,0.000000,0.000000,0.000000,0.000000;
#CREDIT:;
#DISPLAYBPM:144.000000;
#NOTES:
0000
0000
0000
0000
,
0000
0000
0000
0000
,
0000
0000
0000
0000
,
0000
0000
0000
0000
0000
0000
0010
0001
,
0100
0001
0100
0000
0000
0000
0000
0010
,
0100
0001
1000
0000
0000
0000
0000
0100
,
1000
0010
1000
0000
0000
0000
0001
0001
,
1000
0100
0010
0000
0000
0001
0010
0000
,
0001
0100
0001
0000
1000
0100
1000
0000
,
0001
0010
0001
0000
1000
0010
1000
0000
,
1001
0011
1001
1010
,
0110
0000
0000
0000
0010
1000
0001
0100
,
0001
0000
0000
0000
1001
0000
0000
1000
,
0100
0010
0100
0000
0010
0100
0010
0100
,
1000
0000
1001
0000
,
0001
0100
0010
0000
0100
0010
1000
0001
,
1000
1000
0001
0001
,
0010
0010
0010
0000
0100
0100
0100
0000
,
1000
0100
0010
0000
0010
0100
1000
0000
,
1000
0001
0100
0010
0100
0001
0010
0100
,
0000
0000
0110
0000
0010
0001
0100
0000
,
0010
1000
0010
2000
0000
0000
0000
3001
,
1000
1000
0001
0001
,
0010
0001
0010
0002
0000
0000
0000
1003
,
0000
0000
0001
0000
0010
0100
0010
0000
,
0000
0100
0010
0001
0100
0000
0000
0110
,
0000
0000
0010
0000
1000
0010
0100
0000
,
0001
0100
0001
0200
0000
0000
0000
0310
,
0100
0001
0100
0001
0000
0000
0010
0000
,
0010
0010
0010
0010
,
0100
1000
0100
1000
0000
0000
0001
0000
,
0001
0001
0001
0001
,
1000
0010
1000
0010
0000
0000
0100
0000
,
0100
0100
0100
0100
,
0001
0100
0001
0100
0000
0000
0010
0000
,
1000
1000
1000
2000
,
0000
0000
0000
0000
,
0000
0000
0000
0000
0000
0000
3001
1000
,
0100
1000
0002
0000
0000
0000
0000
0000
,
0000
0000
0000
0000
0000
0000
0000
1003
,
0001
0010
0001
0200
0000
0000
0000
0000
,
0000
0000
0000
0000
0000
0310
0100
0001
,
0010
0100
0020
0000
0130
0000
0000
0000
,
0110
0000
0110
0000
0010
0001
0100
0010
,
0000
0110
0010
1010
,
1000
0000
1001
0000
0001
0010
0000
0110
,
0000
1100
1000
1001
,
0001
0000
0101
0000
0100
0020
0000
0000
,
0000
1030
0010
0000
0110
0000
0100
0000
,
0101
0000
0001
0000
1000
0001
0000
0001
,
0010
0100
0010
0001
,
0100
0001
0100
0001
0000
1000
0000
1001
,
0000
0000
1000
0000
0100
0010
0100
0000
,
0010
0100
1000
0001
0000
0200
0000
0310
,
0100
0010
0100
0000
0001
0100
0001
0000
,
1000
0001
1000
0001
0000
0000
0000
1001
,
0000
0000
1000
0000
0010
1000
0100
0000
,
0010
0100
0010
0100
0010
0000
0000
0011
,
0000
0000
0101
0000
0100
0010
0100
0000
,
0010
1000
0010
1000
0000
0000
0000
0001
,
1000
0001
1000
0001
0000
0000
0000
1000
,
0001
1000
0001
1000
0000
0000
0000
0000
;

//---------------dance-single - ----------------
#NOTEDATA:;
#CHARTNAME:;
#STEPSTYPE:dance-single;
#DESCRIPTION:;
#CHARTSTYLE:;
#DIFFICULTY:Challenge;
#METER:8;
#RADARVALUES:0.694556,0.687692,0.701515,0.194865,0.102304,407.000000,72.000000,20.000000,0.000000,0.000000,0.000000,0.000000,0.000000,0.694556,0.687692,0.701515,0.194865,0.102304,407.000000,72.000000,20.000000,0.000000,0.000000,0.000000,0.000000,0.000000;
#CREDIT:;
#DISPLAYBPM:144.000000;
#NOTES:
// measure 0
0000
0000
0000
0000
,  // measure 1
0000
0000
0000
0000
0000
1000
1000
0000
,  // measure 2
0002
0013
0002
0013
0002
0103
0002
0103
,  // measure 3
0200
0310
0200
0310
0000
0110
0010
1000
,  // measure 4
0100
0001
0100
0000
1000
0100
0010
0002
,  // measure 5
1003
0001
0010
0000
0100
0010
0001
0100
,  // measure 6
0010
0100
0110
0000
0010
1000
0001
0010
,  // measure 7
0100
0010
0001
0000
1000
0001
0010
0001
,  // measure 8
0100
0010
1010
0000
0100
0010
0011
0000
,  // measure 9
0001
1000
1100
0000
1000
0001
0101
0002
,  // measure 10
2003
0000
3020
0000
0032
0000
0203
1300
,  // measure 11
0100
0000
0000
0000
0010
1000
0001
0010
,  // measure 12
0100
0000
0010
0000
0011
0000
0001
0100
,  // measure 13
0001
0100
0010
0000
1000
0001
0010
0100
,  // measure 14
0010
0000
0001
0000
1001
0000
1000
0010
,  // measure 15
0010
0000
1000
0000
0100
0000
0000
0000
0010
0000
0100
0000
1000
0001
1000
0001
,  // measure 16
2000
3200
0302
0023
,  // measure 17
1030
0010
1000
0000
0001
1000
0001
0000
,  // measure 18
0010
0001
0100
0010
1000
0100
0001
0000
,  // measure 19
0100
0000
0010
0000
0001
0000
1000
0000
0010
0000
0100
0010
0100
0010
0100
0000
,  // measure 20
0000
0001
0010
0001
0100
0010
1000
0001
,  // measure 21
1001
1000
1000
1001
0000
0110
0110
0010
,  // measure 22
1000
0100
0001
0100
1000
0010
0001
0010
,  // measure 23
0110
0100
0100
0110
0000
1001
1001
0001
,  // measure 24
0011
0010
0100
1000
0010
0100
0010
0000
,  // measure 25
0100
0100
0001
0010
0100
0110
0110
0010
,  // measure 26
0000
0001
0010
0001
0100
1000
0100
0010
,  // measure 27
0110
0100
0100
0110
0000
1001
1001
1000
,  // measure 28
1100
0100
0010
0110
0000
0010
0001
0100
,  // measure 29
0001
0001
1000
1001
0000
1010
0000
0000
,  // measure 30
0011
0010
0100
0110
0000
0100
0001
0010
,  // measure 31
0100
0010
0100
0000
1000
0000
1001
0000
0000
0000
1000
0000
0010
0000
0100
0000
,  // measure 32
0101
0001
0010
0110
0000
0100
1000
0001
,  // measure 33
0100
0100
0010
1010
0000
1001
0000
0000
,  // measure 34
0011
0010
1000
1010
0000
0010
0100
0000
,  // measure 35
1100
0000
0010
0001
1100
0000
0010
0001
,  // measure 36
1000
1000
0010
0010
,  // measure 37
1000
0000
1000
0000
0001
0000
0001
1000
,  // measure 38
0010
0100
0010
0000
1000
0000
1000
0000
,  // measure 39
0001
0000
0000
0000
0001
0000
0000
0000
0010
0000
0000
0000
0010
0000
0100
0010
,  // measure 40
0001
0100
0001
0100
0010
0000
0010
0000
,  // measure 41
1000
0000
1000
0000
0001
1000
0001
1000
,  // measure 42
0010
0100
0010
0000
1010
0000
1000
0000
,  // measure 43
1001
0000
0000
0000
1001
0000
0000
0000
0001
0010
0100
1000
0010
0100
0001
0000
,  // measure 44
0000
0101
0101
0001
1001
0000
1000
0100
,  // measure 45
0110
0000
0110
0000
0100
0000
1000
0000
0001
1000
0010
0100
0001
0010
0100
0000
,  // measure 46
0000
1100
1100
1000
1001
0000
0001
0100
,  // measure 47
0110
0000
0110
0000
0100
0000
0101
0000
0001
1000
0100
0001
0100
1000
0010
0000
,  // measure 48
0000
1010
1010
1000
1001
0000
0001
0010
,  // measure 49
0110
0000
0110
0000
0100
0000
1000
0000
0001
1000
0010
0100
0010
1000
0001
0000
,  // measure 50
0020
2030
3200
0302
,  // measure 51
0013
0000
0010
0000
0010
0000
0010
0000
0100
0010
0100
0000
0000
0000
1001
0000
,  // measure 52
0000
1000
0100
0010
0001
0001
0100
0010
,  // measure 53
1010
0000
1000
0000
1000
0000
1010
0000
0000
0000
1000
0001
0010
0000
0100
0000
,  // measure 54
0010
0010
0001
0100
0001
0001
1000
0001
,  // measure 55
0011
0010
0010
0011
0000
0110
0110
1001
,  // measure 56
0000
1000
0100
0001
1000
0010
0001
0000
,  // measure 57
0100
0000
0001
0000
0010
0000
0100
0000
1000
0000
0001
1000
0010
0000
0110
0000
,  // measure 58
0000
0100
0001
0010
0100
0100
1000
0001
,  // measure 59
1001
1000
1000
1001
0000
1000
0010
0100
,  // measure 60
0101
0001
0010
0011
0000
0000
0000
0010
,  // measure 61
0110
0100
1000
1001
0000
0000
0000
0000
;
