#TITLE:Diavolo;
#SUBTITLE:;
#ARTIST:Dokyou Kyoudai;
#TITLETRANSLIT:;
#SUBTITLETRANSLIT:;
#ARTISTTRANSLIT:;
#CREDIT:;
#BANNER:;
#BACKGROUND:;
#LYRICSPATH:;
#CDTITLE:;
#MUSIC:Diavolo.mp3;
#OFFSET:-0.035;
#SAMPLESTART:17.985;
#SAMPLELENGTH:12.000;
#SELECTABLE:YES;
#BPMS:0.000=160.000;
#STOPS:;
#BGCHANGES:;

//---------------dance-single - ----------------
#NOTES:
     dance-single:
     :
     Challenge:
     16:
     1.000,1.000,0.485,0.379,1.000: // measure 1
0000
0000
0000
0000
0000
0000
0000
0000
0000
0000
0000
1000
0100
1000
0001
0100
,  // measure 2
0001
0000
0000
0000
1000
0100
1000
0001
0100
0000
0000
0000
2002
0000
3003
0000
,  // measure 3
2020
0000
3030
0000
0001
0100
0010
1000
0001
0000
0000
1000
0010
0100
0001
1000
,  // measure 4
0002
0000
0000
0000
1003
0100
1000
0001
0200
0000
0000
0000
0320
0000
0030
0000
,  // measure 5
1010
0000
0000
0000
0100
0001
0100
0010
1010
0000
0000
1000
0001
0100
0010
1000
,  // measure 6
1100
0000
0000
0000
0010
0001
0010
0001
0011
0000
0000
0001
0100
0010
0100
0001
,  // measure 7
0101
0000
0000
0010
1010
0100
0001
0100
0101
0000
0000
0001
0101
0010
1000
0001
,  // measure 8
1001
0000
0000
1000
0000
0000
0001
0000
0000
0001
0000
0000
1000
0000
0000
0001
0100
0010
1000
0000
0000
0001
0100
0010
,  // measure 9
0100
0110
0010
0100
1000
0100
1000
1100
,  // measure 10
1001
0001
0100
0010
1000
1010
1010
0001
,  // measure 11
1001
0100
0010
1000
0100
0010
0100
1100
,  // measure 12
1001
0001
0100
0010
1000
1000
1000
0001
,  // measure 13
2001
0000
0000
3001
0100
0010
1000
0100
2000
0000
3001
0010
0100
0010
0100
1000
,  // measure 14
0002
0000
1003
0000
0001
0100
0010
1000
0200
0000
0300
0001
0100
0010
1000
0001
,  // measure 15
2000
0000
0000
3001
0010
0100
1000
0100
0020
0000
0000
0031
0010
0100
1000
0100
,  // measure 16
0010
0000
0001
1000
0001
0010
0100
1000
0001
0000
0010
0000
0001
0000
1000
0000
,  // measure 17
1000
0001
1000
0001
1000
0100
1000
0100
0010
0001
0010
0001
0100
0010
0100
0010
,  // measure 18
1000
0100
1000
0100
0010
0001
0010
0001
1000
0100
0001
0100
1000
0010
0100
0001
,  // measure 19
0100
1000
0100
0001
0100
0010
1000
0010
0001
0010
1000
0100
0010
0001
1000
0010
,  // measure 20
1010
0000
0000
1100
0000
0000
0011
0000
0000
0011
0000
0000
0101
0000
0000
0101
0000
0000
0010
0000
0000
1000
0001
1000
,  // measure 21
0002
0000
0000
0203
0320
2030
3002
0000
,  // measure 22
0203
0000
0000
0320
0230
0302
2003
3001
,  // measure 23
1000
0100
1000
0100
0010
0001
0010
0001
1000
0010
0100
0001
1000
0100
0010
0000
,  // measure 24
0001
0000
0000
0010
0000
0000
0100
0000
0000
1000
0000
0000
0100
0000
0000
0010
0000
0000
0001
0000
0000
0010
0000
0000
0100
0000
0000
0000
0000
0000
0100
0000
0000
0000
0000
0000
1000
0000
0100
0000
0010
0000
0001
0000
1000
0000
0001
0000
,  // measure 25
1000
0100
1000
0100
0010
0001
0010
0001
0200
0000
0320
0000
2030
0000
3020
0000
,  // measure 26
1030
0001
0010
0001
1000
0001
0010
0001
2000
0000
3002
0000
2003
0000
3020
0000
,  // measure 27
1030
0100
1000
0100
1000
0000
0001
0000
0100
0010
0100
0010
1000
0000
0001
0000
,  // measure 28
1000
0000
0000
0100
0000
0000
0010
0000
0000
0001
0000
0000
0010
0000
0000
0100
0000
0000
1000
0000
0000
0001
0000
0000
1000
0000
0000
0000
0000
0000
0000
0000
0010
0000
0000
0000
0100
0000
0000
0000
0100
0000
0000
0000
0100
0000
0000
0000
,  // measure 29
0101
0010
1000
0100
0010
0001
0010
0100
1000
0010
1000
0010
,  // measure 30
0100
0001
0100
0000
0010
0000
1000
0000
0001
0000
1000
0000
2002
0000
0000
0000
0000
0000
3003
0000
0000
0000
0000
0000
,  // measure 31
0001
0010
0001
0000
1000
0000
0100
0000
0010
0000
0001
0000
1000
0010
1000
0000
0001
0000
0010
0000
0100
0000
0010
0000
,  // measure 32
0001
1000
0001
0000
0010
0000
0100
0000
1000
0000
0001
0000
1001
0000
0000
0000
1001
0000
0000
0000
1001
0000
0000
0000
,  // measure 33
1000
0001
0010
0100
0010
0001
1000
0000
0100
0000
0010
0000
0001
0000
0010
0000
0100
0000
1000
0000
0010
0000
0100
0000
,  // measure 34
0001
0010
0100
0010
0001
1000
0001
0000
0100
0000
0010
0000
1000
0000
0100
0000
0010
0000
0100
0000
1000
0000
0001
0000
,  // measure 35
1000
0100
0010
0000
0001
0000
0010
0000
0001
0000
1000
0000
0001
0100
0010
1000
0001
1000
0010
0000
0100
0000
0001
0000
,  // measure 36
0010
0000
0100
0000
1000
0000
0100
0000
0010
0000
0001
0000
0200
0000
0000
0000
0000
0000
0301
1000
0001
1000
0001
1000
,  // measure 37
0001
0000
0000
1000
0100
0010
0001
0000
0000
0010
0100
1000
0100
0000
0000
0010
0001
0010
0100
0000
0000
1000
0100
0010
,  // measure 38
0001
0000
0000
1000
0010
1000
0010
0000
0000
0100
0001
0100
0001
0000
0000
0000
1000
0010
1000
0000
0000
0001
0100
0010
,  // measure 39
1000
0000
0000
0000
0000
0000
0001
0010
0100
1000
0100
0010
0001
0000
0000
0000
0000
0000
1000
0100
0010
0001
0010
0100
,  // measure 40
1000
0000
0000
0000
0000
0000
0001
0100
0010
1000
0001
0010
0100
0010
0001
1000
0010
1000
0001
0010
0100
1000
0100
0010
,  // measure 41
0001
0100
0010
1000
0000
0000
0001
0010
0001
0010
0001
0010
0100
1000
0100
1000
0100
1000
0001
0010
0001
0010
0001
0010
,  // measure 42
0100
1000
0001
0010
0000
0000
0100
1000
0001
0010
0100
0010
0001
1000
0100
0010
0100
1000
0001
0010
0100
0010
0001
1000
,  // measure 43
0001
0010
0100
2000
0000
0000
0000
0000
0000
3001
1000
0001
1000
0010
0100
0001
1000
0010
0100
0010
1000
0010
0100
0001
,  // measure 44
0100
0010
1000
0010
0000
0000
0000
0000
0000
0100
0001
0100
0001
0010
0001
1000
0100
1000
0001
0100
0001
1000
0010
1000
,  // measure 45
0002
0000
0000
0000
1003
0100
0010
0001
0100
0010
1000
0001
0101
0010
1000
0010
,  // measure 46
2010
0000
0000
0000
0000
0000
0000
0000
0000
0000
0000
0000
3001
0000
0000
0100
0000
0000
0010
0000
0000
1000
0000
0000
0001
0000
0000
0010
0000
0000
0100
0000
0000
1000
0000
0000
1100
0000
0000
0100
0000
0000
0010
0000
0001
0000
0100
0000
,  // measure 47
0020
0000
0000
0000
0000
0000
0000
0000
0030
0000
0000
0000
1000
0000
0000
0001
0000
0000
0010
0000
0000
0100
0000
0000
1000
0000
0000
0100
0000
0000
0010
0000
0000
0001
0000
0000
0010
0000
0000
0100
0000
0000
0010
0000
0000
0001
0000
0000
,  // measure 48
1000
0000
0000
0001
0000
0000
0010
0000
0000
0100
0000
0000
1000
0000
0000
0010
0000
0000
0100
0000
0000
0001
0000
0000
0101
0000
0000
0000
0000
0000
0001
0000
0000
0000
0000
0000
1001
0000
0000
0000
0000
0000
1000
0000
0010
0000
0100
0000
,  // measure 49
0002
0000
0000
0000
0003
1000
0010
0100
0001
0010
0001
1000
0010
0100
0001
0010
,  // measure 50
0002
0000
0000
0000
0000
0000
0000
0000
0000
0000
0000
0000
0003
0000
0000
1000
0000
0000
0010
0000
0000
0100
0000
0000
0001
0000
0000
0010
0000
0000
0001
0000
0000
1000
0000
0000
0010
0000
0000
1000
0000
0000
0001
0000
1000
0000
0002
0000
,  // measure 51
1003
0000
0000
0000
0000
1000
0010
0100
0001
0010
0001
1000
0100
0010
0001
0010
,  // measure 52
0100
0000
0000
1000
0000
0000
0010
0000
0000
0100
0000
0000
0001
0000
0010
0000
0001
0000
1000
0000
0001
0000
1000
0000
0001
0000
0000
0010
0000
0000
0100
0000
0000
1000
0000
0000
0001
0000
0000
0010
0000
0000
0001
0000
0000
0010
0000
0000
,  // measure 53
0100
1000
0100
1000
0001
0100
0010
1000
0100
0010
0100
1000
0001
0100
0010
1000
,  // measure 54
0001
0010
0100
1000
0100
0010
0001
1000
0001
0000
1000
0000
0101
0000
0010
0000
,  // measure 55
1000
0010
1010
0100
0001
0100
1001
0001
,  // measure 56
0010
0000
0000
0001
0000
0000
0011
0000
0000
0010
0000
0000
0100
0000
1000
0100
0010
0001
0010
0100
1000
0001
0000
0000
,  // measure 57
1000
0000
0000
0100
0000
0000
0010
0000
0000
0001
0000
0000
1000
0000
0010
0000
0100
0000
0001
0000
0000
0000
0000
0000
1000
0000
0000
0000
0000
0000
0001
0000
0100
0000
0010
0000
1000
0000
0001
0000
1000
0000
0010
0000
0000
0000
0000
0000
,  // measure 58
0100
0001
0100
0001
0100
0001
1000
0010
1000
0010
1000
0001
1000
0000
0000
0001
0010
0100
0010
0001
1000
0001
0000
0000
,  // measure 59
1000
0000
0000
0010
0000
0000
0100
0000
0000
0001
0000
0000
1000
0000
0100
0000
0010
0000
0001
0000
0000
0000
0000
0000
1001
0000
0000
0000
0000
0000
1000
0000
0010
0000
0100
0000
0001
0000
1000
0000
0010
0000
1000
0000
0000
0000
0000
0000
,  // measure 60
0001
0010
0001
0010
0001
0010
0100
1000
0100
1000
0100
1000
0001
0000
0000
0110
0000
0000
0110
0000
0000
0110
0000
0000
,  // measure 61
1001
0000
0000
1000
0000
0000
0010
0000
0000
0100
0000
0000
1001
0000
0000
1001
0000
0000
1001
0000
0000
1000
0100
0010
,  // measure 62
0001
1000
0100
0010
1001
0100
1001
0010
,  // measure 63
1001
0100
1001
1000
1001
0100
1001
1000
,  // measure 64
0001
0000
0100
0000
0010
0000
1000
0000
0010
0000
0100
0000
0001
0000
0010
0000
0100
0000
0010
0000
0001
0000
1000
0000
0100
0000
0000
0010
0000
0000
0001
0000
0100
0000
0010
0000
1000
0000
0010
0000
0100
0000
0001
0000
0000
1000
0000
0000
,  // measure 65
0010
0000
0000
0100
0000
0000
0001
0000
0100
0000
0010
0000
1000
0000
0100
0000
1000
0000
0001
0000
0000
0100
0000
0000
0010
0000
0000
1000
0000
0000
0001
0000
0100
0000
0010
0000
1000
0000
0001
0000
1000
0000
0001
0000
0000
1000
0000
0000
,  // measure 66
0001
0000
0000
0010
0000
0000
0001
0000
0000
0010
0000
0000
0100
0000
0000
1000
0000
0000
0100
0000
0000
1000
0000
0000
0001
0000
0000
0100
0000
0000
0010
0000
1000
0000
0010
0000
0100
0000
0001
0000
0100
0000
0001
0000
0000
1000
0000
0000
,  // measure 67
0010
0000
0000
1000
0000
0000
0001
0000
0100
0000
0010
0000
1000
0000
0100
0000
1000
0000
0001
0000
0000
1000
0000
0000
0100
0000
0000
1000
0000
0000
0001
0000
0100
0000
0010
0000
1000
0000
0100
0000
1000
0000
0001
0000
0000
0010
0000
0000
,  // measure 68
0100
0000
0000
1000
0000
0000
0010
0000
0000
0100
0000
0000
0001
0000
0000
1000
0000
0000
0100
0000
0000
0010
0000
0000
0001
0000
0000
1000
0000
0000
0001
0000
0010
0000
0001
0000
0010
0000
0001
0000
0010
0000
0001
0000
0000
1000
0000
0000
,  // measure 69
0001
0000
0000
1000
0000
0000
0010
0000
0100
0000
0001
0000
1000
0000
0001
0000
1000
0000
0001
0000
0000
1000
0000
0000
0001
0000
0000
1000
0000
0000
0001
0000
0010
0000
0100
0000
1000
0000
0000
0000
0000
0000
1000
0000
0100
0000
0010
0000
,  // measure 70
0001
0100
0001
0100
0001
0100
0010
1000
0010
1000
0010
1000
0001
0010
0100
1000
0010
0100
0001
0100
0010
1000
0100
0010
,  // measure 71
0000
0000
0000
0001
0010
0100
1000
0000
0000
0100
0010
0001
1000
0000
0000
0000
0000
0000
0220
0000
0000
0000
0000
0000
,  // measure 72
0000
0000
0330
0000
;

//---------------dance-single - Copied from----------------
#NOTES:
     dance-single:
     Copied from:
     Medium:
     11:
     0.873,1.000,0.273,0.582,0.683:
0000
0000
0000
0000
,
0000
0000
0000
0000
,
0001
0000
1000
0100
1000
0000
0001
0100
,
0001
0000
1000
0010
1000
0000
0001
0000
,
1001
0000
1000
0010
1010
0000
0100
0001
,
0101
0000
0010
1000
1010
0000
1000
0001
,
1001
0001
0101
0000
1010
0010
1010
0000
,
1000
0000
0000
0100
0000
0000
1000
0000
0000
0100
0000
0000
0010
0000
0000
0001
0010
0100
1000
0000
0000
0100
0010
0001
,
0010
0001
1000
0010
0100
0010
1000
0001
,
0001
0100
0010
1000
0100
0010
0001
0100
,
0010
1000
0010
0100
0010
1000
0001
0010
,
0010
0100
1000
0100
0010
0001
1000
0000
,
2001
3000
0001
0100
0002
0000
0103
0010
,
2000
0000
3100
0010
0200
0000
0310
0001
,
0020
0000
0031
0100
0002
0000
1003
0010
,
2000
0000
0000
0010
3000
0100
0001
0000
1000
0000
0000
0000
0001
0000
0000
0000
,
1001
0000
1000
0100
1000
0100
0010
0001
,
0010
0001
0100
0010
1000
0010
0100
0001
,
1001
1000
0010
0100
0001
1000
0100
0010
,
0001
0000
0000
0001
0000
0000
1000
0000
0000
1000
0000
0000
0001
0000
0000
0001
0000
0000
0010
0000
0000
0100
1000
0001
,
2000
0000
0000
3100
0010
0001
2000
0000
,
3200
0000
0000
0310
0100
0001
1000
0001
,
1000
0100
1000
0000
0001
0000
0100
0000
0010
1000
0010
0000
0100
0000
0001
0000
,
1000
0001
1000
0000
0001
0000
0100
0000
0001
0000
0001
0000
1000
0000
0000
0000
,
2001
0000
0000
3010
0100
0010
1000
0001
,
0011
0002
0000
1003
0010
0100
0010
1000
,
0002
0000
0000
0103
0200
0000
0000
0310
,
0010
0000
0000
1000
0000
0000
0001
0000
0000
1000
0000
0000
1000
0000
0000
0000
0001
0000
0010
0000
0100
0000
1000
0000
,
0001
0010
0001
1000
0100
1000
0100
1000
0001
0010
0001
1000
,
0100
1000
0001
0010
0001
1000
0002
0000
0000
0003
0000
0000
,
0001
0010
0100
1000
0100
0010
0100
1000
0001
0010
0100
0010
,
0001
1000
0010
0100
0001
1000
0001
0000
1000
0000
0001
0000
,
1000
0001
1000
0001
0100
0010
1000
0010
0100
0001
0010
0100
,
1000
0001
1000
0001
0100
0010
1000
0100
0010
0100
1000
0001
,
1000
0100
1000
0001
0010
0001
1000
0001
1000
0001
0010
0001
,
0100
0000
0010
0000
0100
0000
0001
0000
1000
0000
0100
0000
0020
0000
0000
0000
0000
0000
0032
0000
0000
0003
0000
0000
,
1001
0000
0000
0001
0010
0100
1000
0000
0000
0001
0010
0100
1000
0000
0000
0001
0100
0010
1000
0000
0000
0001
0010
0100
,
1000
0000
0000
0001
1000
0001
1000
0000
0000
0010
1000
0010
1000
0000
0000
0000
0000
1000
0001
0000
0000
1000
0010
0100
,
0002
0000
0000
0000
0000
0000
1003
0100
0010
0001
0010
0100
2000
0000
0000
0000
0000
0000
3001
0010
0100
1000
0100
0010
,
0002
0000
1003
0010
1000
0010
1000
0010
,
0100
0001
0010
0001
0100
0010
1000
0010
,
0100
0001
0010
0100
1000
0010
0100
0001
,
1000
0002
0000
1003
0010
0100
0010
1000
,
0001
0020
0000
0130
1000
0100
0010
0100
,
2000
0000
0000
0000
3001
0010
0100
1000
0010
0100
0001
1000
0010
1000
0100
1000
,
0002
0000
0000
0000
1003
0010
0100
0001
1000
0100
0010
0001
0010
0100
1000
0000
,
2002
0000
0000
0000
3003
1000
0100
0010
0001
0010
0100
1000
0100
0010
0100
1000
,
0001
1000
0100
0010
0001
0100
0010
1000
0010
0000
0000
0000
1001
0000
0000
0000
,
2001
0000
0000
0000
3000
0001
0100
0010
1000
0100
1000
0001
0100
0010
1000
0100
,
2000
0000
0000
0000
3000
0001
0100
0010
1000
0100
1000
0001
0100
0001
1000
0000
,
1001
0000
0000
0000
0000
0001
0100
0010
1000
0100
1000
0001
0010
0100
1000
0100
,
0010
0001
0100
0010
2000
0000
0000
0000
3002
0000
0000
0000
0203
0000
0000
0000
,
0320
2030
3002
0023
,
0230
0000
0300
1000
0010
0010
0100
0100
,
0001
0001
1000
1000
0010
0100
0001
1000
,
0010
1000
0001
1000
1002
0203
0320
2030
,
3001
0100
0010
1000
0200
0320
0032
0203
,
0320
2030
3020
2030
3002
0203
0302
2003
,
3002
0103
0010
1000
0002
0203
0302
0203
,
0320
2030
3020
2030
3002
0203
0320
1030
,
1001
0000
0101
0000
0001
0100
0010
1000
,
1001
0000
1001
0000
1000
0010
0100
0001
,
1000
0001
0100
0001
1001
0000
1001
0000
,
1000
0001
1000
0001
1000
0001
1000
0001
1000
0001
1000
0001
1000
0000
0000
0010
0000
0000
0100
0000
0000
0001
0000
0000
,
1000
0010
0100
0001
1000
0010
0100
0001
,
1001
0000
1001
0000
0001
0100
0010
1000
,
0001
0100
0010
1000
0001
0100
0010
1000
,
1001
0000
0000
0000
0000
0000
1001
0000
0000
0000
0000
0000
0001
0000
0000
1000
0100
1000
0100
1000
0100
1000
0000
0000
,
0001
0000
0000
1000
0001
1000
0001
1000
0001
1000
0000
0000
0001
0000
0000
0001
0100
0010
1000
0000
0000
0001
1000
0001
,
1000
0100
1000
0100
0010
0001
0010
0001
,
1001
0000
0000
1000
0100
0010
0001
0000
0000
0010
0100
1000
0001
0000
0000
0000
0000
0000
0220
0000
0000
0000
0000
0000
,
0000
0000
0330
0000
;

//---------------dance-single - Copied from Copied f----------------
#NOTES:
     dance-single:
     Copied from Copied f:
     Hard:
     15:
     1.000,1.000,0.414,0.379,1.000:
0000
0000
0000
0000
,
0000
0000
0000
1010
,
0101
0000
0000
0000
0001
0100
0010
1000
0001
0000
0000
1000
0010
0100
0001
1000
,
0001
0000
0000
0000
1000
0100
1000
0001
0100
0000
0000
0000
0010
0000
0000
0000
,
2020
3030
0000
0000
0100
0001
0100
0010
2020
3030
0000
1000
0001
0100
0010
1000
,
2200
3300
0000
0000
0010
0001
0010
0001
0022
0033
0000
0001
0100
0010
0100
0001
,
0100
0000
0000
0010
2000
3010
0100
0001
2000
3000
0000
0010
0100
0001
1000
0100
,
1000
0000
0000
1000
0000
0000
0001
0000
0000
0001
0000
0000
1000
0000
0000
0001
0100
0010
1000
0000
0000
0001
0100
0010
,
0100
0110
0010
0100
1000
0100
1000
1100
,
1001
0001
0100
0010
1000
1010
1010
0001
,
1001
0100
0010
1000
0100
0010
0100
1100
,
1001
0001
0100
0010
1000
1000
1000
0001
,
2001
0000
0000
3001
0100
0010
1000
0100
2000
0000
0000
3001
0100
0010
0100
0001
,
2000
0000
0000
0000
3001
0100
0010
1000
0002
0000
0000
1003
0100
0010
0100
1000
,
0002
0000
0000
1003
0010
0100
0001
1000
0200
0000
0000
0310
0100
1000
0001
0100
,
0010
0000
0000
1000
0000
0010
0100
0001
2000
0000
0000
0000
3002
0000
0000
0003
,
1001
0000
0000
0000
1000
0100
1000
0100
0010
0001
0010
0001
0100
0010
0100
0010
,
1000
0100
1000
0100
0010
0001
0010
0001
1000
0001
0010
0100
1000
0100
0010
0001
,
1000
0010
1000
0010
0100
0001
0100
0001
1000
0100
1000
0100
0010
0001
0010
0001
,
1100
0000
0000
1100
0000
0000
0011
0000
0000
0011
0000
0000
0101
0000
0000
0101
0000
0000
0010
0000
0000
1000
0001
1000
,
0002
0000
0000
0203
0320
2030
3002
0000
,
0203
0000
0000
0320
0230
0302
2003
3001
,
1000
0100
1000
0100
0010
0001
0010
0001
1000
0010
0100
0001
1000
0100
0010
0000
,
0001
0000
0000
0010
0000
0000
0100
0000
0000
1000
0000
0000
0100
0000
0000
0010
0000
0000
0001
0000
0000
0010
0000
0000
0100
0000
0000
0000
0000
0000
0100
0000
0000
0000
0000
0000
1000
0000
0001
0000
1000
0000
0001
0000
1000
0000
0001
0000
,
1000
0100
1000
0100
0010
0001
0010
0001
0100
0000
0100
0000
0010
0000
0010
0000
,
1000
0001
0010
0001
1000
0001
0010
0001
1000
0000
0001
0000
1000
0000
0010
0000
,
1000
0100
1000
0100
1000
0000
0001
0000
0100
0010
0100
0010
1000
0000
0001
0000
,
1000
0000
0000
0100
0000
0000
0010
0000
0000
0001
0000
0000
0010
0000
0000
0100
0000
0000
1000
0000
0000
0001
0000
0000
1000
0000
0000
0000
0000
0000
0000
0000
0010
0000
0000
0000
0100
0000
0000
0000
0100
0000
0000
0000
0100
0000
0000
0000
,
0001
0010
0001
1000
0100
1000
0100
1000
0001
0010
0001
1000
,
0100
1000
0001
0010
0001
1000
2002
0000
0000
3003
0000
0000
,
0001
0010
0100
1000
0100
0010
0100
1000
0001
0010
0100
0010
,
0001
1000
0010
0100
0001
1000
1001
0000
1001
0000
1001
0000
,
1000
0001
0010
0100
0010
0001
1000
0000
0100
0000
0010
0000
0001
0000
0010
0000
0100
0000
1000
0000
0010
0000
0100
0000
,
0001
0010
0100
0010
0001
1000
0001
0000
0100
0000
0010
0000
1000
0000
0100
0000
0010
0000
0100
0000
1000
0000
0001
0000
,
1000
0000
0100
0000
1000
0000
0001
0000
0010
0000
0001
0000
1000
0010
0100
0001
1000
0001
0100
0000
0010
0000
1000
0000
,
0100
0000
0010
0000
0100
0000
1000
0000
0001
0000
0100
0000
0020
0000
0000
0000
0000
0000
1030
0001
1000
0001
1000
0001
,
1000
0000
0000
0001
0010
0100
1000
0000
0000
0100
0010
0001
0010
0000
0000
0100
1000
0100
0010
0000
0000
0001
0010
0100
,
1000
0000
0000
0001
0100
0001
0100
0000
0000
0010
1000
0010
1000
0000
0000
0000
0001
0100
0001
0000
0000
1000
0010
0100
,
0002
0000
0000
0000
0000
0000
1003
0100
0010
0001
0010
0100
2000
0000
0000
0000
0000
0000
3001
0010
0100
1000
0100
0010
,
0002
0000
0000
0000
0000
0000
1003
0010
0100
0001
1000
0100
0010
0100
1000
0001
0100
0001
1000
0100
0010
0001
0010
0100
,
1000
0010
0100
0001
0000
0000
1000
0100
1000
0100
1000
0100
0010
0001
0010
0001
0010
0001
1000
0100
1000
0100
1000
0100
,
0010
0001
1000
0100
0000
0000
0010
0001
1000
0100
0010
0100
1000
0001
0010
0100
0010
0001
1000
0100
0010
0100
1000
0001
,
1000
0100
0010
0002
0000
0000
0000
0000
0000
1003
0001
1000
0001
0100
0010
1000
0001
0100
0010
0100
0001
0100
0010
1000
,
0010
0100
0001
0100
0000
0000
0000
0000
0000
0010
1000
0010
1000
0100
1000
0001
0010
0001
1000
0010
1000
0001
0100
0001
,
2000
0000
0000
0000
3001
0010
0100
1000
0010
0100
0001
1000
0010
1000
0100
1000
,
0002
0000
0000
0000
0000
0000
0000
0000
0000
0000
0000
0000
1003
0000
0000
0010
0000
0000
0100
0000
0000
0001
0000
0000
1000
0000
0000
0100
0000
0000
0010
0000
0000
0001
0000
0000
0010
0000
0000
0100
0000
0000
1000
0000
0001
0000
0010
0000
,
0200
0000
0000
0000
0000
0000
0000
0000
0300
0000
0000
0000
0000
0000
0000
1000
0000
0000
0100
0000
0000
0010
0000
0000
0001
0000
0000
0010
0000
0000
0100
0000
0000
1000
0000
0000
0100
0000
0000
0010
0000
0000
0100
0000
0000
1000
0000
0000
,
0001
0000
0000
1000
0000
0000
0100
0000
0000
0010
0000
0000
0001
0000
0000
0100
0000
0000
0010
0000
0000
1000
0000
0000
1010
0000
0000
0000
0000
0000
1000
0000
0000
0000
0000
0000
1001
0000
0000
0000
0000
0000
0001
0000
0100
0000
0010
0000
,
2000
0000
0000
0000
3000
0001
0100
0010
1000
0100
1000
0001
0100
0010
1000
0100
,
2000
0000
0000
0000
0000
0000
0000
0000
0000
0000
0000
0000
3000
0000
0000
0001
0000
0000
0100
0000
0000
0010
0000
0000
1000
0000
0000
0100
0000
0000
1000
0000
0000
0001
0000
0000
0100
0000
0000
0001
0000
0000
1000
0000
0001
0000
2000
0000
,
3001
0000
0000
0000
0000
0001
0100
0010
1000
0100
1000
0001
0010
0100
1000
0100
,
0010
0000
0000
0001
0000
0000
0100
0000
0000
0010
0000
0000
1000
0000
0100
0000
1000
0000
0001
0000
1000
0000
0001
0000
1000
0000
0000
0000
0000
0000
0000
0000
0000
0000
0000
0000
0001
0000
0000
0010
0000
0000
0001
0000
0000
0010
0000
0000
,
0100
1000
0100
1000
0001
0100
0010
1000
0100
0010
0100
1000
0001
0100
0010
1000
,
0001
0010
0100
1000
0100
0010
0001
1000
0001
0000
1000
0000
1010
0000
0100
0000
,
0001
0100
0101
0010
1000
0010
1001
1000
,
0100
0000
0000
1000
0000
0000
1100
0000
0000
0100
0000
0000
0010
0000
0000
0001
0010
0100
1000
0100
0010
0001
0000
0000
,
1000
0000
0000
0100
0000
0000
0010
0000
0000
0100
0000
0000
1000
0000
0000
0001
0000
0000
1000
0000
0000
0000
0000
0000
0001
0000
0000
0000
0000
0000
1000
0000
0010
0000
0100
0000
0001
0000
1000
0000
0001
0000
0100
0000
0000
0000
0000
0000
,
0010
1000
0010
1000
0010
1000
0001
0100
0001
0100
0001
1000
0001
0000
0000
1000
0100
0010
0100
1000
0001
1000
0000
0000
,
0001
0000
0000
0100
0000
0000
0010
0000
0000
1000
0000
0000
0001
0000
0000
1000
0000
0000
0001
0000
0000
0000
0000
0000
1000
0000
0000
0000
0000
0000
0001
0000
0100
0000
0010
0000
1000
0000
0001
0000
0100
0000
0001
0000
0000
0000
0000
0000
,
1000
0000
0100
0000
1000
0000
0100
0000
1000
0000
0100
0000
0010
0000
0001
0000
0010
0000
0001
0000
0010
0000
0001
0000
1000
0000
0000
0000
0000
0100
1000
0000
0000
0000
0000
0001
0010
0000
0000
0000
0000
0001
1000
0000
0000
0000
0000
0000
,
1001
0000
0000
0000
0000
0000
0000
0000
0000
0000
0000
0000
0101
0000
0000
0000
0000
0000
0000
0000
0000
0000
0000
0000
1010
0000
0000
0000
0000
1000
0010
0000
0000
0000
0000
1000
0001
0000
0000
0000
0000
0100
0001
0000
1000
0000
0001
0000
,
1000
0000
0000
0000
1000
0010
0100
0001
,
1000
0001
0100
0001
1001
0010
1001
0001
,
1000
0000
0000
0000
0000
0000
0000
0000
0010
0000
0000
0000
0000
0000
0000
0000
0100
0000
0000
0000
0000
0000
0000
0000
0001
0000
0000
0000
0000
0000
0000
0000
0100
0000
0000
0000
0000
0000
0000
0000
0010
0000
0000
0000
0000
0000
0000
0000
1000
0000
0000
0000
0000
0000
0000
0000
0100
0000
0000
0000
0000
0000
0000
0000
0010
0000
0000
0000
0000
0000
0000
0000
0100
0000
0000
0000
0000
0000
0000
0000
1000
0000
0000
0000
0000
0000
0000
0000
0001
0000
0000
0000
0000
0000
0000
0000
1000
0000
0000
0000
0000
0000
0000
0000
0000
0000
0000
0000
0100
0000
0000
0000
0000
0000
0000
0000
0000
0000
0000
0000
0010
0000
0000
0000
0000
0000
0000
0000
0000
0000
0000
0000
0001
0000
0000
0000
0000
0000
1000
0000
0000
0000
0000
0000
0001
0000
0000
0000
0000
0000
0000
0000
0000
0000
0000
0000
0100
0000
0000
0000
0000
0000
0000
0000
0000
0000
0000
0000
0010
0000
0000
0000
0000
0000
0000
0000
0000
0000
0000
0000
1000
0000
0000
0000
0000
0000
0000
0000
0000
0000
0000
0000
,
0100
0000
0010
0000
0001
0000
1000
0001
1000
0000
0010
0000
0100
0000
0001
0000
1000
0000
0100
0000
0010
0000
0001
1000
0001
0000
1000
0000
0010
0000
1000
0000
,
1001
0000
0000
0000
0010
0000
0000
0000
1001
0000
0000
0000
0100
0000
0000
0000
1001
0000
0001
0000
0100
0000
0010
1000
0010
0000
0100
0000
0001
0000
1000
0000
,
0100
0000
0010
0000
0100
0000
1000
0001
1000
0000
0001
0000
0100
0000
0010
0000
1000
0000
0100
0000
1000
0000
0001
0100
0001
0000
0100
0000
0010
0000
1000
0000
,
1001
0000
0000
0010
0000
0000
1001
0000
0000
0001
0000
0000
1001
0000
0000
1000
0100
1000
0100
1000
0100
1000
0000
0000
,
1001
0000
0000
0100
0010
1000
0001
1000
0001
1000
0000
0000
1001
0000
0000
0001
0100
0010
1000
0000
0000
0001
1000
0001
,
1000
0100
1000
0100
0010
0001
0010
0001
,
1001
0000
0000
1000
0100
0010
0001
0000
0000
0010
0100
1000
0001
0000
0000
0000
0000
0000
0220
0000
0000
0000
0000
0000
,
0000
0000
0330
0000
;

//---------------dance-single - Copied from----------------
#NOTES:
     dance-single:
     Copied from:
     Easy:
     8:
     0.462,0.536,0.220,0.194,0.009:
0000
0000
0000
0000
,
0000
0000
0000
0000
,
0000
0000
1000
0000
,
0001
0000
1000
0000
,
1001
0000
0110
0000
,
1001
0000
0011
0000
,
1100
0000
0011
0000
,
1001
0010
1000
0001
,
0100
0000
0100
0000
0010
0000
1000
0001
,
1000
0000
0010
0000
1000
0001
1000
0000
,
0010
0000
0100
0000
0001
1000
0001
0000
,
1000
0000
0010
0000
0100
0001
0100
0000
,
0101
0000
0010
1000
0010
0000
1000
0001
,
1000
0000
0001
0100
0001
0000
1000
0001
,
1000
0000
0010
1000
0010
0000
0100
0001
,
0100
0001
1000
0001
,
2000
3020
0230
0302
,
0023
0230
2300
3001
,
1001
0020
0230
0301
,
1000
0100
1000
0000
0010
0001
0010
0000
,
2002
0000
0000
3003
,
0220
0000
0000
0330
,
0001
1000
0001
0000
0000
0000
0000
0000
,
1000
0001
1000
0000
0001
0000
1000
0000
,
1001
0000
0000
0000
0010
0010
0010
0000
,
1001
0000
0000
0000
0100
0100
0100
0000
,
1001
0000
0010
0000
,
1000
0000
0001
0000
2000
0000
0000
3000
,
0001
0001
1000
1000
,
0010
0010
0100
0000
,
0001
1000
0001
1000
,
0001
0000
0000
1000
0000
0000
0010
0000
1000
0000
0001
0000
,
1001
0001
1000
0001
,
0100
0010
0100
0010
,
2000
0000
3002
0000
,
1003
0010
1000
0001
,
1000
0100
1000
0100
1000
0100
1000
0100
,
0010
0001
0010
0100
1000
0000
0001
0100
,
0001
0000
1000
0001
1000
0000
0010
0100
,
0010
0000
1000
0100
0010
0001
0100
0010
,
1000
0001
0000
1000
0010
0100
0010
1000
,
0001
1000
0000
0001
0000
1000
0001
1000
,
0001
0100
0000
0010
1000
0010
0000
0000
,
1000
0000
0000
0000
0001
0100
0001
1000
,
0001
0000
0000
0000
1000
0010
0100
0000
,
1001
0000
0000
0000
0001
0100
0001
0000
,
1001
0000
0000
0000
0010
1000
0010
0000
,
0100
0001
1000
0001
,
1001
0000
0000
0000
0010
1000
0010
1000
,
1010
0000
0000
0000
0001
0100
0001
0100
,
0101
0000
0000
0000
0001
1000
0001
1000
,
1001
0010
0110
0001
,
1000
0100
1000
0001
,
1000
0000
0010
0000
0100
0000
0001
1000
,
0001
1000
0010
1000
,
0001
0000
0000
0000
1000
0100
1000
0100
,
1000
0001
1000
0001
0100
0000
0000
0000
,
0200
0000
0000
0000
0310
1000
0010
1000
,
0001
0100
0001
0100
0010
1000
0010
1000
,
0002
0000
0000
0000
1003
0100
1000
0100
,
1000
0000
1001
0000
0010
0100
0010
0100
,
0010
0000
1001
0000
1000
0100
1000
0001
,
1000
0010
0100
0000
0001
0010
0001
0000
,
0100
0010
0100
0000
0001
0010
0001
0010
,
0001
1000
0010
0100
0010
1000
0010
0100
,
0020
0000
0000
0000
1030
0001
1000
0001
,
0100
0010
1000
0100
0010
0001
0100
0010
,
2000
0000
0000
0000
3001
0100
0001
0100
,
0001
0100
0001
1000
0010
1000
0010
1000
,
0010
1000
0001
0100
,
0010
1000
0001
2002
,
0000
0000
3003
0000
;

//---------------dance-single - Copied from ----------------
#NOTES:
     dance-single:
     Copied from:
     Beginner:
     4:
     0.249,0.405,0.264,0.071,0.000: // measure 1
0000
0000
0000
0000
,  // measure 2
0000
0000
0000
0000
,  // measure 3
0000
0000
0000
0000
,  // measure 4
1001
0000
0000
0000
,  // measure 5
1001
0000
1001
0000
,  // measure 6
0110
0000
0110
0000
,  // measure 7
1001
0000
1001
0000
,  // measure 8
1001
0000
1000
0000
,  // measure 9
0001
0000
0000
0000
0000
0000
0000
1000
,  // measure 10
1000
0000
0000
0010
,  // measure 11
0100
0000
0000
0000
0000
0000
0000
0001
,  // measure 12
0001
0000
0000
1000
,  // measure 13
1001
0000
0001
0000
,  // measure 14
1000
0000
0010
0000
,  // measure 15
0100
0000
0001
0000
,  // measure 16
1000
0000
1000
0000
,  // measure 17
1001
0000
1000
0000
,  // measure 18
1000
0000
0001
0000
,  // measure 19
0110
0000
1000
0000
,  // measure 20
1001
1001
1001
1001
,  // measure 21
2002
0000
0000
3003
,  // measure 22
2000
0000
0000
3000
,  // measure 23
0002
0000
0000
0003
,  // measure 24
0200
0000
0000
0300
,  // measure 25
1001
0000
1000
1000
,  // measure 26
1001
0000
0010
0010
,  // measure 27
0010
0000
0100
0000
,  // measure 28
0001
0000
1000
0000
,  // measure 29
0001
0001
0001
0001
,  // measure 30
0001
0001
0001
0000
,  // measure 31
1000
1000
1000
1000
,  // measure 32
1000
1000
1000
0000
,  // measure 33
0001
1000
0001
0000
,  // measure 34
0100
0100
0100
0000
,  // measure 35
0010
0000
1000
0000
,  // measure 36
0001
0000
1000
0000
,  // measure 37
0001
0100
0001
0100
,  // measure 38
0001
1000
0001
0000
,  // measure 39
0000
0000
0000
0000
,  // measure 40
0001
0000
1000
1000
,  // measure 41
0020
0000
0130
0001
,  // measure 42
2000
0000
3010
0010
,  // measure 43
0010
0000
1000
0000
,  // measure 44
0001
0000
1000
0001
,  // measure 45
1001
0000
1000
0001
,  // measure 46
1001
0000
0010
1001
,  // measure 47
1001
0000
0010
1001
,  // measure 48
0001
1000
0001
0001
,  // measure 49
1001
0000
1000
0010
,  // measure 50
0100
0000
0001
1000
,  // measure 51
0001
0000
1000
0000
,  // measure 52
1001
0000
1001
1000
,  // measure 53
1000
1000
0001
0100
,  // measure 54
0010
0000
1000
0000
,  // measure 55
0000
0000
0000
0000
,  // measure 56
0000
0000
1001
0000
,  // measure 57
1000
0000
0001
0000
,  // measure 58
0100
0000
0010
0000
,  // measure 59
1000
0000
0001
0000
,  // measure 60
1000
0000
0001
0001
,  // measure 61
0001
0000
1000
1000
,  // measure 62
1000
0000
0010
0010
,  // measure 63
0010
0010
0010
0010
,  // measure 64
0010
0010
0010
0000
,  // measure 65
0100
0000
1000
0000
,  // measure 66
0001
0000
1000
0000
,  // measure 67
0001
0000
1000
0000
,  // measure 68
1001
1001
0010
0000
,  // measure 69
0100
0000
0001
0000
,  // measure 70
2000
0000
0000
0000
,  // measure 71
0000
0000
3000
1001
;
