#TITLE:rainbow;
#SUBTITLE:;
#ARTIST:CAPSULE;
#TITLETRANSLIT:;
#SUBTITLETRANSLIT:;
#ARTISTTRANSLIT:;
#CREDIT:;
#BANNER:[Friendly Vowels] - rainbow.png;
#BACKGROUND:[Friendly Vowels] - rainbow-background.png;
#JACKET:[Friendly Vowels] - rainbow-jacket.png;
#LYRICSPATH:;
#CDTITLE:;
#MUSIC:rainbow.mp3;
#OFFSET:-4.877;
#SAMPLESTART:39.420;
#SAMPLELENGTH:12.000;
#SELECTABLE:YES;
#BPMS:0.000=132.000;
#STOPS:2.000=0.455
,231.000=0.455
;
#BGCHANGES:;

//---------------dance-single - ----------------
#NOTES:
     dance-single:
     :
     Hard:
     7:
     0.458,0.431,0.494,0.111,0.413:
0000
0000
0000
0000
0000
0000
0000
0000
0000
0000
0000
0000
0001
0000
0000
0100
,
0000
0000
0010
0000
0000
1000
0000
0000
0010
0000
0000
0200
0000
0000
0000
0000
,
0000
0000
0000
0000
0000
0000
0000
0000
0300
0000
0000
0000
0010
0000
0000
0010
,
0000
0000
0100
0000
0000
0100
0000
0000
1000
0000
0000
0100
0000
0000
0002
0000
,
0000
0000
0000
0000
0000
0000
0000
0000
0003
0000
0000
0000
0100
0000
0000
0001
,
0000
0000
0010
0000
0000
0100
0000
0000
0010
0000
0000
0001
0000
0000
2000
0000
,
0000
0000
0000
0000
0000
0000
0000
0000
3001
0000
0000
0200
0000
0000
0000
0000
,
0000
0000
0000
0000
0000
0000
0000
0000
0010
0000
0000
0020
0000
0000
0000
0000
,
0000
0000
0000
0000
0000
0000
0000
0000
0330
0000
0000
0000
1001
0000
0000
0001
,
0000
0000
1000
0000
0000
0100
0000
0000
1000
0000
0000
0020
0000
0000
0000
0000
,
0000
0000
0000
0000
0000
0000
0000
0000
0000
0000
0030
0000
0110
0000
0000
0100
,
0000
0000
0110
0000
0000
0010
0000
0000
0110
0000
0000
0100
0000
0000
1001
0000
,
0102
0000
0000
0000
0010
0000
0000
0000
0000
0000
0003
0000
1001
0000
0000
0100
,
0000
0000
1001
0000
0000
0010
0000
0000
1001
0000
0000
0100
0000
0000
2002
0000
,
0000
0000
0000
0000
0000
0000
3003
0000
0001
0000
0000
0000
0010
0000
0000
0100
,
0000
0000
1000
0000
0000
0010
0000
0000
0100
0000
0001
0000
1000
0000
0100
0000
,
0010
0000
0100
0000
1000
2002
0000
0000
,
0000
0000
0000
0000
0000
0000
0000
0000
0000
0000
0000
0000
0000
0000
0000
0000
0000
0000
0000
0000
0000
0000
0000
0000
3003
0000
0000
0000
0000
0000
0000
0000
0000
0000
0000
0000
0000
0000
0000
0000
0000
0000
0001
0000
0000
0000
0000
0000
0000
0000
0000
0000
0000
0000
0000
0000
0000
0000
1000
0000
0000
0000
0000
0000
0000
0000
0000
0000
0000
0000
0000
0000
0000
0000
0001
0000
0000
0000
0000
0000
0000
0000
0000
0000
0000
0000
0000
0000
0000
0000
0100
0000
0000
0000
0000
0000
0000
0000
0000
0000
0000
0000
0000
0000
0000
0000
1000
0000
0000
0000
0000
0000
0000
0000
0000
0000
0000
0000
0000
0000
0000
0000
0100
0000
0000
0000
0000
0000
0000
0000
0000
0000
0000
0000
0000
0000
0000
0000
0010
0000
0000
0000
0000
0000
0000
0000
0000
0000
0000
0000
0000
0000
0000
0000
1000
0000
0000
0000
0000
0000
0000
0000
0000
0000
0000
0000
0000
0000
0000
0000
0001
0000
0000
0000
0000
0000
0000
0000
0000
0000
0000
0000
0000
0000
0000
0000
0010
0000
0000
0000
0000
0000
,
0000
0000
0000
0000
0000
0000
0000
0000
0000
0000
0100
0000
0000
0000
0000
0000
0000
0000
0000
0000
0000
0000
0000
0000
0000
0000
1000
0000
0000
0000
0000
0000
0000
0000
0000
0000
0000
0000
0000
0000
0000
0000
0000
0000
0000
0000
0000
0000
0000
0000
0000
0000
0000
0000
0000
0000
0000
0000
0000
0000
0000
0000
0000
0000
0000
0000
0000
0000
0000
0000
0000
0000
0000
0000
0000
0000
0000
0000
0000
0000
0000
0000
0000
0000
0000
0000
0000
0000
0000
0000
0000
0000
0000
0000
0000
0000
0000
0000
0000
0000
0000
0000
0000
0000
0000
0000
0000
0000
0000
0000
0000
0000
0000
0000
0000
0000
0000
0000
0000
0000
0000
0000
0000
0000
0000
0000
0000
0000
0000
0000
0000
0000
0000
0000
0000
0000
0000
0000
0000
0000
0000
0000
0000
0000
0101
0000
0000
0000
0000
0000
0000
0000
0000
0000
0000
0000
0000
0000
0000
0000
0000
0000
0000
0000
0000
0000
0000
0000
0000
0000
0000
0000
0000
0000
0000
0000
0000
0000
0000
0000
0100
0000
0000
0000
0000
0000
0000
0000
0000
0000
0000
0000
,
0000
0000
0001
0000
0010
0000
0000
0100
0000
0000
0010
0000
0001
0000
0000
0100
,
0000
0000
0010
0000
0100
0000
0000
0001
0000
0000
0010
0000
0100
0000
0000
1000
,
0000
0000
0100
0000
0001
0000
0000
0100
0000
0000
1000
0000
0100
0000
0000
1000
,
0000
0000
0100
0000
0001
0000
0000
0100
0000
0000
1000
0000
0010
0000
0000
0100
,
0000
0000
0010
0000
1000
0000
0000
0100
0000
0000
0010
0000
0100
0000
0000
1000
,
0000
0000
1000
0000
0100
0000
0000
1000
0000
0000
0010
0000
0100
0000
0000
0001
,
0000
0000
1000
0000
0100
0000
0000
0010
0000
0000
0100
0000
1000
0000
0000
0010
,
0000
0000
0100
0000
0001
0000
0000
1000
0000
0000
0100
0000
1100
0000
0000
1000
,
0000
0000
0100
0000
0110
0000
0000
0010
0000
0000
0001
0000
0011
0000
0000
0001
,
0000
0000
0100
0000
0110
0000
0000
0010
0000
0000
1000
0000
1001
0000
0000
0001
,
0000
0000
1000
0000
1100
0000
0000
0100
0000
0000
0010
0000
0110
0000
0000
0010
,
0000
0000
0001
0000
0101
0000
0000
0001
0000
0000
0100
0000
0110
0000
0000
0100
,
0000
0000
0001
0000
1001
0000
0000
1000
0000
0000
0100
0000
1100
0000
0000
0100
,
0000
0000
0010
0000
0011
0000
0000
0010
0000
0000
0001
0000
0101
0000
0000
0100
,
0000
0000
0010
0000
1010
0000
0000
1000
0000
0000
0001
0000
1000
0000
0100
0000
,
1000
0000
0010
0000
0100
0000
0010
0000
0001
0000
0010
0000
0100
0000
0000
0100
,
0000
0000
0100
0000
0110
0000
0000
0010
0000
0000
0010
0000
1010
0000
0000
1000
,
0000
0000
1000
0000
1100
0000
0000
0100
0000
0000
0100
0000
0110
0000
0000
0010
,
0000
0000
0010
0000
0011
0000
0000
0001
0000
0000
0001
0000
1001
0000
0000
1000
,
0000
0000
1000
0000
1001
0000
0000
0001
0000
0000
0001
0000
0101
0000
0000
0100
,
0000
0000
0010
0000
0110
0000
0000
0010
0000
0000
1000
0000
1010
0000
0000
1000
,
0000
0000
0100
0000
1100
0000
0000
0100
0000
0000
0010
0000
0110
0000
0000
0010
,
0000
0000
0100
0000
0110
0000
0000
0100
0000
0000
1000
0000
1100
0000
0000
0100
,
0000
0000
0010
0000
0110
0000
0000
0010
0000
0000
0001
0000
1001
0000
0000
0001
,
0000
0000
1000
0000
0100
0000
0000
0001
0000
0000
0100
0000
0010
0000
0000
0100
,
0000
0000
0100
0000
0010
0000
0000
0001
0000
0000
1000
0000
0100
0000
0000
0100
,
0000
0000
1000
0000
0100
0000
0000
1000
0000
0000
0001
0000
0010
0000
0000
0100
,
0000
0000
1000
0000
0100
0000
0000
0010
0000
0000
0100
0000
0110
0000
0000
0010
,
0000
0000
0010
0000
0001
0000
0000
0001
0000
0000
0010
0000
0100
0000
0000
0010
,
0000
0000
0001
0000
1000
0000
0000
0100
0000
0000
0010
0000
0001
0000
0000
1000
,
0000
0000
0010
0000
0100
0000
0000
0010
0000
0000
1000
0000
0010
0000
0000
0100
,
0000
0000
1000
0000
0100
0000
0000
0010
0000
0000
1000
0000
1001
0000
0000
0000
,
0001
0100
0001
0000
0100
0010
0100
0000
,
0010
1000
0010
0000
1001
0000
0110
0000
,
0100
1000
0100
0000
0100
0010
0100
0000
,
0100
0001
0100
0000
0101
0000
1010
0000
,
0000
0010
1001
0000
0000
0100
1001
0000
,
0000
0010
1001
0000
0000
0100
1001
0000
,
0110
1001
0110
1001
,
0101
0000
0000
0010
1000
0000
0100
0000
0022
0000
0000
0000
0000
0000
0000
0000
,
0000
0000
0033
0000
;

//---------------dance-single - ----------------
#NOTES:
     dance-single:
     :
     Medium:
     5:
     0.325,0.349,0.554,0.170,0.043:
0000
0000
0000
0001
,
0000
0100
0000
0000
0001
0000
0000
0020
,
0000
0000
0000
0000
0000
0030
0001
0000
,
0000
0010
0000
0000
0001
0000
0000
1000
,
0020
0130
0000
0010
,
0000
1000
0000
0000
0100
0000
0000
0002
,
0000
0000
0003
0000
0100
0020
0000
0000
,
0000
0000
0000
0002
,
0000
0000
0000
0000
0000
0000
0000
0000
0033
0000
0000
0000
0001
0000
0000
0100
,
0000
0000
0001
0000
0000
1000
0000
0000
0100
0000
0000
2000
0000
0000
0000
0000
,
0000
0000
0000
0000
0000
0000
0000
0000
3000
0000
0000
0000
1001
0000
0000
0001
,
0000
0000
1000
0000
0000
0001
0000
0000
0100
0000
0000
0001
0000
0000
0020
0000
,
0000
0000
0000
0000
0000
0000
0000
0000
0000
0000
0030
0000
0100
0000
0000
1000
,
0000
0000
0100
0000
0000
0010
0000
0000
0001
0000
0000
1000
0000
0000
0020
0000
,
0000
0000
0000
0030
0000
0000
0201
0000
,
0000
0000
0300
1020
,
0000
0000
0000
0030
0000
0000
2001
0000
,
0000
0020
0000
0000
,
0000
3030
0000
0101
,
0101
0001
1000
1100
,
1100
1000
0001
0101
,
0101
0001
1000
1100
,
1100
1000
0001
1010
,
1010
1000
0001
0011
,
0011
0001
0010
0011
,
1010
0010
1000
1010
,
0011
1010
0011
1001
,
0000
0110
0000
0101
,
0000
1100
0000
1001
,
0000
0101
0000
1001
,
0000
1100
0000
1010
,
0000
0100
0101
0000
0000
0001
1001
0000
,
0000
0010
0011
0000
0000
0100
1100
0000
,
0000
0010
0110
0000
0000
1000
1100
0000
,
0110
0011
1001
0001
,
0100
1100
0100
0010
,
1000
0101
0010
0100
,
0001
1100
1000
0100
,
0010
0011
0100
0010
,
0001
1010
0001
0100
,
0010
0101
0010
0100
,
0001
1100
0010
0001
,
0100
1001
0001
0200
,
0000
0001
0001
0302
,
0000
1000
1000
2003
,
0000
0100
0100
3200
,
0000
0000
0010
0000
0010
0300
0120
0000
,
0000
0100
0100
0230
,
0000
1000
1000
2300
,
0000
0001
0001
3002
,
0000
0100
0100
0103
,
0001
0100
0001
0100
,
0001
0100
1010
0011
,
0001
0010
0001
0010
,
0001
0010
0011
1100
,
0000
0101
0000
1010
,
0000
0011
0000
1100
,
0011
0101
1010
1001
,
0101
0000
0000
1010
0000
0000
0101
0000
1001
0000
0000
0000
0000
0000
0000
0000
;

//---------------dance-single - ----------------
#NOTES:
     dance-single:
     :
     Easy:
     3:
     0.198,0.349,0.298,0.153,0.000:
0000
0000
0000
0001
,
0000
0100
0000
0000
0001
0000
0000
0200
,
0000
0000
0300
0001
,
0000
1000
0000
0000
0001
0000
0000
2000
,
0000
0000
3000
0100
,
0000
0010
0000
0000
0100
0000
0000
0020
,
0000
0000
0030
0200
,
0000
0000
0000
2000
,
0000
0000
3300
2002
,
0000
0000
0000
0000
,
0000
0000
3003
0110
,
0000
0100
0000
0001
,
1000
0100
0000
1000
,
0000
0001
0000
0000
0100
0000
0000
0001
,
0000
0000
0000
2000
,
0000
0000
3000
0002
,
0000
0000
0003
1001
,
0000
0020
0000
0000
,
0000
0030
0000
1001
,
0000
0001
0000
0100
,
0000
0001
0000
1000
,
0000
0100
0000
1000
,
0000
0001
0000
0100
,
0000
1000
0000
0100
,
0000
0010
0000
0001
,
0000
0010
0000
0100
,
0001
0100
0001
1001
,
0000
1001
0000
0101
,
0000
0011
0000
1001
,
0000
1001
0000
1100
,
0000
1010
0000
0110
,
0000
0110
0000
1010
,
0000
1100
0000
0110
,
0000
0110
0000
0011
,
0000
0101
0000
0001
,
0000
0100
0000
1000
,
0000
0100
0000
0001
,
0000
0010
0000
1000
,
0000
0010
0000
0100
,
0000
0010
0000
0001
,
0000
0100
0000
0010
,
0000
1000
0000
0100
,
0000
0001
0000
0200
,
0000
1000
0000
2300
,
0000
0001
0000
3002
,
0000
0100
0000
0203
,
0000
0010
0000
0320
,
0000
1000
0000
2030
,
0000
0001
0000
3002
,
0000
0100
0000
0203
,
0000
0010
0000
0310
,
0000
0000
0000
0000
,
0000
0000
0101
1010
,
0000
0000
0000
0000
,
0000
0000
1100
0011
,
0000
1001
0000
0110
,
0000
1001
0000
0110
,
1001
0110
1001
0110
,
1010
0101
1001
0000
;

//---------------dance-single - ----------------
#NOTES:
     dance-single:
     :
     Beginner:
     1:
     0.119,0.324,0.170,0.000,0.000: // measure 1
0000
0000
0000
0001
,  // measure 2
0000
0000
1000
0000
,  // measure 3
0000
0000
0000
0010
,  // measure 4
0000
0000
0100
0000
,  // measure 5
0000
0000
0000
0001
,  // measure 6
0000
0000
0010
0000
,  // measure 7
0000
0000
0000
0100
,  // measure 8
0000
0000
0000
1000
,  // measure 9
0000
0000
0000
1001
,  // measure 10
0000
0000
0000
0000
,  // measure 11
0000
0000
0000
0100
,  // measure 12
0000
0000
0001
0001
,  // measure 13
0001
0000
0000
1000
,  // measure 14
0000
0000
0100
0100
,  // measure 15
0100
0000
0000
0010
,  // measure 16
0000
0000
0000
0001
,  // measure 17
0000
0000
0000
1000
,  // measure 18
0000
0001
0000
0000
,  // measure 19
0000
0000
0000
1001
,  // measure 20
0000
0000
0000
0001
,  // measure 21
0000
0000
0000
0100
,  // measure 22
0000
0000
0000
0001
,  // measure 23
0000
0000
0000
1000
,  // measure 24
0000
0000
0000
0010
,  // measure 25
0000
0000
0000
1000
,  // measure 26
0000
0000
0000
0010
,  // measure 27
0000
0010
0000
0110
,  // measure 28
0000
0000
0000
0100
,  // measure 29
0000
0001
0000
1000
,  // measure 30
0000
0000
0000
1000
,  // measure 31
0000
0100
0000
0010
,  // measure 32
0000
0000
0000
0100
,  // measure 33
0000
1000
0000
0001
,  // measure 34
0000
0000
0000
0100
,  // measure 35
0000
0010
0000
1001
,  // measure 36
0000
0000
0000
0001
,  // measure 37
0000
1000
0000
0001
,  // measure 38
0000
0000
0000
0100
,  // measure 39
0000
0010
0000
0100
,  // measure 40
0000
0000
0000
0001
,  // measure 41
0000
0100
0000
0010
,  // measure 42
0000
0000
0000
0100
,  // measure 43
0000
0010
0000
1001
,  // measure 44
0000
0000
0000
1000
,  // measure 45
0000
0000
0000
0100
,  // measure 46
0000
0000
0000
0010
,  // measure 47
0000
0000
0000
1001
,  // measure 48
0000
0000
0000
0010
,  // measure 49
0000
0000
0000
0100
,  // measure 50
0000
0000
0000
1000
,  // measure 51
0000
0000
0000
1001
,  // measure 52
0000
0000
0000
0000
,  // measure 53
0000
0000
0110
1001
,  // measure 54
0000
0000
0000
0000
,  // measure 55
0000
0000
1001
0110
,  // measure 56
0000
1001
0000
0110
,  // measure 57
0000
1001
0000
1001
,  // measure 58
1001
0110
0110
1001
,  // measure 59
0001
1000
0110
0000
;
